osu file format v14

[General]
AudioFilename: audio.mp3
AudioLeadIn: 0
PreviewTime: 57732
Countdown: 0
SampleSet: Soft
StackLeniency: 0.7
Mode: 0
LetterboxInBreaks: 0
WidescreenStoryboard: 1

[Editor]
Bookmarks: 36737
DistanceSpacing: 0.4
BeatDivisor: 4
GridSize: 8
TimelineZoom: 1.8

[Metadata]
Title:FUN FUN RE-BOOT
TitleUnicode:FUN FUN RE-BOOT
Artist:QUARTET*RE-BOOT!
ArtistUnicode:QUARTET☆RE-BOOT!
Creator:Natsume Shizuku
Version:KennethBBG's Extra!
Source:天使☆騒々 RE-BOOT!
Tags:KennethBBG nantokanaru eringiRa 白雪乃愛 谷風天音 小雲雀来海 星河かぐ耶 shirayuki noa tanikaze amane kohibari kurumi hoshikawa kaguya visual novel vn eroge yuzusoft op opening video game vgm pop angelic chaos angelic*chaos 天使*囂囂 天使*嚣嚣 female vocal jpop j-pop japanese tenshi souzou reboot
BeatmapID:4093750
BeatmapSetID:1961925

[Difficulty]
HPDrainRate:5
CircleSize:4
OverallDifficulty:8
ApproachRate:9
SliderMultiplier:1.92
SliderTickRate:1

[Events]
//Background and Video events
0,0,"kurumi.jpg",0,0
//Break Periods
//Storyboard Layer 0 (Background)
//Storyboard Layer 1 (Fail)
//Storyboard Layer 2 (Pass)
//Storyboard Layer 3 (Foreground)
//Storyboard Layer 4 (Overlay)
//Storyboard Sound Samples

[TimingPoints]
2816,333.333333333333,4,2,1,70,1,0
5148,-142.857142857143,4,2,1,70,0,0
5482,-111.111111111111,4,2,1,70,0,0
7315,-90.9090909090909,4,2,1,70,0,0
7981,-80,4,2,1,70,0,0
8649,-80,4,2,1,70,0,0
10481,-250.000000000001,4,2,1,70,0,0
10814,-142.857142857143,4,2,1,70,0,0
10815,-100,4,2,1,90,0,0
13815,-100,4,2,1,90,0,0
14648,-90.9090909090909,4,2,1,90,0,0
17315,-83.3333333333333,4,2,1,90,0,0
21481,-100,4,2,1,90,0,0
21482,-133.333333333333,4,2,1,50,0,0
21815,-133.333333333333,4,2,1,50,0,0
23981,-133.333333333333,4,2,1,50,0,0
24481,-133.333333333333,4,2,1,50,0,0
25315,-111.111111111111,4,2,1,50,0,0
26649,-133.333333333333,4,2,1,50,0,0
27148,-133.333333333333,4,2,1,50,0,0
29815,-166.666666666667,4,2,1,50,0,0
30648,-100,4,2,1,50,0,0
31981,-100,4,2,1,50,0,0
31982,-117.647058823529,4,2,1,60,0,0
37315,-133.333333333333,4,2,1,60,0,0
39982,-117.647058823529,4,2,1,60,0,0
42648,-133.333333333333,4,2,1,60,0,0
42649,-142.857142857143,4,2,1,55,0,0
47399,-142.857142857143,4,2,1,5,0,0
47482,-142.857142857143,4,2,1,55,0,0
47981,-117.647058823529,4,2,1,55,0,0
50814,-117.647058823529,4,2,1,55,0,0
50815,-100,4,2,1,65,0,0
53481,-100,4,2,1,65,0,0
53482,-100,4,2,1,70,0,0
56148,-100,4,2,1,70,0,0
56149,-100,4,2,1,80,0,0
58481,-222.222222222221,4,2,1,80,0,0
58814,-133.333333333333,4,2,1,80,0,0
58815,-68.9655172413793,4,2,1,90,0,1
59149,-80,4,2,1,90,0,1
61149,-222.222222222222,4,2,1,90,0,1
61482,-80,4,2,1,90,0,1
62315,-80,4,2,2,90,0,1
62399,-80,4,2,1,5,0,1
62482,-80,4,2,2,90,0,1
62565,-80,4,2,1,5,0,1
62649,-80,4,2,2,90,0,1
62732,-80,4,2,1,5,0,1
62815,-80,4,2,1,90,0,1
63815,-181.818181818182,4,2,1,90,0,1
64149,-68.9655172413793,4,2,1,90,0,1
64649,-80,4,2,1,90,0,1
66815,-68.9655172413793,4,2,1,90,0,1
67315,-80,4,2,1,90,0,1
67649,-80,4,2,2,90,0,1
67732,-80,4,2,1,5,0,1
67815,-80,4,2,2,90,0,1
67899,-80,4,2,1,5,0,1
67982,-80,4,2,2,90,0,1
68065,-80,4,2,1,5,0,1
68149,-80,4,2,2,90,0,1
68482,-80,4,2,1,90,0,1
71815,-181.818181818181,4,2,1,90,0,1
72149,-68.9655172413793,4,2,1,90,0,1
72482,-79.9999999999999,4,2,1,90,0,1
73815,-79.9999999999999,4,2,1,90,0,1
74815,-79.9999999999999,4,2,1,90,0,1
77315,-100,4,2,1,90,0,1
80149,-100,4,2,1,90,0,1
81315,-133.333333333333,4,2,1,90,0,1
82649,-100,4,2,1,90,0,0
84815,-83.3333333333333,4,2,1,90,0,0
86649,-111.111111111111,4,2,1,90,0,0
87315,-100,4,2,1,5,0,0

[Colours]
Combo1 : 197,180,248
Combo2 : 254,217,139
Combo3 : 252,177,217

[HitObjects]
175,182,4982,6,0,P|162:202|142:214,1,48,0|0,3:2|0:0,0:0:0:0:
66,240,5149,2,0,P|116:256|156:289,1,100.799996923828,10|0,0:2|0:0,0:0:0:0:
182,315,5482,5,2,3:2:0:0:
354,195,5649,1,2,0:2:0:0:
194,152,5815,1,10,0:2:0:0:
320,384,5982,6,0,P|294:293|253:202,1,172.799994726563,6|10,3:2|2:2,0:0:0:0:
388,277,6482,1,2,0:2:0:0:
134,376,6649,5,2,3:2:0:0:
110,371,6732,1,0,3:2:0:0:
89,368,6815,1,6,0:2:0:0:
263,221,6982,1,2,0:2:0:0:
36,89,7149,1,10,2:2:0:0:
143,89,7315,6,0,P|113:162|92:238,1,158.400004833985,6|0,3:2|0:0,0:0:0:0:
99,279,7649,1,10,0:2:0:0:
329,47,7815,1,10,0:2:0:0:
230,91,7982,6,0,B|381:167|381:167|395:215|434:237,1,240,6|0,3:2|0:0,0:0:0:0:
476,145,8482,1,0,3:2:0:0:
310,331,8649,6,0,P|264:346|177:393,1,120,8|0,2:2|0:0,0:0:0:0:
383,114,8982,2,0,P|423:61|479:52,1,120,8|0,2:2|0:0,0:0:0:0:
326,242,9315,5,8,2:2:0:0:
363,116,10315,5,0,3:2:0:0:
363,116,10399,1,0,3:2:0:0:
363,116,10482,2,0,P|386:132|421:144,1,57.6,4|0,3:2|0:0,0:0:0:0:
476,61,10815,6,0,B|453:158|453:158|485:192|491:240,1,192,10|0,0:2|3:2,0:0:0:0:
363,383,11315,1,2,0:2:0:0:
228,262,11482,1,0,3:2:0:0:
189,368,11649,1,0,0:0:0:0:
375,195,11815,1,8,2:2:0:0:
363,383,11982,6,0,P|337:316|281:192,1,192,6|2,3:2|0:2,0:0:0:0:
72,362,12482,1,2,3:2:0:0:
193,179,12649,1,2,0:2:0:0:
23,214,12815,2,0,P|65:237|109:255,1,96,0|0,3:2|3:2,0:0:0:0:
261,110,13149,1,8,0:2:0:0:
224,365,13315,6,0,B|232:251|184:282|193:172,1,192,6|2,3:2|0:2,0:0:0:0:
363,383,13815,2,0,P|405:359|449:341,1,96,10|0,0:2|0:0,0:0:0:0:
294,218,14149,1,0,3:2:0:0:
469,329,14315,1,0,3:2:0:0:
305,124,14482,1,10,2:2:0:0:
467,125,14649,6,0,B|417:116|388:171|388:171|352:230|287:216,1,211.200006445313,0|0,3:2|0:0,0:0:0:0:
140,12,15149,2,0,P|190:27|240:44,1,105.600003222656,10|0,0:2|0:0,0:0:0:0:
191,280,15482,2,0,P|166:234|174:183,1,105.600003222656,2|0,3:2|3:2,0:0:0:0:
436,46,15815,1,10,2:2:0:0:
349,6,15982,6,0,P|321:107|307:212,1,211.200006445313,6|0,3:2|0:0,0:0:0:0:
512,374,16482,2,0,P|520:322|495:277,1,105.600003222656,8|0,0:2|0:0,0:0:0:0:
283,299,16815,1,2,3:2:0:0:
420,384,16982,1,0,3:2:0:0:
492,146,17149,1,8,2:2:0:0:
377,305,17315,6,0,B|425:243|448:150|342:136|298:192|340:238,1,230.39999296875,4|0,3:2|0:0,0:0:0:0:
127,110,17815,1,8,0:2:0:0:
140,367,17982,6,0,P|180:232|217:128,1,230.39999296875,4|2,3:2|3:2,0:0:0:0:
472,53,18482,1,10,0:2:0:0:
409,201,18649,1,2,0:2:0:0:
194,8,18815,5,4,3:2:0:0:
430,121,18982,1,0,0:0:0:0:
190,28,19149,1,8,0:2:0:0:
281,247,19315,6,0,P|294:181|299:169,1,57.5999982421876,0|0,3:2|0:0,0:0:0:0:
218,326,19649,6,0,P|182:268|177:256,1,57.5999982421876,0|0,3:2|0:0,0:0:0:0:
378,305,19815,1,8,0:2:0:0:
79,384,19982,6,0,B|41:364|-5:353|-5:353|30:301|44:252,1,172.799994726563,6|0,3:2|0:0,0:0:0:0:
54,253,20315,5,10,0:2:0:0:
287,85,20482,1,10,0:2:0:0:
65,9,20649,5,6,3:2:0:0:
303,240,21482,102,0,P|273:209|220:204,1,72.0000027465821,2|0,3:2|0:0,0:0:0:0:
142,298,21815,2,0,P|77:279|38:183,1,144.000005493164,10|2,0:2|3:2,0:0:0:0:
137,149,22315,1,2,3:2:0:0:
246,201,22482,1,8,0:2:0:0:
210,73,22649,54,0,P|167:156|146:204,1,144.000005493164,2|0,3:2|0:0,0:0:0:0:
260,292,23149,1,10,0:2:0:0:
260,292,23482,1,2,3:2:0:0:
333,241,23649,1,2,3:2:0:0:
439,296,23815,1,8,0:2:0:0:
443,199,23982,54,0,P|421:249|392:345,1,144.000005493164,2|0,3:2|0:0,0:0:0:0:
216,384,24482,2,0,P|165:344|171:246,1,144.000005493164,10|2,0:2|3:2,0:0:0:0:
238,206,24982,1,2,3:2:0:0:
300,285,25149,1,8,0:2:0:0:
448,204,25315,6,0,B|392:215|392:215|351:255|297:287,1,172.799994726563,6|0,3:2|0:0,0:0:0:0:
210,89,25815,2,0,P|195:119|183:149,1,43.1999986816407,8|0,0:2|0:0,0:0:0:0:
98,164,25982,6,0,P|169:217|252:197,1,172.799994726563,4|0,3:2|0:0,0:0:0:0:
417,60,26482,1,8,0:2:0:0:
291,24,26649,6,0,P|342:121|363:167,1,144.000005493164,6|0,3:2|0:0,0:0:0:0:
171,269,27149,2,0,B|222:251|222:251|308:316,1,144.000005493164,10|2,0:2|3:2,0:0:0:0:
378,238,27649,1,2,3:2:0:0:
488,285,27816,1,8,0:2:0:0:
512,153,27983,54,0,P|469:236|448:284,1,144.000005493164,2|0,3:2|0:0,0:0:0:0:
334,384,28483,1,10,0:2:0:0:
334,384,28815,1,2,3:2:0:0:
258,316,28982,1,2,3:2:0:0:
152,384,29148,1,8,0:2:0:0:
59,299,29315,6,0,B|95:292|126:328|110:328|138:360|184:361,1,144.000005493164,2|0,3:2|0:0,0:0:0:0:
349,272,29815,2,0,P|315:231|246:225,1,115.199996484375,10|2,0:2|3:2,0:0:0:0:
182,271,30315,1,2,3:2:0:0:
314,145,30482,1,8,0:2:0:0:
93,140,30648,6,0,B|209:167|209:167|224:201|265:228,1,192,6|0,3:2|0:0,0:0:0:0:
502,55,31149,1,8,0:2:0:0:
449,196,31315,6,0,P|413:107|369:22,1,192,4|0,3:2|0:0,0:0:0:0:
360,5,31732,1,0,3:0:0:0:
360,5,31815,1,8,0:2:0:0:
131,12,31982,6,0,P|207:69|276:57,1,163.200003112793,6|2,3:2|0:2,0:0:0:0:
485,124,32482,2,0,P|477:163|445:196,1,81.6000015563965,10|2,0:2|0:2,0:0:0:0:
331,223,32815,1,2,3:2:0:0:
307,138,32982,2,0,P|350:127|407:119,1,81.6000015563965,2|8,0:2|0:2,0:0:0:0:
512,299,33315,6,0,B|415:276|415:276|397:301|352:319,1,163.200003112793,2|0,3:2|0:0,0:0:0:0:
235,225,33815,2,0,P|220:171|199:121,1,81.6000015563965,10|0,2:2|0:0,0:0:0:0:
36,87,34149,1,2,3:2:0:0:
139,48,34315,2,0,P|125:86|114:125,1,81.6000015563965,2|8,3:2|2:2,0:0:0:0:
0,318,34649,6,0,B|83:319|43:387|160:382,1,163.200003112793,2|0,3:2|0:0,0:0:0:0:
282,221,35149,2,0,P|185:228|145:279,1,163.200003112793,10|2,2:2|3:2,0:0:0:0:
242,310,35649,1,2,2:2:0:0:
389,224,35815,1,8,2:2:0:0:
354,384,35982,6,0,P|379:265|393:211,1,163.200003112793,6|0,3:2|0:0,0:0:0:0:
495,309,36482,1,8,2:2:0:0:
242,310,36649,2,0,B|198:290|198:290|154:330|84:343,1,163.200003112793,4|2,3:2|2:2,0:0:0:0:
220,147,37149,1,10,2:2:0:0:
0,160,37315,6,0,P|78:179|145:210,1,144.000005493164,6|0,3:2|0:0,0:0:0:0:
303,70,37815,1,10,2:2:0:0:
303,70,38149,1,2,3:2:0:0:
220,147,38315,1,2,2:2:0:0:
277,279,38482,1,10,2:2:0:0:
381,186,38649,6,0,B|301:201|336:230|253:248,1,144.000005493164,6|2,3:2|2:2,0:0:0:0:
142,206,39149,1,10,2:2:0:0:
220,147,39315,1,2,2:2:0:0:
161,322,39482,1,2,3:2:0:0:
63,277,39649,1,2,3:2:0:0:
226,243,39815,1,10,2:2:0:0:
0,157,39982,6,0,P|-7:75|52:20,1,163.200003112793,6|0,3:2|0:0,0:0:0:0:
178,94,40482,2,0,P|109:110|73:128,1,81.6000015563965,8|0,2:2|0:0,0:0:0:0:
62,269,40815,1,0,3:2:0:0:
159,196,40982,1,0,3:2:0:0:
46,21,41149,1,8,2:2:0:0:
219,0,41315,6,0,P|333:24|393:35,1,163.200003112793,0|0,3:2|0:0,0:0:0:0:
307,200,41815,2,0,P|285:165|270:127,1,81.6000015563965,10|0,2:2|0:0,0:0:0:0:
434,295,42149,2,0,P|455:260|470:222,1,81.6000015563965,2|0,3:2|3:2,0:0:0:0:
205,384,42482,1,10,2:2:0:0:
165,285,42649,6,0,P|230:277|285:315,1,134.399995898438,6|2,3:2|2:2,0:0:0:0:
376,233,43149,2,0,P|369:181|357:143,1,67.1999979492188,2|2,2:2|3:2,0:0:0:0:
253,39,43482,1,10,2:2:0:0:
340,70,43649,1,2,2:2:0:0:
340,70,43982,6,0,P|293:114|224:126,1,134.399995898438,2|10,3:2|2:2,0:0:0:0:
108,58,44482,2,0,P|123:122|127:152,1,67.1999979492188,2|2,2:2|3:2,0:0:0:0:
40,230,44815,1,10,2:2:0:0:
40,230,45149,1,2,2:2:0:0:
103,319,45315,6,0,P|140:264|203:244,1,134.399995898438,2|8,3:2|2:2,0:0:0:0:
263,329,45815,2,0,P|210:341|179:352,1,67.1999979492188,2|2,2:2|3:2,0:0:0:0:
289,201,46149,1,10,2:2:0:0:
289,201,46315,2,0,P|342:213|373:224,1,67.1999979492188,2|2,2:2|2:2,0:0:0:0:
448,384,46649,6,0,B|413:311|413:311|432:287|443:252,1,134.399995898438,2|8,3:2|2:2,0:0:0:0:
507,115,47149,2,0,P|465:88|415:89,1,100.799996923828,2|0,2:2|0:0,0:0:0:0:
393,98,47482,1,10,2:2:0:0:
360,185,47649,1,0,3:2:0:0:
269,204,47815,1,10,2:2:0:0:
415,278,47982,6,0,P|343:236|258:200,1,163.200003112793,6|2,3:2|3:2,0:0:0:0:
262,61,48482,2,0,P|308:90|316:122,1,81.6000015563965,2|2,2:2|3:2,0:0:0:0:
199,266,48815,1,10,2:2:0:0:
106,199,48982,2,0,B|144:179|182:171,1,81.6000015563965,2|0,2:2|0:0,0:0:0:0:
55,21,49315,6,0,P|34:108|20:185,1,163.200003112793,2|8,3:2|2:2,0:0:0:0:
124,297,49815,2,0,P|159:277|198:265,1,81.6000015563965,2|0,2:2|0:0,0:0:0:0:
342,235,50149,2,0,P|302:223|262:200,1,81.6000015563965,10|0,2:2|3:2,0:0:0:0:
189,45,50482,1,10,2:2:0:0:
189,45,50815,6,0,P|253:38|322:84,1,144,6|0,3:2|0:0,0:0:0:0:
322,115,51149,1,10,2:2:0:0:
468,174,51315,2,0,P|488:110|506:82,1,96,2|0,2:2|3:2,0:0:0:0:
411,34,51649,1,2,3:2:0:0:
234,140,51815,1,10,2:2:0:0:
433,262,51982,6,0,P|346:229|270:281,1,192,2|0,3:2|3:2,0:0:0:0:
243,384,52482,2,0,P|186:355|133:337,1,96,10|0,2:2|0:0,0:0:0:0:
0,256,52815,2,0,P|57:227|110:209,1,96,2|2,3:2|3:2,0:0:0:0:
182,39,53149,1,10,2:2:0:0:
255,264,53315,5,0,3:0:0:0:
255,264,53399,1,0,3:0:0:0:
255,264,53482,2,0,B|258:220|275:170|275:170|215:161|173:140,1,192,6|10,3:2|2:2,0:0:0:0:
0,0,53982,2,0,P|29:57|47:110,1,96,0|0,3:2|3:2,0:0:0:0:
0,256,54315,1,0,3:2:0:0:
172,244,54482,2,0,P|127:226|85:203,1,96,8|0,2:2|0:0,0:0:0:0:
294,50,54815,6,0,B|254:63|229:110|229:110|212:58|172:28,1,192,6|8,3:2|2:2,0:0:0:0:
321,187,55315,2,0,B|306:157|348:115|416:143|408:204|375:248,1,192,2|0,3:2|3:2,0:0:0:0:
276,282,55815,1,8,2:2:0:0:
406,59,55982,1,0,3:0:0:0:
406,59,56065,1,0,3:0:0:0:
406,59,56149,5,10,2:2:0:0:
487,254,56315,1,0,0:0:0:0:
278,72,56482,1,0,3:2:0:0:
50,363,56649,5,10,2:2:0:0:
271,228,56815,1,0,3:2:0:0:
50,363,56982,1,0,3:2:0:0:
52,57,57149,5,10,2:2:0:0:
137,216,57315,1,0,3:2:0:0:
239,383,57482,5,6,3:2:0:0:
187,323,58315,5,0,3:2:0:0:
187,323,58399,1,0,3:0:0:0:
186,322,58482,2,0,P|155:304|120:299,1,64.799998022461,10|0,2:2|0:0,0:0:0:0:
10,335,58815,6,0,B|43:341|60:368|60:368|116:306|51:239,1,208.800006372071,6|0,3:2|0:0,0:0:0:0:
34,218,59149,1,10,2:2:0:0:
182,56,59315,2,0,P|244:86|297:95,1,120,2|0,2:2|3:2,0:0:0:0:
512,100,59649,1,2,3:2:0:0:
335,225,59815,1,10,2:2:0:0:
512,384,59982,6,0,B|501:255|433:309|424:160,1,240,2|0,3:2|3:2,0:0:0:0:
337,350,60482,2,0,P|283:358|216:386,1,120,10|0,2:2|0:0,0:0:0:0:
48,246,60815,1,2,3:2:0:0:
0,379,60982,1,0,3:2:0:0:
186,255,61149,6,0,P|172:218|152:178,1,64.799998022461,10|0,2:2|0:0,0:0:0:0:
210,59,61482,6,0,B|293:89|293:89|319:130|319:130|416:161,1,240,6|10,3:2|2:2,0:0:0:0:
487,0,61982,2,0,P|436:12|410:78,1,120,2|0,2:2|3:2,0:0:0:0:
512,291,62315,6,0,P|494:256|468:235,1,60,2|0,3:2|0:0,0:0:0:0:
392,250,62482,2,0,P|368:283|365:318,1,60,10|0,2:2|0:0,0:0:0:0:
420,380,62649,2,0,P|459:381|486:366,1,60,2|0,0:0|0:0,0:0:0:0:
439,307,62815,5,0,3:2:0:0:
58,328,63149,5,10,2:2:0:0:
188,254,63315,1,0,0:0:0:0:
269,356,63482,5,2,3:2:0:0:
157,106,63649,1,0,3:2:0:0:
0,217,63815,6,0,P|37:208|96:189,1,79.2000024169923,10|0,2:2|0:0,0:0:0:0:
280,205,64149,6,0,B|237:238|183:254|183:254|224:284|253:331,1,208.800006372071,6|0,3:2|0:0,0:0:0:0:
270,358,64482,1,10,2:2:0:0:
432,199,64649,2,0,P|409:143|400:84,1,120,2|0,2:2|3:2,0:0:0:0:
162,17,64982,1,2,3:2:0:0:
296,159,65149,1,8,2:2:0:0:
92,227,65315,6,0,B|20:167|71:85|71:85|93:127|137:131,1,240,2|0,3:2|3:2,0:0:0:0:
111,361,65815,2,0,P|60:334|0:316,1,120,10|0,2:2|0:0,0:0:0:0:
299,235,66149,1,2,3:2:0:0:
218,327,66315,1,0,3:2:0:0:
453,374,66482,2,0,P|432:317|407:263,1,120,10|0,2:2|0:0,0:0:0:0:
481,52,66815,6,0,B|419:52|402:101|402:101|379:158|315:150,1,208.800006372071,6|0,3:2|0:0,0:0:0:0:
295,152,67149,1,10,2:2:0:0:
503,137,67315,5,2,2:2:0:0:
494,140,67399,1,0,3:0:0:0:
485,143,67482,1,0,3:2:0:0:
206,310,67649,6,0,P|214:272|223:224,1,60,2|0,3:2|0:0,0:0:0:0:
323,353,67815,2,0,P|314:320|307:286,1,60,10|0,2:2|0:0,0:0:0:0:
411,280,67982,2,0,P|397:253|378:221,1,60,2|0,0:0|0:0,0:0:0:0:
295,152,68149,5,2,3:2:0:0:
295,152,68482,6,0,B|250:135|250:135|202:170|117:193,1,180,10|0,2:2|0:0,0:0:0:0:
52,141,68815,2,0,P|49:82|90:42,1,120,2|0,3:2|0:0,0:0:0:0:
178,63,69149,1,10,2:2:0:0:
201,381,69315,5,0,3:0:0:0:
201,381,69399,1,0,3:0:0:0:
201,381,69482,2,0,P|119:345|12:319,1,180,6|0,3:2|0:0,0:0:0:0:
0,311,69815,1,10,2:2:0:0:
215,242,69982,2,0,P|272:225|328:203,1,120,2|0,2:2|3:2,0:0:0:0:
184,63,70315,1,2,3:2:0:0:
0,199,70482,1,8,2:2:0:0:
23,0,70649,6,0,P|75:92|129:219,1,240,2|0,3:2|3:2,0:0:0:0:
326,376,71149,2,0,P|381:354|439:337,1,120,10|0,2:2|0:0,0:0:0:0:
512,110,71482,1,2,3:2:0:0:
334,224,71649,1,0,3:2:0:0:
383,88,71815,6,0,P|408:136|419:177,1,79.2000024169923,10|0,2:2|0:0,0:0:0:0:
480,267,72149,6,0,P|417:345|318:336,1,208.800006372071,6|0,3:2|0:0,0:0:0:0:
288,325,72482,1,10,2:2:0:0:
68,201,72649,2,0,P|137:174|199:143,1,120,2|0,2:2|3:2,0:0:0:0:
452,182,72982,1,2,3:2:0:0:
296,52,73149,1,8,2:2:0:0:
288,325,73315,6,0,B|298:195|369:250|376:101,1,240,6|0,3:2|3:2,0:0:0:0:
157,33,73815,2,0,P|176:83|211:161,1,120,8|0,2:2|0:0,0:0:0:0:
394,325,74149,5,2,3:2:0:0:
397,316,74232,1,0,3:0:0:0:
400,307,74316,1,0,3:0:0:0:
512,147,74482,1,8,2:2:0:0:
296,52,74649,1,0,0:0:0:0:
397,180,74815,6,0,P|308:213|232:258,1,180,6|0,3:2|0:0,0:0:0:0:
195,263,75149,1,0,3:2:0:0:
0,182,75315,2,0,P|56:160|110:136,1,120,10|0,2:2|0:0,0:0:0:0:
283,1,75649,1,2,3:2:0:0:
256,196,75815,1,8,2:2:0:0:
25,0,75982,6,0,B|180:42|180:42|205:81|245:101,1,240,6|0,3:2|0:0,0:0:0:0:
160,244,76482,2,0,P|126:194|137:133,1,120,8|0,2:2|0:0,0:0:0:0:
439,177,76815,1,2,3:2:0:0:
303,286,76982,1,2,3:2:0:0:
398,43,77149,1,10,2:2:0:0:
439,177,77315,6,0,P|352:136|262:106,1,192,6|0,3:2|0:0,0:0:0:0:
207,310,77815,2,0,P|267:379|359:371,1,192,8|0,2:2|3:2,0:0:0:0:
239,226,78315,1,0,3:2:0:0:
451,166,78482,1,8,2:2:0:0:
316,45,78649,5,0,3:0:0:0:
320,55,78732,1,0,3:0:0:0:
324,66,78815,1,0,3:2:0:0:
384,268,78982,1,0,0:0:0:0:
80,384,79149,5,8,2:2:0:0:
217,139,79316,1,0,3:2:0:0:
85,145,79482,5,10,2:2:0:0:
255,214,79649,1,0,3:2:0:0:
85,145,79815,1,10,2:2:0:0:
80,384,80149,6,0,P|107:299|154:192,1,192,6|2,3:2|2:2,0:0:0:0:
151,16,80649,1,2,3:2:0:0:
314,141,80815,1,8,2:2:0:0:
325,51,80982,2,0,P|280:67|235:86,1,96,2|0,3:2|0:0,0:0:0:0:
292,384,81315,6,0,B|337:227|337:227|375:212|398:177,1,216.000008239746,6|0,3:2|0:0,0:0:0:0:
436,116,81982,2,0,P|391:104|384:100,1,36.0000013732911,0|0,3:2|3:2,0:0:0:0:
245,250,82149,5,2,3:2:0:0:
336,229,82315,1,0,3:2:0:0:
425,206,82482,1,10,2:2:0:0:
94,148,82649,6,0,P|123:260|139:345,1,192,6|0,3:2|0:0,0:0:0:0:
272,170,83149,2,0,P|223:153|176:133,1,96,8|0,2:2|0:0,0:0:0:0:
14,384,83482,5,0,3:2:0:0:
180,261,83649,1,2,3:2:0:0:
334,384,83815,5,8,2:2:0:0:
154,170,83982,1,0,0:0:0:0:
170,366,84149,6,0,P|237:346|277:287,1,144,6|0,3:2|0:0,0:0:0:0:
154,170,84482,2,0,P|171:214|179:261,1,96,8|0,2:2|0:0,0:0:0:0:
334,384,84815,2,0,P|387:354|438:362,1,115.199996484375,0|2,3:2|2:2,0:0:0:0:
355,184,85149,5,8,2:2:0:0:
472,363,85315,1,0,3:2:0:0:
456,92,85482,5,10,2:2:0:0:
295,263,85649,1,0,3:2:0:0:
337,50,85815,1,0,3:2:0:0:
505,271,85982,6,0,P|413:222|318:158,1,172.799994726563,10|0,2:2|0:0,0:0:0:0:
220,38,86315,5,0,3:2:0:0:
226,59,86399,1,0,3:2:0:0:
232,80,86482,1,10,2:2:0:0:
57,248,86649,6,0,B|32:184|32:184|77:165|114:122|114:122|135:171|174:200|174:200|134:261,1,345.599989453125,6|0,3:2|0:0,0:0:0:0:
