osu file format v14

[General]
AudioFilename: audio.mp3
AudioLeadIn: 0
PreviewTime: 57649
Countdown: 0
SampleSet: Soft
StackLeniency: 0.7
Mode: 3
LetterboxInBreaks: 0
SpecialStyle: 0
WidescreenStoryboard: 1

[Editor]
DistanceSpacing: 0.6
BeatDivisor: 4
GridSize: 4
TimelineZoom: 2.2

[Metadata]
Title:FUN FUN RE-BOOT
TitleUnicode:FUN FUN RE-BOOT
Artist:QUARTET*RE-BOOT!
ArtistUnicode:QUARTET☆RE-BOOT!
Creator:Nabi-
Version:Normal
Source:天使☆騒々 RE-BOOT!
Tags:ML-ysg AngelNote famishin 白雪乃愛 shirayuki noa 瀬戸乃マリエ Setono Marie 大地葉 Taichi You 谷風天音 tanikaze amane 夏和小 Kanko 藤田茜 Fujita Akane 小雲雀来海 kohibari kurumi 柳ひとみ Yanagi Hitomi 戸田めぐみ Toda Megumi 星河かぐ耶 hoshikawa kaguya 遥そら Haruka Sora 仙台エリ Sendai Eri yuzusoft eroge visual novel tenshi souzou re-boot! reboot japanese j-pop pop jpop video game galgame
BeatmapID:4067378
BeatmapSetID:1962117

[Difficulty]
HPDrainRate:7.2
CircleSize:4
OverallDifficulty:7.2
ApproachRate:5
SliderMultiplier:1.4
SliderTickRate:1

[Events]
//Background and Video events
Video,-160,"Video.mp4"
0,0,"Kurumi.jpg",0,0
//Break Periods
//Storyboard Layer 0 (Background)
//Storyboard Layer 1 (Fail)
//Storyboard Layer 2 (Pass)
//Storyboard Layer 3 (Foreground)
//Storyboard Layer 4 (Overlay)
//Storyboard Sound Samples
Sample,11649,0,"Hat Open.wav",25
Sample,12982,0,"Hat Open.wav",25
Sample,14316,0,"Hat Open.wav",25
Sample,14649,0,"Hat Open.wav",25
Sample,15649,0,"Hat Open.wav",25
Sample,16982,0,"Hat Open.wav",25
Sample,19316,0,"Hat Open.wav",25
Sample,19649,0,"Hat Open.wav",25
Sample,22149,0,"Hat Close.wav",40
Sample,22316,0,"Hat Close.wav",40
Sample,22649,0,"Hat Open.wav",25
Sample,23482,0,"Hat Close.wav",40
Sample,23649,0,"Hat Close.wav",40
Sample,23982,0,"Hat Open.wav",25
Sample,24816,0,"Hat Close.wav",40
Sample,24982,0,"Hat Close.wav",40
Sample,27482,0,"Hat Close.wav",40
Sample,27649,0,"Hat Close.wav",40
Sample,27982,0,"Hat Open.wav",25
Sample,28816,0,"Hat Close.wav",40
Sample,28982,0,"Hat Close.wav",40
Sample,29316,0,"Hat Open.wav",25
Sample,30149,0,"Hat Close.wav",40
Sample,30316,0,"Hat Close.wav",40
Sample,32816,0,"Hat Close.wav",40
Sample,34149,0,"Hat Close.wav",40
Sample,34649,0,"Hat Open.wav",25
Sample,35482,0,"Hat Close.wav",40
Sample,38149,0,"Hat Close.wav",40
Sample,39482,0,"Hat Close.wav",40
Sample,40816,0,"Hat Close.wav",40
Sample,41316,0,"Hat Open.wav",25
Sample,42149,0,"Hat Close.wav",40
Sample,51482,0,"Hat Close.wav",40
Sample,52816,0,"Hat Close.wav",40
Sample,59482,0,"Hat Close.wav",40
Sample,60816,0,"Hat Close.wav",40
Sample,62149,0,"Hat Close.wav",40
Sample,62816,0,"Hat Close.wav",40
Sample,63482,0,"Hat Close.wav",40
Sample,64816,0,"Hat Close.wav",40
Sample,66149,0,"Hat Close.wav",40
Sample,67482,0,"Hat Close.wav",40
Sample,67649,0,"Hat Close.wav",40
Sample,68149,0,"Hat Close.wav",40
Sample,68816,0,"Hat Close.wav",40
Sample,70149,0,"Hat Close.wav",40
Sample,71482,0,"Hat Close.wav",40
Sample,72816,0,"Hat Close.wav",40
Sample,72982,0,"Hat Close.wav",40
Sample,74149,0,"Hat Close.wav",40
Sample,76816,0,"Hat Close.wav",40
Sample,78149,0,"Hat Close.wav",40
Sample,78816,0,"Hat Close.wav",40
Sample,83482,0,"Hat Close.wav",40
Sample,84816,0,"Hat Close.wav",40

[TimingPoints]
5483,333.333333333333,4,2,1,50,1,0
58816,-100,4,2,1,50,0,1
77316,-100,4,2,1,50,0,0

[HitObjects]
320,192,4983,5,2,0:0:0:0:
64,192,5149,1,8,0:0:0:0:
448,192,5149,1,4,0:0:0:0:
448,192,5482,1,4,0:0:0:0:
192,192,5482,1,2,0:0:0:0:
320,192,5649,1,0,0:0:0:0:
64,192,5816,1,8,0:0:0:0:
320,192,5982,128,2,6316:0:0:0:0:
448,192,5982,1,4,0:0:0:0:
64,192,6316,1,8,0:0:0:0:
448,192,6482,1,0,0:0:0:0:
64,192,6649,128,2,6982:0:0:0:0:
320,192,6816,1,2,0:0:0:0:
448,192,6816,1,4,0:0:0:0:
192,192,6982,1,0,0:0:0:0:
448,192,7149,1,8,0:0:0:0:
64,192,7316,1,2,0:0:0:0:
192,192,7316,128,4,7649:0:0:0:0:
320,192,7649,1,8,0:0:0:0:
64,192,7816,1,8,0:0:0:0:
320,192,7982,1,4,0:0:0:0:
448,192,7982,128,2,8482:0:0:0:0:
64,192,8482,1,2,0:0:0:0:
192,192,8649,1,8,0:0:0:0:
320,192,8649,1,0,0:0:0:50:Short Finish.wav
192,192,8982,1,10,0:0:0:0:
320,192,8982,1,0,0:0:0:50:Short Finish.wav
64,192,9316,1,2,0:0:0:0:
448,192,9316,1,0,0:0:0:50:Short Finish.wav
320,192,9816,1,0,0:0:0:0:
192,192,10149,1,0,0:0:0:0:
320,192,10316,1,2,0:0:0:0:
64,192,10482,128,8,10816:0:0:0:0:
448,192,10482,1,4,0:0:0:0:
320,192,10816,1,4,0:0:0:0:
448,192,10816,1,2,0:0:0:0:
192,192,10982,1,0,0:0:0:25:Hat Open.wav
64,192,11149,1,8,0:0:0:0:
448,192,11149,1,0,0:0:0:0:
320,192,11316,1,0,0:0:0:25:Hat Open.wav
192,192,11482,1,2,0:0:0:0:
448,192,11649,1,2,0:0:0:0:
64,192,11816,1,8,0:0:0:0:
192,192,11816,1,0,0:0:0:0:
320,192,11982,1,2,0:0:0:0:
448,192,11982,128,4,12316:0:0:0:0:
192,192,12316,1,0,0:0:0:0:
64,192,12482,1,8,0:0:0:0:
448,192,12482,1,0,0:0:0:0:
192,192,12649,1,0,0:0:0:25:Hat Open.wav
320,192,12816,1,2,0:0:0:0:
64,192,12982,1,2,0:0:0:0:
320,192,13149,1,8,0:0:0:0:
448,192,13149,1,0,0:0:0:0:
64,192,13316,128,2,13649:0:0:0:0:
192,192,13316,1,4,0:0:0:0:
320,192,13649,1,0,0:0:0:0:
64,192,13816,1,8,0:0:0:0:
448,192,13816,1,0,0:0:0:0:
320,192,13982,1,0,0:0:0:25:Hat Open.wav
192,192,14149,1,2,0:0:0:0:
448,192,14316,1,2,0:0:0:0:
64,192,14482,1,8,0:0:0:0:
192,192,14482,1,0,0:0:0:0:
320,192,14649,128,2,14982:0:0:0:0:
64,192,15149,1,8,0:0:0:0:
448,192,15149,1,0,0:0:0:0:
192,192,15482,1,2,0:0:0:0:
320,192,15649,1,2,0:0:0:0:
64,192,15816,1,8,0:0:0:0:
448,192,15816,1,0,0:0:0:0:
192,192,15982,1,2,0:0:0:0:
320,192,15982,128,4,16316:0:0:0:0:
64,192,16482,1,8,0:0:0:0:
192,192,16482,1,0,0:0:0:0:
448,192,16649,1,0,0:0:0:25:Hat Open.wav
192,192,16816,1,2,0:0:0:0:
320,192,16982,1,2,0:0:0:0:
64,192,17149,1,8,0:0:0:0:
192,192,17149,1,0,0:0:0:0:
320,192,17316,128,4,17649:0:0:0:0:
448,192,17316,1,2,0:0:0:0:
192,192,17649,1,0,0:0:0:0:
64,192,17816,1,8,0:0:0:0:
448,192,17816,1,0,0:0:0:0:
192,192,17982,128,2,18316:0:0:0:0:
320,192,17982,1,4,0:0:0:0:
448,192,18316,1,2,0:0:0:0:
64,192,18482,1,8,0:0:0:0:
192,192,18482,1,0,0:0:0:0:
320,192,18649,1,0,0:0:0:0:
64,192,18816,1,4,0:0:0:0:
448,192,18816,1,2,0:0:0:0:
192,192,18982,1,0,0:0:0:0:
320,192,19149,1,8,0:0:0:0:
448,192,19149,1,0,0:0:0:0:
64,192,19316,1,2,0:0:0:0:
64,192,19649,1,2,0:0:0:0:
448,192,19816,1,8,0:0:0:0:
64,192,19982,1,2,0:0:0:0:
192,192,19982,1,4,0:0:0:0:
192,192,20316,1,8,0:0:0:0:
192,192,20482,1,8,0:0:0:0:
320,192,20649,1,6,0:0:0:0:
448,192,20649,1,8,0:0:0:0:
64,192,21482,1,2,0:0:0:0:
448,192,21482,1,0,0:0:0:0:
192,192,21816,1,8,0:0:0:0:
320,192,21816,1,0,0:0:0:40:Hat Close.wav
64,192,22149,1,2,0:0:0:0:
64,192,22316,1,2,0:0:0:0:
320,192,22482,1,8,0:0:0:0:
448,192,22482,1,0,0:0:0:40:Hat Close.wav
192,192,22649,128,2,22982:0:0:0:0:
64,192,23149,1,8,0:0:0:0:
448,192,23149,1,0,0:0:0:40:Hat Close.wav
192,192,23482,1,2,0:0:0:0:
192,192,23649,1,2,0:0:0:0:
320,192,23816,1,8,0:0:0:0:
448,192,23816,1,0,0:0:0:40:Hat Close.wav
64,192,23982,128,2,24316:0:0:0:0:
192,192,24482,1,8,0:0:0:0:
320,192,24482,1,0,0:0:0:40:Hat Close.wav
448,192,24816,1,2,0:0:0:0:
448,192,24982,1,2,0:0:0:0:
64,192,25149,1,8,0:0:0:0:
192,192,25149,1,0,0:0:0:40:Hat Close.wav
320,192,25316,128,2,25649:0:0:0:0:
448,192,25316,1,4,0:0:0:0:
192,192,25649,1,0,0:0:0:40:Hat Close.wav
64,192,25816,1,8,0:0:0:0:
448,192,25816,1,0,0:0:0:40:Hat Close.wav
192,192,25982,128,2,26316:0:0:0:0:
320,192,25982,1,4,0:0:0:0:
64,192,26316,1,0,0:0:0:40:Hat Close.wav
320,192,26482,1,8,0:0:0:0:
448,192,26482,1,0,0:0:0:40:Hat Close.wav
64,192,26649,128,2,26982:0:0:0:0:
192,192,26649,1,4,0:0:0:0:
192,192,27149,1,8,0:0:0:0:
320,192,27149,1,0,0:0:0:40:Hat Close.wav
448,192,27316,1,0,0:0:0:0:
64,192,27482,1,2,0:0:0:0:
64,192,27649,1,2,0:0:0:0:
320,192,27816,1,8,0:0:0:0:
448,192,27816,1,0,0:0:0:40:Hat Close.wav
192,192,27982,128,2,28316:0:0:0:0:
64,192,28482,1,8,0:0:0:0:
448,192,28482,1,0,0:0:0:40:Hat Close.wav
320,192,28816,1,2,0:0:0:0:
320,192,28982,1,2,0:0:0:0:
64,192,29149,1,8,0:0:0:0:
192,192,29149,1,0,0:0:0:40:Hat Close.wav
448,192,29316,128,2,29649:0:0:0:0:
64,192,29816,1,8,0:0:0:0:
320,192,29816,1,0,0:0:0:40:Hat Close.wav
192,192,30149,1,2,0:0:0:0:
192,192,30316,1,2,0:0:0:0:
320,192,30482,1,8,0:0:0:0:
448,192,30482,1,0,0:0:0:40:Hat Close.wav
64,192,30649,128,2,30982:0:0:0:0:
192,192,30649,1,4,0:0:0:0:
448,192,30982,1,0,0:0:0:40:Hat Close.wav
192,192,31149,1,8,0:0:0:0:
320,192,31149,1,0,0:0:0:40:Hat Close.wav
64,192,31316,1,4,0:0:0:0:
448,192,31316,128,2,31649:0:0:0:0:
320,192,31649,1,0,0:0:0:40:Hat Close.wav
64,192,31816,1,8,0:0:0:0:
192,192,31816,1,0,0:0:0:40:Hat Close.wav
320,192,31982,128,4,32316:0:0:0:0:
448,192,31982,1,2,0:0:0:0:
192,192,32316,1,0,0:0:0:0:
64,192,32482,1,8,0:0:0:0:
448,192,32482,1,0,0:0:0:40:Hat Close.wav
320,192,32649,1,0,0:0:0:0:
192,192,32816,1,2,0:0:0:0:
192,192,32982,1,2,0:0:0:0:
320,192,33149,1,8,0:0:0:0:
448,192,33149,1,0,0:0:0:40:Hat Close.wav
64,192,33316,128,2,33649:0:0:0:0:
192,192,33816,1,8,0:0:0:0:
448,192,33816,1,0,0:0:0:40:Hat Close.wav
320,192,34149,1,2,0:0:0:0:
320,192,34316,1,2,0:0:0:0:
64,192,34482,1,8,0:0:0:0:
192,192,34482,1,0,0:0:0:40:Hat Close.wav
448,192,34649,128,2,34982:0:0:0:0:
192,192,35149,1,8,0:0:0:0:
320,192,35149,1,0,0:0:0:40:Hat Close.wav
64,192,35482,1,2,0:0:0:0:
64,192,35649,1,2,0:0:0:0:
320,192,35816,1,8,0:0:0:0:
448,192,35816,1,0,0:0:0:40:Hat Close.wav
64,192,35982,1,2,0:0:0:0:
192,192,35982,128,4,36316:0:0:0:0:
320,192,36316,1,0,0:0:0:0:
64,192,36482,1,8,0:0:0:0:
448,192,36482,1,0,0:0:0:0:
192,192,36649,1,4,0:0:0:0:
320,192,36649,1,2,0:0:0:0:
448,192,36982,1,0,0:0:0:0:
64,192,37149,1,8,0:0:0:0:
192,192,37149,1,0,0:0:0:0:
320,192,37316,1,2,0:0:0:0:
448,192,37316,128,4,37649:0:0:0:0:
64,192,37816,1,8,0:0:0:0:
448,192,37816,1,0,0:0:0:40:Hat Close.wav
320,192,38149,1,2,0:0:0:0:
64,192,38316,1,0,0:0:0:0:
64,192,38482,1,8,0:0:0:0:
448,192,38482,1,0,0:0:0:40:Hat Close.wav
192,192,38649,128,2,38982:0:0:0:0:
320,192,38649,1,4,0:0:0:0:
448,192,38982,1,0,0:0:0:0:
64,192,39149,1,8,0:0:0:0:
320,192,39149,1,0,0:0:0:40:Hat Close.wav
192,192,39316,1,0,0:0:0:0:
448,192,39482,1,2,0:0:0:0:
448,192,39649,1,2,0:0:0:0:
64,192,39816,1,8,0:0:0:0:
192,192,39816,1,0,0:0:0:40:Hat Close.wav
320,192,39982,128,2,40316:0:0:0:0:
448,192,39982,1,4,0:0:0:0:
64,192,40316,1,0,0:0:0:0:
192,192,40482,1,8,0:0:0:0:
448,192,40482,1,0,0:0:0:40:Hat Close.wav
320,192,40816,1,2,0:0:0:0:
192,192,40982,1,2,0:0:0:0:
64,192,41149,1,8,0:0:0:0:
448,192,41149,1,0,0:0:0:40:Hat Close.wav
448,192,41316,1,2,0:0:0:0:
448,192,41649,1,0,0:0:0:40:Hat Close.wav
192,192,41816,1,8,0:0:0:0:
320,192,41816,1,0,0:0:0:40:Hat Close.wav
64,192,42149,1,2,0:0:0:0:
64,192,42316,1,2,0:0:0:0:
320,192,42482,1,8,0:0:0:0:
448,192,42482,1,0,0:0:0:40:Hat Close.wav
64,192,42649,1,2,0:0:0:0:
192,192,42649,128,4,42982:0:0:0:0:
320,192,42982,128,0,43149:0:0:0:0:
448,192,43149,128,0,43316:0:0:0:0:
64,192,43316,128,2,43482:0:0:0:0:
192,192,43482,128,8,43649:0:0:0:0:
320,192,43482,1,0,0:0:0:0:
448,192,43649,128,0,43816:0:0:0:0:
64,192,43982,128,2,44316:0:0:0:0:
192,192,43982,1,0,0:0:0:0:
320,192,44316,1,8,0:0:0:0:
448,192,44316,1,0,0:0:0:0:
192,192,44482,128,0,44649:0:0:0:0:
448,192,44649,1,2,0:0:0:0:
64,192,44816,1,8,0:0:0:0:
320,192,44816,128,0,44982:0:0:0:0:
448,192,45149,128,0,45316:0:0:0:0:
64,192,45316,1,2,0:0:0:0:
192,192,45316,128,0,45649:0:0:0:0:
320,192,45649,1,8,0:0:0:0:
448,192,45649,1,0,0:0:0:0:
64,192,45816,128,0,45982:0:0:0:0:
320,192,45982,128,2,46149:0:0:0:0:
64,192,46149,1,8,0:0:0:0:
192,192,46149,1,0,0:0:0:0:
448,192,46316,128,0,46482:0:0:0:0:
192,192,46482,128,0,46649:0:0:0:0:
320,192,46649,128,2,46982:0:0:0:0:
448,192,46649,1,0,0:0:0:0:
64,192,46982,1,8,0:0:0:0:
192,192,46982,1,0,0:0:0:0:
448,192,47149,128,0,47316:0:0:0:0:
64,192,47316,1,2,0:0:0:0:
192,192,47482,1,8,0:0:0:0:
320,192,47482,128,0,47649:0:0:0:0:
448,192,47649,1,2,0:0:0:0:
64,192,47816,1,8,0:0:0:0:
192,192,47816,128,0,47982:0:0:0:0:
320,192,47982,1,2,0:0:0:0:
448,192,47982,128,4,48316:0:0:0:0:
64,192,48316,1,8,0:0:0:0:
192,192,48316,128,0,48482:0:0:0:0:
320,192,48482,128,0,48649:0:0:0:0:
64,192,48649,128,2,48816:0:0:0:0:
192,192,48816,128,8,48982:0:0:0:0:
320,192,48816,1,0,0:0:0:0:
448,192,48982,128,0,49149:0:0:0:0:
64,192,49316,128,2,49482:0:0:0:0:
192,192,49316,1,0,0:0:0:0:
320,192,49649,1,8,0:0:0:0:
448,192,49649,1,0,0:0:0:0:
192,192,49816,128,0,49982:0:0:0:0:
64,192,50149,1,8,0:0:0:0:
320,192,50149,128,0,50316:0:0:0:0:
192,192,50316,1,2,0:0:0:0:
64,192,50482,1,8,0:0:0:0:
448,192,50482,128,0,50649:0:0:0:0:
64,192,50816,128,2,51149:0:0:0:0:
448,192,50816,1,4,0:0:0:0:
192,192,51149,1,8,0:0:0:0:
320,192,51149,128,0,51316:0:0:0:40:Hat Close.wav
448,192,51316,128,0,51482:0:0:0:0:
192,192,51482,1,2,0:0:0:0:
320,192,51649,128,2,51816:0:0:0:0:
64,192,51816,128,8,51982:0:0:0:0:
448,192,51816,1,0,0:0:0:40:Hat Close.wav
320,192,51982,128,2,52316:0:0:0:0:
448,192,52316,1,2,0:0:0:0:
64,192,52482,1,8,0:0:0:0:
192,192,52482,128,0,52649:0:0:0:40:Hat Close.wav
320,192,52816,128,2,52982:0:0:0:0:
192,192,52982,1,2,0:0:0:0:
64,192,53149,1,8,0:0:0:0:
448,192,53149,128,0,53316:0:0:0:40:Hat Close.wav
192,192,53482,1,2,0:0:0:0:
320,192,53482,128,4,53816:0:0:0:0:
64,192,53816,1,8,0:0:0:0:
448,192,53816,1,0,0:0:0:40:Hat Close.wav
192,192,53982,128,2,54316:0:0:0:0:
448,192,54316,1,2,0:0:0:0:
64,192,54482,1,8,0:0:0:0:
320,192,54482,1,0,0:0:0:40:Hat Close.wav
64,192,54816,128,2,55149:0:0:0:0:
192,192,54816,1,4,0:0:0:0:
320,192,55149,1,8,0:0:0:0:
448,192,55149,1,0,0:0:0:40:Hat Close.wav
192,192,55316,128,2,55649:0:0:0:0:
320,192,55649,1,2,0:0:0:0:
64,192,55816,1,8,0:0:0:0:
448,192,55816,1,0,0:0:0:40:Hat Close.wav
192,192,56149,128,4,56316:0:0:0:0:
320,192,56149,128,8,56316:0:0:0:0:
448,192,56482,1,2,0:0:0:0:
192,192,56649,128,8,56816:0:0:0:0:
320,192,56649,128,0,56816:0:0:0:0:
64,192,56816,1,2,0:0:0:0:
448,192,56982,1,2,0:0:0:0:
64,192,57149,128,8,57316:0:0:0:0:
192,192,57149,128,0,57316:0:0:0:0:
320,192,57316,1,2,0:0:0:0:
64,192,57482,128,8,57649:0:0:0:0:
448,192,57482,128,0,57649:0:0:0:50:Short Finish.wav
192,192,57816,128,0,57982:0:0:0:0:
320,192,58149,128,0,58316:0:0:0:0:
64,192,58316,1,2,0:0:0:0:
320,192,58482,1,8,0:0:0:0:
448,192,58482,128,0,58649:0:0:0:0:
64,192,58816,128,4,58982:0:0:0:0:
448,192,58816,128,2,58982:0:0:0:0:
192,192,59149,1,8,0:0:0:0:
320,192,59149,1,0,0:0:0:40:Hat Close.wav
192,192,59316,128,0,59482:0:0:0:0:
448,192,59482,1,2,0:0:0:0:
320,192,59649,128,2,59816:0:0:0:0:
64,192,59816,1,8,0:0:0:0:
192,192,59816,1,0,0:0:0:40:Hat Close.wav
64,192,59982,128,2,60149:0:0:0:0:
448,192,60316,1,2,0:0:0:0:
192,192,60482,1,8,0:0:0:0:
320,192,60482,128,0,60649:0:0:0:40:Hat Close.wav
192,192,60816,128,2,60982:0:0:0:0:
448,192,60982,1,2,0:0:0:0:
64,192,61149,128,8,61316:0:0:0:0:
320,192,61149,1,0,0:0:0:40:Hat Close.wav
64,192,61482,128,2,61649:0:0:0:0:
448,192,61482,128,4,61649:0:0:0:0:
192,192,61816,1,8,0:0:0:0:
320,192,61816,1,0,0:0:0:40:Hat Close.wav
320,192,61982,128,0,62316:0:0:0:0:
64,192,62149,1,2,0:0:0:0:
448,192,62316,1,2,0:0:0:0:
64,192,62482,1,8,0:0:0:0:
192,192,62482,1,0,0:0:0:40:Hat Close.wav
64,192,62649,1,0,0:0:0:40:Hat Close.wav
320,192,62816,1,2,0:0:0:0:
192,192,63149,128,8,63316:0:0:0:0:
448,192,63149,1,0,0:0:0:40:Hat Close.wav
320,192,63482,128,2,63649:0:0:0:0:
64,192,63649,1,2,0:0:0:0:
192,192,63816,1,8,0:0:0:0:
448,192,63816,128,0,63982:0:0:0:40:Hat Close.wav
64,192,64149,128,4,64316:0:0:0:0:
448,192,64149,128,2,64316:0:0:0:0:
192,192,64482,1,8,0:0:0:0:
320,192,64482,1,0,0:0:0:40:Hat Close.wav
192,192,64649,128,0,64816:0:0:0:0:
448,192,64816,1,2,0:0:0:0:
320,192,64982,128,2,65149:0:0:0:0:
64,192,65149,1,8,0:0:0:0:
192,192,65149,1,0,0:0:0:40:Hat Close.wav
64,192,65316,128,2,65482:0:0:0:0:
448,192,65649,1,2,0:0:0:0:
192,192,65816,128,8,65982:0:0:0:0:
320,192,65816,1,0,0:0:0:40:Hat Close.wav
320,192,66149,128,2,66316:0:0:0:0:
448,192,66316,1,2,0:0:0:0:
64,192,66482,1,8,0:0:0:0:
192,192,66482,128,0,66649:0:0:0:40:Hat Close.wav
64,192,66816,128,2,67149:0:0:0:0:
448,192,66816,1,4,0:0:0:0:
320,192,67149,1,8,0:0:0:0:
448,192,67149,1,0,0:0:0:40:Hat Close.wav
448,192,67316,128,0,67649:0:0:0:0:
64,192,67482,1,2,0:0:0:0:
320,192,67649,1,2,0:0:0:0:
64,192,67816,1,8,0:0:0:0:
192,192,67816,1,0,0:0:0:40:Hat Close.wav
192,192,67982,1,0,0:0:0:40:Hat Close.wav
320,192,68149,1,2,0:0:0:0:
192,192,68482,128,8,68649:0:0:0:0:
448,192,68482,1,0,0:0:0:40:Hat Close.wav
320,192,68816,128,2,68982:0:0:0:0:
64,192,68982,1,2,0:0:0:0:
192,192,69149,1,8,0:0:0:0:
448,192,69149,128,0,69316:0:0:0:40:Hat Close.wav
64,192,69482,128,2,69649:0:0:0:0:
448,192,69482,128,4,69649:0:0:0:0:
192,192,69816,1,8,0:0:0:0:
320,192,69816,1,0,0:0:0:40:Hat Close.wav
320,192,69982,128,0,70149:0:0:0:0:
448,192,70149,1,2,0:0:0:0:
64,192,70316,128,2,70482:0:0:0:0:
192,192,70482,1,8,0:0:0:0:
320,192,70482,1,0,0:0:0:40:Hat Close.wav
192,192,70649,128,2,70982:0:0:0:0:
448,192,70982,1,2,0:0:0:0:
64,192,71149,1,8,0:0:0:0:
320,192,71149,128,0,71316:0:0:0:40:Hat Close.wav
192,192,71482,128,2,71649:0:0:0:0:
320,192,71649,1,2,0:0:0:0:
64,192,71816,1,8,0:0:0:0:
448,192,71816,128,0,71982:0:0:0:40:Hat Close.wav
64,192,72149,128,2,72482:0:0:0:0:
192,192,72149,128,4,72482:0:0:0:0:
320,192,72482,1,8,0:0:0:0:
448,192,72482,1,0,0:0:0:40:Hat Close.wav
448,192,72649,128,0,72816:0:0:0:40:Hat Close.wav
192,192,72816,1,2,0:0:0:0:
320,192,72982,128,2,73149:0:0:0:0:
64,192,73149,1,8,0:0:0:0:
192,192,73149,1,0,0:0:0:40:Hat Close.wav
320,192,73316,128,4,73649:0:0:0:0:
448,192,73316,128,2,73649:0:0:0:0:
192,192,73649,1,2,0:0:0:0:
64,192,73816,1,8,0:0:0:0:
320,192,73816,1,0,0:0:0:40:Hat Close.wav
448,192,73982,1,0,0:0:0:0:
64,192,74149,128,2,74316:0:0:0:0:
320,192,74316,1,2,0:0:0:0:
192,192,74482,128,8,74649:0:0:0:0:
448,192,74482,1,0,0:0:0:40:Hat Close.wav
64,192,74816,1,2,0:0:0:0:
320,192,74816,128,4,75149:0:0:0:0:
64,192,75149,1,8,0:0:0:0:
192,192,75149,1,0,0:0:0:0:
320,192,75316,1,2,0:0:0:0:
448,192,75316,128,4,75649:0:0:0:0:
320,192,75649,128,2,75982:0:0:0:0:
64,192,75816,1,8,0:0:0:0:
192,192,75982,128,2,76316:0:0:0:0:
448,192,75982,1,4,0:0:0:0:
64,192,76482,1,8,0:0:0:0:
448,192,76482,1,0,0:0:0:40:Hat Close.wav
192,192,76816,128,2,76982:0:0:0:0:
320,192,76982,1,2,0:0:0:0:
64,192,77149,1,8,0:0:0:0:
448,192,77149,1,0,0:0:0:40:Hat Close.wav
192,192,77316,128,4,78149:0:0:0:0:
320,192,77316,1,2,0:0:0:0:
320,192,77816,1,8,0:0:0:0:
448,192,77816,1,0,0:0:0:40:Hat Close.wav
64,192,78149,1,2,0:0:0:0:
448,192,78316,1,2,0:0:0:0:
192,192,78482,1,8,0:0:0:0:
320,192,78482,1,0,0:0:0:40:Hat Close.wav
64,192,78649,1,0,0:0:0:0:
320,192,78816,1,2,0:0:0:0:
192,192,78982,1,0,0:0:0:0:
64,192,79149,1,8,0:0:0:0:
448,192,79149,1,0,0:0:0:0:
192,192,79316,1,2,0:0:0:0:
320,192,79482,1,8,0:0:0:0:
448,192,79482,1,0,0:0:0:0:
64,192,79649,1,2,0:0:0:0:
192,192,79816,1,8,0:0:0:0:
320,192,79816,1,0,0:0:0:0:
64,192,80149,128,2,80482:0:0:0:0:
448,192,80149,1,4,0:0:0:0:
192,192,80482,1,0,0:0:0:0:
448,192,80649,128,2,80816:0:0:0:0:
64,192,80816,1,8,0:0:0:0:
192,192,80816,1,0,0:0:0:0:
320,192,80982,128,2,81149:0:0:0:0:
64,192,81316,1,4,0:0:0:0:
192,192,81316,128,2,81649:0:0:0:0:
320,192,81649,1,8,0:0:0:0:
448,192,81649,1,0,0:0:0:0:
64,192,81816,1,0,0:0:0:0:
192,192,81982,1,2,0:0:0:0:
320,192,82149,1,8,0:0:0:0:
448,192,82149,128,0,82316:0:0:0:0:
64,192,82316,1,2,0:0:0:0:
320,192,82482,128,8,82649:0:0:0:0:
64,192,82649,128,2,83149:0:0:0:0:
192,192,82649,1,4,0:0:0:0:
448,192,82982,1,0,0:0:0:0:
192,192,83149,1,8,0:0:0:0:
320,192,83149,1,0,0:0:0:40:Hat Close.wav
64,192,83316,1,0,0:0:0:0:
320,192,83482,1,2,0:0:0:0:
320,192,83649,1,2,0:0:0:0:
64,192,83816,1,8,0:0:0:0:
192,192,83816,1,0,0:0:0:40:Hat Close.wav
448,192,83982,1,0,0:0:0:0:
192,192,84149,128,2,84482:0:0:0:0:
320,192,84149,1,4,0:0:0:0:
64,192,84482,1,8,0:0:0:0:
448,192,84482,1,0,0:0:0:40:Hat Close.wav
320,192,84649,1,0,0:0:0:0:
64,192,84816,1,2,0:0:0:0:
64,192,84982,1,2,0:0:0:0:
192,192,85149,1,8,0:0:0:0:
320,192,85149,1,4,0:0:0:0:
448,192,85316,1,0,0:0:0:0:
64,192,85482,128,8,85649:0:0:0:0:
192,192,85482,1,4,0:0:0:0:
320,192,85649,1,2,0:0:0:0:
448,192,85816,1,2,0:0:0:0:
64,192,85982,128,8,86149:0:0:0:0:
192,192,85982,1,4,0:0:0:0:
320,192,86316,1,2,0:0:0:0:
64,192,86482,1,8,0:0:0:0:
448,192,86482,128,4,86649:0:0:0:0:
192,192,86649,1,12,0:0:0:0:
320,192,86649,128,2,87149:0:0:0:0:
