osu file format v14

[General]
AudioFilename: audio.mp3
AudioLeadIn: 0
PreviewTime: 57649
Countdown: 0
SampleSet: Soft
StackLeniency: 0.7
Mode: 0
LetterboxInBreaks: 0
WidescreenStoryboard: 0

[Editor]
DistanceSpacing: 1.1
BeatDivisor: 4
GridSize: 4
TimelineZoom: 1

[Metadata]
Title:FUN FUN RE-BOOT
TitleUnicode:FUN FUN RE-BOOT
Artist:QUARTET*RE-BOOT!
ArtistUnicode:QUARTET☆RE-BOOT!
Creator:Andrea
Version:RESTART!
Source:天使☆騒々 RE-BOOT!
Tags:osuplayer111 Sekai Sekaii Sekai-nyan - Ex - -_Ex_- Female Vocals Videogame Video Game Japanese Pop JPop J-Pop Famishin AngelNote 羽生みいな Miina Hanyu 井ノ原 智 Satoshi Inohara Yuzusoft 乃愛 Noa 天音 Amane 来海 Kurumi かぐ耶 Kaguya Eroge Galgame Visual Novel Tenshi☆Souzou RE-BOOT! Tenshi Souzou こぶいち Kobuichi むりりん Muririn ほかん Hokan 羽純りお Hazumi Rio Tanikaze Amane 谷風天音 Shirayuki Noa 白雪乃愛 Hoshikawa Kaguya 星河かぐ耶 Kohibari Kurumi 小雲雀来海 Haruka Sora 遥そら Sendai Eri 仙台エリ Fujita Akane 藤田茜 Kanako 夏和小 Setono Marie 瀬戸乃マリエ Taichi You 大地葉 Toda Megumi 戸田めぐみ Yanagi Hitomi 柳ひとみ Opening OP VN Game Version Reboot
BeatmapID:4072984
BeatmapSetID:1963685

[Difficulty]
HPDrainRate:6
CircleSize:4
OverallDifficulty:8
ApproachRate:9
SliderMultiplier:1.7
SliderTickRate:1

[Events]
//Background and Video events
0,0,"Top.jpg",0,0
Video,0,"Video.mp4"
//Break Periods
//Storyboard Layer 0 (Background)
//Storyboard Layer 1 (Fail)
//Storyboard Layer 2 (Pass)
//Storyboard Layer 3 (Foreground)
//Storyboard Layer 4 (Overlay)
//Storyboard Sound Samples

[TimingPoints]
1483,333.333333333333,4,2,1,60,1,0
5149,-125,4,2,1,60,0,0
5399,-125,4,2,1,5,0,0
5482,-100,4,2,1,70,0,0
10732,-100,4,2,1,5,0,0
10816,-100,4,2,1,70,0,0
15399,-100,4,2,1,5,0,0
15482,-100,4,2,1,70,0,0
20232,-100,4,2,1,5,0,0
20316,-100,4,2,1,70,0,0
21482,-111.111111111111,4,2,1,60,0,0
31982,-100,4,2,1,65,0,0
42649,-111.111111111111,4,2,1,60,0,0
50732,-111.111111111111,4,2,1,5,0,0
50816,-100,4,2,1,65,0,0
53399,-100,4,2,1,5,0,0
53482,-100,4,2,1,65,0,0
56149,-100,4,2,1,70,0,0
57482,-125,4,2,1,70,0,0
58316,-125,4,2,1,60,0,0
58732,-125,4,2,1,5,0,0
58816,-90.9090909090909,4,2,1,80,0,1
63066,-90.9090909090909,4,2,1,5,0,1
63149,-90.9090909090909,4,2,1,80,0,1
64399,-90.9090909090909,4,2,1,5,0,1
64482,-90.9090909090909,4,2,1,80,0,1
68399,-90.9090909090909,4,2,1,5,0,1
68482,-90.9090909090909,4,2,1,80,0,1
75066,-90.9090909090909,4,2,1,5,0,1
75149,-90.9090909090909,4,2,1,80,0,1
86649,-125,4,2,1,80,0,1
87482,-125,4,2,1,5,0,0

[Colours]
Combo1 : 128,255,128
Combo2 : 255,128,192

[HitObjects]
80,228,4982,5,0,1:0:0:0:
112,92,5149,2,0,P|168:96|208:120,1,102,12|0,0:0|0:0,0:0:0:0:
272,164,5482,5,4,1:0:0:0:
420,64,5649,1,2,0:0:0:0:
420,64,5732,1,2,0:0:0:0:
420,64,5816,1,8,0:0:0:0:
388,244,5982,6,0,B|324:236|324:236|296:252|296:252|216:244,1,170,4|10,1:0|0:0,0:0:0:0:
64,232,6482,1,2,0:0:0:0:
112,92,6649,1,2,1:0:0:0:
223,244,6816,1,6,1:0:0:0:
48,148,6982,1,0,1:0:0:0:
48,148,7066,1,0,1:0:0:0:
48,148,7149,1,8,0:0:0:0:
208,28,7316,6,0,B|280:4|304:52|384:20,1,170,4|10,1:0|0:0,0:0:0:0:
476,116,7816,1,0,0:0:0:0:
296,260,7982,2,0,P|252:212|256:108,1,170,4|2,1:0|0:0,0:0:0:0:
124,24,8482,1,0,1:0:0:0:
48,248,8649,1,12,0:0:0:0:
256,8,8982,1,4,1:0:0:0:
464,248,9316,1,4,1:0:0:0:
256,376,10316,5,0,1:0:0:0:
256,376,10399,1,0,1:0:0:0:
256,376,10482,2,0,P|288:336|296:260,1,127.5,10|0,0:0|0:0,0:0:0:0:
276,184,10816,6,0,P|320:168|360:140,1,85,4|0,1:0|0:0,0:0:0:0:
408,20,11149,1,10,0:0:0:0:
240,20,11316,2,0,P|262:55|276:95,1,85,0|0,0:0|1:0,0:0:0:0:
196,216,11649,1,2,1:0:0:0:
276,95,11816,1,8,0:0:0:0:
100,220,11982,6,0,P|132:284|228:304,1,170,4|2,1:0|0:0,0:0:0:0:
360,268,12482,1,8,0:0:0:0:
288,364,12649,1,2,0:0:0:0:
432,308,12816,2,0,P|440:264|424:216,1,85,2|0,1:0|1:0,0:0:0:0:
344,72,13149,1,8,0:0:0:0:
184,188,13316,6,0,B|136:164|136:164|128:48,1,170,4|2,1:0|0:0,0:0:0:0:
8,92,13816,1,8,0:0:0:0:
127,47,13982,1,0,0:0:0:0:
56,164,14149,2,0,P|40:204|44:248,1,85,2|0,1:0|1:0,0:0:0:0:
128,364,14482,1,8,0:0:0:0:
288,276,14649,2,0,P|352:316|444:296,1,170,2|0,1:0|0:0,0:0:0:0:
378,82,15149,6,0,P|325:50|264:64,1,127.5,10|0,0:0|0:0,0:0:0:0:
311,129,15482,1,2,1:0:0:0:
288,276,15649,1,0,1:0:0:0:
311,129,15816,1,8,0:0:0:0:
152,340,15982,6,0,B|188:316|224:328|224:328|256:376|312:352,1,170,4|0,1:0|0:0,0:0:0:0:
472,300,16482,1,8,0:0:0:0:
352,200,16649,1,0,1:0:0:0:
352,200,16732,1,0,1:0:0:0:
352,200,16816,1,2,1:0:0:0:
305,354,16982,1,0,1:0:0:0:
436,224,17149,1,8,0:0:0:0:
256,92,17316,6,0,P|200:132|100:108,1,170,4|2,1:0|0:0,0:0:0:0:
172,24,17816,1,8,0:0:0:0:
28,200,17982,2,0,L|72:372,1,170,4|2,1:0|1:0,0:0:0:0:
176,240,18482,1,10,0:0:0:0:
308,360,18649,5,0,1:0:0:0:
308,360,18732,1,0,1:0:0:0:
308,360,18816,2,0,P|336:328|348:288,1,85,4|0,1:0|0:0,0:0:0:0:
272,168,19149,1,8,0:0:0:0:
400,40,19316,2,0,B|440:80|440:80|428:200,1,170,2|2,1:0|1:0,0:0:0:0:
348,287,19816,1,8,0:0:0:0:
208,112,19982,6,0,P|152:92|92:120,1,127.5,4|0,1:0|0:0,0:0:0:0:
40,184,20316,1,8,0:0:0:0:
112,0,20482,1,2,0:0:0:0:
272,168,20649,1,4,1:0:0:0:
272,168,21482,5,2,1:0:0:0:
324,288,21649,1,0,0:0:0:0:
424,168,21816,2,0,P|384:180|356:200,1,76.4999976654053,8|0,0:0|0:0,0:0:0:0:
472,244,22149,1,2,1:0:0:0:
492,112,22316,2,0,P|502:75|500:37,1,76.4999976654053,0|8,1:0|0:0,0:0:0:0:
348,12,22649,6,0,L|188:40,1,152.999995330811,2|0,1:0|0:0,0:0:0:0:
100,132,23149,2,0,P|132:192|112:284,1,152.999995330811,10|2,0:0|1:0,0:0:0:0:
28,368,23649,1,0,1:0:0:0:
118,273,23816,1,8,0:0:0:0:
240,364,23982,6,0,B|300:352|300:352|332:364|332:364|396:356,1,152.999995330811,2|0,1:0|0:0,0:0:0:0:
436,236,24482,2,0,P|456:272|460:312,1,76.4999976654053,10|0,0:0|0:0,0:0:0:0:
340,244,24816,1,2,1:0:0:0:
428,144,24982,1,0,1:0:0:0:
460,306,25149,1,8,0:0:0:0:
508,84,25316,6,0,P|436:56|356:72,1,152.999995330811,4|0,1:0|0:0,0:0:0:0:
256,192,25816,1,8,0:0:0:0:
124,12,25982,2,0,L|92:172,1,152.999995330811,4|0,1:0|0:0,0:0:0:0:
64,320,26482,1,8,0:0:0:0:
256,192,26649,6,0,B|308:200|308:200|336:220|336:220|408:228,1,152.999995330811,4|0,1:0|0:0,0:0:0:0:
512,180,27149,1,10,0:0:0:0:
401,227,27316,1,2,0:0:0:0:
508,276,27482,1,0,1:0:0:0:
440,136,27649,2,0,L|363:125,1,76.4999976654053,0|8,1:0|0:0,0:0:0:0:
277,48,27982,6,0,P|249:100|257:196,1,152.999995330811,2|0,1:0|0:0,0:0:0:0:
296,304,28482,1,10,0:0:0:0:
255,191,28649,1,2,0:0:0:0:
200,304,28816,1,0,1:0:0:0:
332,228,28982,2,0,P|364:256|380:288,1,76.4999976654053,0|8,1:0|0:0,0:0:0:0:
200,304,29316,6,0,L|152:140,1,152.999995330811,2|0,1:0|0:0,0:0:0:0:
64,68,29816,2,0,P|48:104|44:152,1,76.4999976654053,10|2,0:0|0:0,0:0:0:0:
160,64,30149,1,0,1:0:0:0:
96,216,30316,1,0,1:0:0:0:
64,68,30482,1,8,0:0:0:0:
240,152,30649,6,0,P|308:128|388:164,1,152.999995330811,4|0,1:0|0:0,0:0:0:0:
308,224,31149,1,8,0:0:0:0:
484,96,31316,2,0,L|456:260,1,152.999995330811,4|0,1:0|0:0,0:0:0:0:
372,364,31816,1,8,0:0:0:0:
348,148,31982,6,0,B|292:140|292:140|248:156|248:156|180:148,1,170,4|2,1:0|0:0,0:0:0:0:
84,28,32482,1,8,0:0:0:0:
56,184,32649,1,0,1:0:0:0:
56,184,32732,1,0,1:0:0:0:
56,184,32816,1,2,1:0:0:0:
172,64,32982,1,0,1:0:0:0:
12,100,33149,1,8,0:0:0:0:
181,148,33316,6,0,P|157:204|189:308,1,170,2|0,1:0|0:0,0:0:0:0:
324,216,33816,2,0,P|276:208|236:228,1,85,10|0,0:0|0:0,0:0:0:0:
356,300,34149,1,0,1:0:0:0:
392,152,34316,1,0,1:0:0:0:
488,260,34482,1,8,0:0:0:0:
440,72,34649,6,0,P|380:64|292:128,1,170,2|0,1:0|0:0,0:0:0:0:
152,236,35149,1,10,0:0:0:0:
124,88,35316,1,0,1:0:0:0:
124,88,35399,1,0,1:0:0:0:
124,88,35482,1,2,1:0:0:0:
294,123,35649,2,0,P|244:132|208:152,1,85,0|8,1:0|0:0,0:0:0:0:
80,372,35982,6,0,L|32:200,1,170,4|2,1:0|0:0,0:0:0:0:
40,32,36482,1,8,0:0:0:0:
214,147,36649,2,0,P|274:199|358:187,1,170,4|2,1:0|0:0,0:0:0:0:
344,80,37149,1,8,0:0:0:0:
468,288,37316,6,0,L|496:120,1,170,4|0,1:0|0:0,0:0:0:0:
344,80,37816,2,0,P|332:124|336:168,1,85,10|0,0:0|0:0,0:0:0:0:
420,40,38149,1,2,1:0:0:0:
284,16,38316,1,0,0:0:0:0:
412,128,38482,1,8,0:0:0:0:
220,96,38649,6,0,B|176:124|176:124|184:244,1,170,4|2,1:0|0:0,0:0:0:0:
276,356,39149,1,8,0:0:0:0:
128,328,39316,1,0,1:0:0:0:
128,328,39399,1,0,1:0:0:0:
128,328,39482,1,2,1:0:0:0:
268,256,39649,1,0,1:0:0:0:
192,384,39816,1,8,0:0:0:0:
148,200,39982,6,0,B|120:144|120:144|64:120|68:40,1,170,4|0,1:0|0:0,0:0:0:0:
220,16,40482,2,0,P|190:45|151:62,1,85,10|0,0:0|0:0,0:0:0:0:
148,200,40816,1,0,1:0:0:0:
150,62,40982,1,0,1:0:0:0:
272,152,41149,1,8,0:0:0:0:
316,16,41316,6,0,B|380:24|380:24|416:48|416:48|484:56,1,170,2|0,1:0|0:0,0:0:0:0:
464,216,41816,1,10,0:0:0:0:
344,100,41982,1,0,1:0:0:0:
344,100,42066,1,0,1:0:0:0:
344,100,42149,1,2,1:0:0:0:
316,272,42316,1,0,1:0:0:0:
428,136,42482,1,8,0:0:0:0:
204,192,42649,6,0,P|128:172|56:196,1,152.999995330811,4|2,1:0|0:0,0:0:0:0:
136,332,43149,2,0,L|132:244,1,76.4999976654053,0|0,0:0|1:0,0:0:0:0:
59,194,43482,1,10,0:0:0:0:
24,284,43649,1,0,0:0:0:0:
220,344,43982,6,0,L|372:320,1,152.999995330811,2|8,1:0|0:0,0:0:0:0:
444,224,44482,2,0,P|460:264|464:300,1,76.4999976654053,2|0,0:0|1:0,0:0:0:0:
348,232,44816,2,0,P|332:192|328:156,1,76.4999976654053,8|0,0:0|0:0,0:0:0:0:
408,68,45149,1,2,0:0:0:0:
264,4,45316,6,0,B|220:32|220:32|232:136,1,152.999995330811,2|8,1:0|0:0,0:0:0:0:
248,248,45816,1,2,0:0:0:0:
108,236,45982,2,0,P|140:212|180:204,1,76.4999976654053,2|8,1:0|0:0,0:0:0:0:
231,132,46316,1,2,0:0:0:0:
312,180,46482,1,2,0:0:0:0:
464,108,46649,6,0,L|304:92,1,152.999995330811,2|8,1:0|0:0,0:0:0:0:
168,4,47149,2,0,L|156:88,1,76.4999976654053,2|0,0:0|1:0,0:0:0:0:
104,192,47482,1,10,0:0:0:0:
44,72,47649,1,0,1:0:0:0:
8,216,47816,1,10,0:0:0:0:
157,79,47982,6,0,P|232:64|300:100,1,152.999995330811,4|10,1:0|0:0,0:0:0:0:
372,168,48482,1,0,0:0:0:0:
297,97,48649,1,0,1:0:0:0:
372,28,48816,1,10,0:0:0:0:
500,96,48982,2,0,P|464:88|424:96,1,76.4999976654053
407,316,49316,6,0,L|371:164,1,152.999995330811,2|8,1:0|0:0,0:0:0:0:
308,312,49816,2,0,L|289:232,1,76.4999976654053,2|0,0:0|0:0,0:0:0:0:
260,144,50149,1,10,0:0:0:0:
188,240,50316,1,0,1:0:0:0:
104,124,50482,2,0,P|96:64|128:20,1,114.749996498108,10|0,0:0|0:0,0:0:0:0:
200,24,50816,6,0,L|376:48,1,170,4|10,1:0|0:0,0:0:0:0:
472,160,51316,1,0,1:0:0:0:
472,160,51399,1,0,1:0:0:0:
472,160,51482,1,0,1:0:0:0:
512,8,51649,1,2,1:0:0:0:
368,46,51816,1,8,0:0:0:0:
496,168,51982,6,0,P|520:240|476:328,1,170,2|0,1:0|1:0,0:0:0:0:
340,232,52482,2,0,P|384:228|432:240,1,85,10|0,0:0|0:0,0:0:0:0:
256,328,52816,1,2,1:0:0:0:
340,232,52982,1,0,1:0:0:0:
236,132,53149,2,0,P|196:160|116:152,1,127.5,10|0,0:0|0:0,0:0:0:0:
60,84,53482,6,0,L|12:260,1,170,4|8,1:0|0:0,0:0:0:0:
165,318,53982,2,0,L|117:142,1,170,2|0,1:0|1:0,0:0:0:0:
72,0,54482,1,8,0:0:0:0:
256,88,54649,5,0,1:0:0:0:
256,88,54732,1,0,1:0:0:0:
256,88,54816,2,0,B|324:72|324:72|356:84|356:84|424:68,1,170,4|8,1:0|0:0,0:0:0:0:
352,312,55316,2,0,P|312:260|316:156,1,170,2|0,1:0|1:0,0:0:0:0:
208,20,55816,1,8,0:0:0:0:
132,216,55982,5,0,1:0:0:0:
132,216,56066,1,0,1:0:0:0:
132,216,56149,2,0,L|116:124,1,85,4|0,1:0|0:0,0:0:0:0:
208,20,56482,1,0,1:0:0:0:
296,204,56649,1,10,0:0:0:0:
117,132,56816,1,0,1:0:0:0:
312,68,56982,1,0,1:0:0:0:
196,296,57149,1,10,0:0:0:0:
20,76,57316,1,0,1:0:0:0:
20,76,57399,1,0,1:0:0:0:
20,76,57482,1,4,1:0:0:0:
196,296,58316,5,0,1:0:0:0:
356,328,58482,2,0,P|392:288|396:228,1,102,8|0,0:0|0:0,0:0:0:0:
376,168,58816,5,4,1:0:0:0:
220,56,58982,1,0,1:0:0:0:
220,56,59066,1,0,1:0:0:0:
220,56,59149,1,10,0:0:0:0:
396,8,59316,2,0,P|371:47|332:71,1,93.5000028533936,2|0,0:0|1:0,0:0:0:0:
200,192,59649,1,2,1:0:0:0:
108,60,59816,1,8,0:0:0:0:
28,266,59982,6,0,L|204:190,1,187.000005706787,2|0,1:0|1:0,0:0:0:0:
372,116,60482,2,0,P|400:160|408:208,1,93.5000028533936,10|0,0:0|0:0,0:0:0:0:
280,344,60816,1,2,1:0:0:0:
407,200,60982,1,0,1:0:0:0:
476,372,61149,1,10,0:0:0:0:
284,216,61316,5,0,1:0:0:0:
284,216,61399,1,0,1:0:0:0:
284,216,61482,2,0,B|220:224|220:224|188:252|188:252|104:264,1,187.000005706787,4|8,1:0|0:0,0:0:0:0:
16,120,61982,1,2,0:0:0:0:
4,308,62149,1,0,1:0:0:0:
124,156,62316,1,2,1:0:0:0:
108,263,62482,1,8,0:0:0:0:
16,208,62649,1,2,0:0:0:0:
136,52,62816,6,0,P|204:36|268:80,1,140.25000428009,2|0,1:0|0:0,0:0:0:0:
312,132,63149,1,10,0:0:0:0:
276,296,63316,1,0,0:0:0:0:
420,176,63482,1,2,1:0:0:0:
220,216,63649,1,0,1:0:0:0:
400,336,63816,1,10,0:0:0:0:
488,108,63982,5,0,1:0:0:0:
488,108,64066,1,0,1:0:0:0:
488,108,64149,2,0,P|484:56|416:8,1,140.25000428009,4|0,1:0|0:0,0:0:0:0:
340,32,64482,1,10,0:0:0:0:
272,168,64649,1,2,0:0:0:0:
412,88,64816,1,0,1:0:0:0:
248,16,64982,1,2,1:0:0:0:
360,176,65149,1,8,0:0:0:0:
200,100,65316,6,0,B|156:76|120:96|120:96|96:148|28:128,1,187.000005706787,2|0,1:0|1:0,0:0:0:0:
76,296,65816,1,10,0:0:0:0:
32,129,65982,1,0,0:0:0:0:
204,204,66149,1,2,1:0:0:0:
16,224,66316,1,0,1:0:0:0:
176,336,66482,1,10,0:0:0:0:
312,168,66649,5,0,1:0:0:0:
312,168,66732,1,0,1:0:0:0:
312,168,66816,2,0,P|372:208|480:184,1,187.000005706787,4|8,1:0|0:0,0:0:0:0:
408,16,67316,1,2,0:0:0:0:
478,184,67482,1,0,1:0:0:0:
312,168,67649,5,2,1:0:0:0:
272,64,67816,1,8,0:0:0:0:
176,120,67982,1,2,0:0:0:0:
48,60,68149,6,0,P|8:112|16:192,1,140.25000428009,2|0,1:0|0:0,0:0:0:0:
56,252,68482,2,0,P|104:232|148:224,1,93.5000028533936,10|0,0:0|0:0,0:0:0:0:
280,332,68816,1,2,1:0:0:0:
144,224,68982,1,0,1:0:0:0:
156,384,69149,1,10,0:0:0:0:
288,180,69316,5,0,1:0:0:0:
288,180,69399,1,0,1:0:0:0:
288,180,69482,2,0,B|356:160|356:160|400:172|400:172|472:148,1,187.000005706787,4|10,1:0|0:0,0:0:0:0:
400,80,69982,1,2,0:0:0:0:
348,248,70149,1,0,1:0:0:0:
236,116,70316,1,2,1:0:0:0:
400,80,70482,1,8,0:0:0:0:
168,48,70649,6,0,P|144:124|208:208,1,187.000005706787,2|0,1:0|1:0,0:0:0:0:
324,90,71149,2,0,P|272:98|232:118,1,93.5000028533936,10|0,0:0|0:0,0:0:0:0:
168,288,71482,1,2,1:0:0:0:
32,168,71649,1,0,1:0:0:0:
48,352,71816,1,10,0:0:0:0:
160,160,71982,5,0,1:0:0:0:
160,160,72066,1,0,1:0:0:0:
160,160,72149,2,0,P|220:120|336:136,1,187.000005706787,4|8,1:0|0:0,0:0:0:0:
492,188,72649,2,0,P|488:240|468:284,1,93.5000028533936,2|0,0:0|1:0,0:0:0:0:
320,344,72982,1,2,1:0:0:0:
404,172,73149,1,8,0:0:0:0:
204,260,73316,6,0,B|140:252|140:252|100:268|100:268|16:256,1,187.000005706787,6|0,1:0|1:0,0:0:0:0:
92,88,73816,2,0,P|72:140|76:184,1,93.5000028533936,8|0,0:0|0:0,0:0:0:0:
152,332,74149,1,2,1:0:0:0:
74,176,74316,1,0,1:0:0:0:
8,336,74482,1,10,0:0:0:0:
176,180,74649,5,0,1:0:0:0:
176,180,74732,1,0,1:0:0:0:
176,180,74816,2,0,L|328:200,1,140.25000428009,4|0,1:0|0:0,0:0:0:0:
392,208,75149,1,8,0:0:0:0:
256,24,75316,2,0,P|304:16|348:32,1,93.5000028533936,4|0,1:0|0:0,0:0:0:0:
480,152,75649,1,2,1:0:0:0:
345,30,75816,1,8,0:0:0:0:
176,180,75982,6,0,P|208:248|168:348,1,187.000005706787,4|0,1:0|0:0,0:0:0:0:
16,256,76482,2,0,L|112:260,1,93.5000028533936,8|0,0:0|0:0,0:0:0:0:
196,104,76816,1,2,1:0:0:0:
24,24,76982,1,0,1:0:0:0:
24,24,77066,1,0,1:0:0:0:
24,24,77149,1,10,0:0:0:0:
109,259,77316,6,0,B|185:227|221:283|301:255,1,187.000005706787,4|0,1:0|0:0,0:0:0:0:
396,144,77816,2,0,P|408:196|404:236,1,93.5000028533936,8|0,0:0|0:0,0:0:0:0:
296,116,78149,1,0,1:0:0:0:
452,72,78316,1,2,1:0:0:0:
404,235,78482,2,0,P|416:287|412:327,1,93.5000028533936,8|0,0:0|0:0,0:0:0:0:
256,380,78816,5,2,1:0:0:0:
108,235,78982,1,0,1:0:0:0:
108,235,79066,1,0,1:0:0:0:
108,235,79149,2,0,P|96:287|100:327,1,93.5000028533936,10|0,0:0|1:0,0:0:0:0:
208,240,79482,1,10,0:0:0:0:
40,132,79649,1,0,1:0:0:0:
99,326,79816,1,10,0:0:0:0:
172,100,79982,5,0,1:0:0:0:
172,100,80066,1,0,1:0:0:0:
172,100,80149,2,0,P|236:60|344:84,1,187.000005706787,4|0,1:0|0:0,0:0:0:0:
408,224,80649,1,2,1:0:0:0:
500,84,80816,1,8,0:0:0:0:
340,81,80982,2,0,P|320:128|324:177,1,93.5000028533936,2|0,1:0|0:0,0:0:0:0:
208,372,81316,6,0,L|16:344,1,187.000005706787,6|8,1:0|0:0,0:0:0:0:
44,200,81816,1,0,1:0:0:0:
212,284,81982,1,0,1:0:0:0:
212,284,82066,1,0,1:0:0:0:
212,284,82149,2,0,P|228:236|224:192,1,93.5000028533936,10|0,0:0|1:0,0:0:0:0:
80,88,82482,1,2,0:0:0:0:
292,20,82649,6,0,B|344:28|368:60|368:60|416:48|472:72,1,187.000005706787,4|0,1:0|0:0,0:0:0:0:
476,236,83149,1,8,0:0:0:0:
464,69,83316,1,0,1:0:0:0:
344,192,83482,1,0,1:0:0:0:
292,20,83649,1,2,1:0:0:0:
292,20,83732,1,2,0:0:0:0:
292,20,83816,2,0,L|240:32,1,46.7500014266968,10|2,0:0|0:0,0:0:0:0:
188,128,83982,2,0,L|136:140,1,46.7500014266968,2|2,0:0|0:0,0:0:0:0:
32,232,84149,6,0,B|100:236|100:236|144:264|144:264|212:268,1,187.000005706787,4|8,1:0|0:0,0:0:0:0:
376,280,84649,1,0,0:0:0:0:
248,368,84816,1,0,1:0:0:0:
292,204,84982,1,0,1:0:0:0:
428,344,85149,1,10,0:0:0:0:
464,112,85316,5,0,1:0:0:0:
464,112,85399,1,0,1:0:0:0:
464,112,85482,1,4,1:0:0:0:
292,204,85649,1,0,1:0:0:0:
276,16,85816,1,0,1:0:0:0:
472,212,85982,2,0,P|432:224|380:212,1,93.5000028533936,12|0,0:0|1:0,0:0:0:0:
160,40,86316,1,2,1:0:0:0:
160,40,86399,1,2,1:0:0:0:
160,40,86482,1,10,0:0:0:0:
184,328,86649,6,0,P|76:312|200:248,1,340,4|0,1:0|0:0,0:0:0:0:
