osu file format v14

[General]
AudioFilename: audio.mp3
AudioLeadIn: 0
PreviewTime: 71496
Countdown: 0
SampleSet: Normal
StackLeniency: 0.7
Mode: 1
LetterboxInBreaks: 0
WidescreenStoryboard: 1

[Editor]
DistanceSpacing: 0.8
BeatDivisor: 4
GridSize: 32
TimelineZoom: 2.2

[Metadata]
Title:Sing & Smile!!
TitleUnicode:Sing & Smile!!
Artist:QU4RTZ
ArtistUnicode:QU4RTZ
Creator:Peaceful
Version:Kantan
Source:ラブライブ!虹ヶ咲学園スクールアイドル同好会
Tags:QUARTZ JPop J-pop Japanese 中須かすみ Nakasu Kasumi Kasumin Kasukasu 相良茉優 Sagara Mayu 近江彼方 Konoe Kanata 鬼頭明里 Kito Akari エマ・ヴェルデ Emma Verde 指出毬亜 Sashide Maria 天王寺璃奈 Tennōji Tennoji Rina 田中ちえ美 Tanaka Chiemi ラブライブ!スクールアイドルフェスティバル Nijigasaki High Club Love Live! School Idol Festival ALL STARS and MetalStream -yukiha- Luqua Roger ][ -GH- ][
BeatmapID:2714645
BeatmapSetID:1309448

[Difficulty]
HPDrainRate:8
CircleSize:5
OverallDifficulty:2
ApproachRate:5
SliderMultiplier:1.4
SliderTickRate:1

[Events]
//Background and Video events
0,0,"QU4RTZ.full.2875928.jpg",0,45
//Break Periods
//Storyboard Layer 0 (Background)
//Storyboard Layer 1 (Fail)
//Storyboard Layer 2 (Pass)
//Storyboard Layer 3 (Foreground)
//Storyboard Layer 4 (Overlay)
//Storyboard Sound Samples

[TimingPoints]
-892,444.444444444444,4,1,0,33,1,0
2663,444.444444444444,4,1,0,50,1,0
2663,-111.111111111111,4,1,0,50,0,0
7980,-100,4,1,0,75,0,0
23996,-100,4,1,0,65,0,0
38218,-100,4,1,0,75,0,0
52440,-100,4,1,0,60,0,0
70218,-100,4,1,0,50,0,0
71551,-100,4,1,0,75,0,0
71995,444.444444444444,4,1,0,85,1,1
103994,-100,4,1,0,85,0,0
107550,-100,4,1,0,50,0,0
111550,-100,4,1,0,20,0,0
112885,-100,4,1,0,15,0,0
113774,-100,4,1,0,10,0,0
114661,-100,4,1,0,5,0,0

[HitObjects]
256,72,2663,5,4,0:0:0:0:
302,155,4440,1,8,0:0:0:0:
258,169,6218,1,4,0:0:0:0:
393,134,7996,1,12,0:0:0:0:
471,137,9329,1,8,0:0:0:0:
378,130,9774,5,4,0:0:0:0:
150,226,11551,1,0,0:0:0:0:
162,219,12440,1,8,0:0:0:0:
165,212,13329,1,0,0:0:0:0:
218,129,15107,1,4,0:0:0:0:
218,129,15774,1,4,0:0:0:0:
162,103,16885,5,12,0:0:0:0:
85,121,17551,1,4,0:0:0:0:
167,99,18662,1,12,0:0:0:0:
167,99,19329,1,12,0:0:0:0:
380,114,20440,1,12,0:0:0:0:
264,125,21329,1,8,0:0:0:0:
65,120,22218,1,12,0:0:0:0:
195,92,22885,1,12,0:0:0:0:
379,131,23996,5,4,0:0:0:0:
233,138,24885,1,8,0:0:0:0:
287,205,26662,1,0,0:0:0:0:
188,80,27107,1,0,0:0:0:0:
202,158,27551,1,0,0:0:0:0:
204,141,28218,1,8,0:0:0:0:
204,141,29107,1,0,0:0:0:0:
291,168,31107,5,0,0:0:0:0:
291,168,31774,1,8,0:0:0:0:
241,96,32885,1,0,0:0:0:0:
275,183,33551,1,8,0:0:0:0:
314,121,34662,1,8,0:0:0:0:
292,92,35107,1,8,0:0:0:0:
435,135,35551,1,8,0:0:0:0:
435,135,36218,1,4,0:0:0:0:
252,92,38218,5,4,0:0:0:0:
288,226,39107,1,8,0:0:0:0:
238,82,40885,1,0,0:0:0:0:
210,54,41329,1,0,0:0:0:0:
280,105,41774,1,0,0:0:0:0:
187,109,42440,1,8,0:0:0:0:
204,141,43329,1,0,0:0:0:0:
291,168,45329,5,8,0:0:0:0:
291,168,45996,1,8,0:0:0:0:
241,96,47107,1,0,0:0:0:0:
275,183,47774,1,8,0:0:0:0:
80,131,48885,1,8,0:0:0:0:
292,92,49329,1,8,0:0:0:0:
435,135,49774,1,8,0:0:0:0:
435,135,50440,1,4,0:0:0:0:
252,92,52440,5,4,0:0:0:0:
283,84,52885,1,8,0:0:0:0:
283,84,53329,1,0,0:0:0:0:
283,84,54662,1,8,0:0:0:0:
283,84,55107,1,0,0:0:0:0:
283,84,56440,1,8,0:0:0:0:
283,84,56885,1,8,0:0:0:0:
283,84,57551,1,8,0:0:0:0:
445,212,59107,1,8,0:0:0:0:
283,84,59551,5,4,0:0:0:0:
264,147,59996,1,8,0:0:0:0:
264,147,60440,1,0,0:0:0:0:
264,123,61329,1,0,0:0:0:0:
258,123,61774,1,8,0:0:0:0:
258,123,62218,1,8,0:0:0:0:
313,139,63107,5,4,0:0:0:0:
287,123,64885,1,4,0:0:0:0:
412,165,66662,5,12,0:0:0:0:
271,161,67551,1,0,0:0:0:0:
382,122,68440,1,12,0:0:0:0:
425,135,68885,1,12,0:0:0:0:
318,116,69329,1,4,0:0:0:0:
251,106,69774,1,12,0:0:0:0:
271,159,71995,5,12,0:0:0:0:
271,159,72883,1,8,0:0:0:0:
271,159,73772,1,8,0:0:0:0:
271,159,74217,1,0,0:0:0:0:
271,159,74661,1,8,0:0:0:0:
271,159,75550,1,0,0:0:0:0:
271,159,75995,1,8,0:0:0:0:
271,159,76439,1,8,0:0:0:0:
271,159,77328,1,8,0:0:0:0:
271,159,77772,1,0,0:0:0:0:
271,159,78217,1,8,0:0:0:0:
250,49,79106,5,4,0:0:0:0:
269,167,79994,1,8,0:0:0:0:
269,163,80439,1,0,0:0:0:0:
269,167,80883,1,8,0:0:0:0:
315,61,81550,1,8,0:0:0:0:
247,165,82661,1,12,0:0:0:0:
247,165,83994,1,0,0:0:0:0:
349,140,84439,1,12,0:0:0:0:
219,71,85106,1,12,0:0:0:0:
271,159,86217,5,12,0:0:0:0:
271,159,87106,1,8,0:0:0:0:
271,159,87994,1,8,0:0:0:0:
271,159,88439,1,0,0:0:0:0:
271,159,88883,1,8,0:0:0:0:
271,159,89772,1,8,0:0:0:0:
271,159,90217,1,8,0:0:0:0:
271,159,90661,1,0,0:0:0:0:
271,159,91550,1,8,0:0:0:0:
271,159,91994,1,8,0:0:0:0:
271,159,92439,1,0,0:0:0:0:
250,49,93328,5,4,0:0:0:0:
269,167,93994,1,12,0:0:0:0:
269,163,94661,1,0,0:0:0:0:
269,167,95106,1,12,0:0:0:0:
256,173,95772,1,12,0:0:0:0:
247,165,96883,1,12,0:0:0:0:
247,165,97772,1,8,0:0:0:0:
247,165,98217,1,0,0:0:0:0:
349,140,98661,1,8,0:0:0:0:
320,117,99550,1,8,0:0:0:0:
256,192,100439,12,0,103106,0:0:0:0:
354,130,103994,5,4,0:0:0:0:
420,129,104439,1,8,0:0:0:0:
420,129,105328,1,8,0:0:0:0:
420,129,105772,1,0,0:0:0:0:
420,129,106217,1,8,0:0:0:0:
289,132,107106,1,8,0:0:0:0:
340,189,107772,5,0,0:0:0:0:
398,168,108439,1,8,0:0:0:0:
198,101,109217,1,8,0:0:0:0:
256,192,111550,12,0,116439,0:0:0:0:
