osu file format v14

[General]
AudioFilename: audio.mp3
AudioLeadIn: 0
PreviewTime: -1
Countdown: 0
SampleSet: None
StackLeniency: 0.7
Mode: 0
LetterboxInBreaks: 0
WidescreenStoryboard: 1

[Editor]
DistanceSpacing: 1
BeatDivisor: 8
GridSize: 4
TimelineZoom: 2.6

[Metadata]
Title:Enjoy It! (TV Size)
TitleUnicode:Enjoy It! (TV Size)
Artist:QU4RTZ
ArtistUnicode:QU4RTZ
Creator:Sage72_
Version:Redemption
Source:ラブライブ!虹ヶ咲学園スクールアイドル同好会
Tags:
BeatmapID:4584182
BeatmapSetID:2159990

[Difficulty]
HPDrainRate:5
CircleSize:4
OverallDifficulty:8
ApproachRate:9
SliderMultiplier:1.8
SliderTickRate:1

[Events]
//Background and Video events
0,0,"cover.jpg",0,0
Video,0,"video.mp4"
//Break Periods
//Storyboard Layer 0 (Background)
//Storyboard Layer 1 (Fail)
//Storyboard Layer 2 (Pass)
//Storyboard Layer 3 (Foreground)
//Storyboard Layer 4 (Overlay)
//Storyboard Sound Samples

[TimingPoints]
0,500,4,2,1,100,1,0

[HitObjects]
241,53,1781,6,0,L|252:98,1,45
370,134,2031,2,0,L|375:183,1,45
243,188,2281,2,0,L|249:238,1,45
344,290,2531,2,0,L|307:324,1,45
152,297,2781,2,0,L|194:323,1,45
124,203,3031,5,0,0:0:0:0:
136,172,3156,1,0,0:0:0:0:
155,148,3281,1,0,0:0:0:0:
182,126,3406,1,0,0:0:0:0:
211,121,3531,1,0,0:0:0:0:
334,78,3812,5,0,0:0:0:0:
380,202,4062,1,0,0:0:0:0:
133,287,4312,1,0,0:0:0:0:
141,286,4437,1,0,0:0:0:0:
148,286,4562,1,0,0:0:0:0:
94,162,4812,1,0,0:0:0:0:
243,57,5062,1,0,0:0:0:0:
272,40,5312,5,0,0:0:0:0:
245,50,5437,1,0,0:0:0:0:
217,65,5562,2,0,P|179:84|176:85,1,45
113,288,5937,1,0,0:0:0:0:
366,216,6187,1,0,0:0:0:0:
383,229,6312,1,0,0:0:0:0:
97,170,6562,1,0,0:0:0:0:
387,60,6812,1,0,0:0:0:0:
99,42,7187,1,0,0:0:0:0:
382,140,7562,5,0,0:0:0:0:
309,41,8062,1,0,0:0:0:0:
89,274,8312,1,0,0:0:0:0:
404,314,8562,1,0,0:0:0:0:
170,74,8812,1,0,0:0:0:0:
305,55,9312,5,0,0:0:0:0:
328,70,9437,1,0,0:0:0:0:
362,96,9562,2,0,L|397:120,1,22.5
107,286,9937,1,0,0:0:0:0:
350,294,10187,1,0,0:0:0:0:
365,289,10312,1,0,0:0:0:0:
264,52,10562,1,0,0:0:0:0:
111,146,10812,1,0,0:0:0:0:
56,285,11062,5,0,0:0:0:0:
84,297,11187,1,0,0:0:0:0:
117,313,11312,2,0,L|150:328,1,22.5
79,96,11812,5,0,0:0:0:0:
404,50,12062,1,0,0:0:0:0:
380,75,12187,1,0,0:0:0:0:
357,97,12312,1,0,0:0:0:0:
336,121,12437,1,0,0:0:0:0:
87,105,12812,5,0,0:0:0:0:
114,130,12937,1,0,0:0:0:0:
136,150,13062,1,0,0:0:0:0:
162,168,13187,1,0,0:0:0:0:
323,120,13687,5,0,0:0:0:0:
53,162,14062,1,0,0:0:0:0:
78,185,14187,1,0,0:0:0:0:
103,204,14312,1,0,0:0:0:0:
126,226,14437,1,0,0:0:0:0:
426,212,14812,5,0,0:0:0:0:
407,234,14937,1,0,0:0:0:0:
385,256,15062,1,0,0:0:0:0:
362,279,15187,1,0,0:0:0:0:
112,80,15812,5,0,0:0:0:0:
406,142,16062,1,0,0:0:0:0:
133,306,16312,1,0,0:0:0:0:
388,256,16562,1,0,0:0:0:0:
165,71,16812,1,0,0:0:0:0:
408,256,17312,5,0,0:0:0:0:
390,228,17437,1,0,0:0:0:0:
375,202,17562,2,0,L|354:171,1,22.5
129,249,17937,1,0,0:0:0:0:
306,39,18187,1,0,0:0:0:0:
282,58,18312,1,0,0:0:0:0:
112,276,18562,1,0,0:0:0:0:
354,331,18812,1,0,0:0:0:0:
192,111,19187,5,0,0:0:0:0:
213,124,19312,1,0,0:0:0:0:
422,93,19812,1,0,0:0:0:0:
175,311,20062,1,0,0:0:0:0:
365,251,20312,1,0,0:0:0:0:
113,177,20562,1,0,0:0:0:0:
417,173,20812,1,0,0:0:0:0:
349,69,21187,5,0,0:0:0:0:
326,87,21312,1,0,0:0:0:0:
206,35,21562,1,0,0:0:0:0:
183,56,21687,1,0,0:0:0:0:
162,78,21812,1,0,0:0:0:0:
140,97,21937,1,0,0:0:0:0:
114,277,22187,1,0,0:0:0:0:
140,300,22312,1,0,0:0:0:0:
392,66,22563,1,0,0:0:0:0:
403,304,22812,1,0,0:0:0:0:
190,317,23062,5,0,0:0:0:0:
151,288,23187,1,0,0:0:0:0:
135,248,23312,1,0,0:0:0:0:
134,154,23562,2,0,P|157:120|184:105,1,67.5
281,78,24062,1,0,0:0:0:0:
275,123,24187,1,0,0:0:0:0:
264,169,24312,1,0,0:0:0:0:
102,305,24562,6,0,P|129:333|164:339,1,67.5
237,336,25062,1,0,0:0:0:0:
260,296,25187,1,0,0:0:0:0:
265,245,25312,1,0,0:0:0:0:
400,59,25562,6,0,B|412:94|407:135|409:124,1,67.5
426,235,26062,1,0,0:0:0:0:
406,274,26187,1,0,0:0:0:0:
367,296,26312,1,0,0:0:0:0:
254,228,26562,2,0,P|257:189|235:167,1,67.5
188,80,27062,5,0,0:0:0:0:
148,62,27187,1,0,0:0:0:0:
100,63,27312,1,0,0:0:0:0:
48,235,27562,1,0,0:0:0:0:
67,245,27687,1,0,0:0:0:0:
89,259,27812,2,0,L|148:295,1,67.5
345,283,28312,5,0,0:0:0:0:
100,140,28562,1,0,0:0:0:0:
367,55,28812,1,0,0:0:0:0:
433,216,29187,1,0,0:0:0:0:
434,233,29312,1,0,0:0:0:0:
294,327,29562,5,0,0:0:0:0:
287,309,29687,1,0,0:0:0:0:
279,286,29812,2,0,L|268:251,2,22.5
199,37,30312,1,0,0:0:0:0:
114,300,30562,1,0,0:0:0:0:
41,67,30812,1,0,0:0:0:0:
347,55,31062,1,0,0:0:0:0:
376,287,31312,5,0,0:0:0:0:
169,351,31562,1,0,0:0:0:0:
87,232,31812,2,0,P|88:186|105:155,1,67.5
173,78,32312,2,0,P|211:55|238:57,1,67.5
325,104,32812,2,0,P|357:130|367:166,1,67.5
312,331,33312,1,0,0:0:0:0:
79,316,33562,5,0,0:0:0:0:
95,291,33687,1,0,0:0:0:0:
113,263,33812,2,0,L|152:202,2,67.5
245,41,34562,1,0,0:0:0:0:
441,178,34812,1,0,0:0:0:0:
101,226,35062,1,0,0:0:0:0:
226,324,35312,5,0,0:0:0:0:
255,303,35437,1,0,0:0:0:0:
286,280,35562,1,0,0:0:0:0:
389,195,35812,1,0,0:0:0:0:
262,35,36062,1,0,0:0:0:0:
111,109,36312,1,0,0:0:0:0:
128,147,36437,1,0,0:0:0:0:
145,181,36562,1,0,0:0:0:0:
209,327,36812,5,0,0:0:0:0:
428,204,37062,1,0,0:0:0:0:
290,44,37312,1,0,0:0:0:0:
249,43,37437,1,0,0:0:0:0:
210,43,37562,1,0,0:0:0:0:
75,168,37812,1,0,0:0:0:0:
227,330,38062,1,0,0:0:0:0:
332,65,38312,5,0,0:0:0:0:
334,102,38437,1,0,0:0:0:0:
336,142,38562,1,0,0:0:0:0:
115,203,38812,1,0,0:0:0:0:
446,147,39062,1,0,0:0:0:0:
266,54,39312,1,0,0:0:0:0:
227,52,39437,1,0,0:0:0:0:
187,50,39562,1,0,0:0:0:0:
84,161,39812,5,0,0:0:0:0:
200,330,40062,1,0,0:0:0:0:
305,81,40312,1,0,0:0:0:0:
306,119,40437,1,0,0:0:0:0:
309,155,40562,1,0,0:0:0:0:
276,333,40812,1,0,0:0:0:0:
135,59,41062,1,0,0:0:0:0:
122,293,41312,5,0,0:0:0:0:
151,262,41437,1,0,0:0:0:0:
176,233,41562,1,0,0:0:0:0:
336,62,41812,6,0,L|327:107,1,45
149,90,42062,2,0,L|166:127,1,22.5
328,176,42312,2,0,L|312:206,1,22.5
128,202,42562,2,0,L|146:240,1,22.5
312,277,42812,2,0,L|293:313,1,22.5
119,303,43062,2,0,L|146:337,1,22.5
230,227,43312,5,0,0:0:0:0:
230,186,43437,1,0,0:0:0:0:
230,145,43562,1,0,0:0:0:0:
94,86,43812,5,0,0:0:0:0:
288,39,44062,1,0,0:0:0:0:
392,135,44312,1,0,0:0:0:0:
383,158,44437,2,0,L|369:195,1,22.5
310,294,44812,1,0,0:0:0:0:
162,330,45062,1,0,0:0:0:0:
94,196,45312,5,0,0:0:0:0:
107,176,45437,2,0,L|126:143,1,22.5
294,38,45812,1,0,0:0:0:0:
432,217,46062,1,0,0:0:0:0:
248,328,46312,1,0,0:0:0:0:
223,328,46437,2,0,L|186:328,1,22.5
72,244,46812,5,0,0:0:0:0:
230,40,47062,1,0,0:0:0:0:
308,336,47312,1,0,0:0:0:0:
394,59,47562,1,0,0:0:0:0:
416,269,47812,1,0,0:0:0:0:
404,248,47937,1,0,0:0:0:0:
395,227,48062,2,0,L|379:197,1,22.5
305,83,48312,5,0,0:0:0:0:
291,106,48437,1,0,0:0:0:0:
281,126,48562,2,0,L|261:160,1,22.5
226,279,48812,1,0,0:0:0:0:
211,258,48937,1,0,0:0:0:0:
193,233,49062,2,0,L|175:199,1,22.5
90,87,49312,1,0,0:0:0:0:
76,125,49437,1,0,0:0:0:0:
64,162,49562,2,0,L|51:205,1,45
108,314,49812,5,0,0:0:0:0:
232,41,50062,1,0,0:0:0:0:
349,307,50312,1,0,0:0:0:0:
116,91,50562,5,0,0:0:0:0:
400,203,50812,1,0,0:0:0:0:
99,305,51062,1,0,0:0:0:0:
239,38,51312,5,0,0:0:0:0:
348,303,51562,1,0,0:0:0:0:
86,221,51812,1,0,0:0:0:0:
292,109,52062,1,0,0:0:0:0:
302,221,52312,1,0,0:0:0:0:
264,229,52437,1,0,0:0:0:0:
236,240,52562,2,0,L|199:249,1,22.5
110,96,52812,5,0,0:0:0:0:
299,32,53062,1,0,0:0:0:0:
398,216,53312,1,0,0:0:0:0:
380,236,53437,1,0,0:0:0:0:
361,252,53562,2,0,P|338:266|317:271,1,45
155,308,53812,1,0,0:0:0:0:
59,161,54062,1,0,0:0:0:0:
187,46,54312,1,0,0:0:0:0:
222,46,54437,1,0,0:0:0:0:
258,47,54562,2,0,L|302:49,1,45
392,159,54812,5,0,0:0:0:0:
286,336,55062,1,0,0:0:0:0:
145,248,55312,1,0,0:0:0:0:
135,205,55437,1,0,0:0:0:0:
130,160,55562,1,0,0:0:0:0:
155,117,55687,1,0,0:0:0:0:
185,92,55812,1,0,0:0:0:0:
306,63,56062,1,0,0:0:0:0:
364,141,56312,5,0,0:0:0:0:
374,182,56437,1,0,0:0:0:0:
368,216,56562,1,0,0:0:0:0:
351,248,56687,1,0,0:0:0:0:
328,276,56812,1,0,0:0:0:0:
237,332,57062,1,0,0:0:0:0:
226,254,57312,5,0,0:0:0:0:
193,233,57437,1,0,0:0:0:0:
167,217,57562,1,0,0:0:0:0:
138,199,57687,1,0,0:0:0:0:
110,183,57812,1,0,0:0:0:0:
237,164,58062,1,0,0:0:0:0:
239,90,58312,5,0,0:0:0:0:
272,72,58437,1,0,0:0:0:0:
303,55,58562,1,0,0:0:0:0:
331,41,58687,1,0,0:0:0:0:
362,26,58812,1,0,0:0:0:0:
375,253,59062,1,0,0:0:0:0:
336,152,59312,5,0,0:0:0:0:
303,169,59437,1,0,0:0:0:0:
270,187,59562,2,0,L|231:210,2,45
259,77,60062,1,0,0:0:0:0:
374,280,60312,1,0,0:0:0:0:
133,288,60562,1,0,0:0:0:0:
132,251,60687,1,0,0:0:0:0:
131,213,60812,1,0,0:0:0:0:
399,184,61062,5,0,0:0:0:0:
238,332,61312,1,0,0:0:0:0:
125,112,61562,1,0,0:0:0:0:
164,95,61687,1,0,0:0:0:0:
203,81,61812,1,0,0:0:0:0:
358,77,62062,1,0,0:0:0:0:
324,307,62312,1,0,0:0:0:0:
240,196,62562,5,0,0:0:0:0:
237,155,62687,1,0,0:0:0:0:
233,114,62812,1,0,0:0:0:0:
97,41,63062,1,0,0:0:0:0:
63,301,63312,1,0,0:0:0:0:
387,166,63562,1,0,0:0:0:0:
322,86,63812,5,0,0:0:0:0:
76,138,64062,1,0,0:0:0:0:
353,205,64312,1,0,0:0:0:0:
78,240,64562,1,0,0:0:0:0:
357,296,64812,5,0,0:0:0:0:
332,308,64937,1,0,0:0:0:0:
305,313,65062,1,0,0:0:0:0:
281,311,65187,1,0,0:0:0:0:
258,303,65312,1,0,0:0:0:0:
235,289,65437,1,0,0:0:0:0:
211,273,65562,1,0,0:0:0:0:
193,255,65687,1,0,0:0:0:0:
177,228,65812,1,0,0:0:0:0:
374,164,66062,5,0,0:0:0:0:
96,129,66312,1,0,0:0:0:0:
364,42,66562,1,0,0:0:0:0:
416,313,66812,1,0,0:0:0:0:
91,306,67062,1,0,0:0:0:0:
88,46,67312,1,0,0:0:0:0:
423,58,67562,1,0,0:0:0:0:
175,65,67812,5,0,0:0:0:0:
148,307,68062,1,0,0:0:0:0:
290,48,68312,5,0,0:0:0:0:
261,289,68562,1,0,0:0:0:0:
386,85,68812,5,0,0:0:0:0:
366,324,69062,1,0,0:0:0:0:
207,102,69312,5,0,0:0:0:0:
195,123,69437,1,0,0:0:0:0:
184,150,69562,2,0,P|165:182|164:185,2,22.5
371,145,70062,2,0,L|380:183,2,22.5
102,271,70562,2,0,L|140:302,2,45
353,313,71062,2,0,L|320:286,2,22.5
154,53,71562,1,0,0:0:0:0:
188,52,71687,1,0,0:0:0:0:
224,52,71812,1,0,0:0:0:0:
421,147,72062,5,0,0:0:0:0:
418,180,72187,1,0,0:0:0:0:
412,215,72312,1,0,0:0:0:0:
251,325,72562,1,0,0:0:0:0:
214,317,72687,1,0,0:0:0:0:
179,301,72812,1,0,0:0:0:0:
126,151,73062,1,0,0:0:0:0:
141,114,73187,1,0,0:0:0:0:
164,74,73312,1,0,0:0:0:0:
322,40,73562,5,0,0:0:0:0:
427,286,73812,1,0,0:0:0:0:
135,345,74062,1,0,0:0:0:0:
50,149,74312,1,0,0:0:0:0:
378,119,74562,1,0,0:0:0:0:
327,340,74812,1,0,0:0:0:0:
51,314,75062,1,0,0:0:0:0:
216,70,75312,1,0,0:0:0:0:
386,182,75562,5,0,0:0:0:0:
375,206,75687,2,0,L|357:238,1,22.5
196,326,76062,1,0,0:0:0:0:
81,128,76312,1,0,0:0:0:0:
296,54,76562,1,0,0:0:0:0:
307,72,76687,2,0,L|334:103,1,22.5
332,333,77062,1,0,0:0:0:0:
161,34,77312,1,0,0:0:0:0:
100,273,77562,1,0,0:0:0:0:
119,261,77687,2,0,L|153:239,1,22.5
433,215,78062,5,0,0:0:0:0:
260,47,78312,1,0,0:0:0:0:
189,318,78562,1,0,0:0:0:0:
171,320,78687,2,0,L|125:322,1,45
89,179,79062,1,0,0:0:0:0:
321,49,79312,1,0,0:0:0:0:
363,336,79562,1,0,0:0:0:0:
343,332,79687,2,0,L|302:323,1,22.5
96,315,80062,5,0,0:0:0:0:
252,52,80312,1,0,0:0:0:0:
391,331,80562,1,0,0:0:0:0:
50,219,80812,1,0,0:0:0:0:
324,44,81062,1,0,0:0:0:0:
384,320,81312,1,0,0:0:0:0:
100,290,81562,1,0,0:0:0:0:
325,79,81812,1,0,0:0:0:0:
425,280,82062,1,0,0:0:0:0:
196,285,82312,5,0,0:0:0:0:
192,266,82437,1,0,0:0:0:0:
191,244,82562,1,0,0:0:0:0:
192,223,82687,1,0,0:0:0:0:
197,203,82812,1,0,0:0:0:0:
206,178,82937,1,0,0:0:0:0:
216,157,83062,5,0,0:0:0:0:
230,135,83187,1,0,0:0:0:0:
249,115,83312,1,0,0:0:0:0:
269,98,83437,1,0,0:0:0:0:
291,85,83562,1,0,0:0:0:0:
313,76,83687,1,0,0:0:0:0:
336,70,83812,1,0,0:0:0:0:
394,248,84062,5,0,0:0:0:0:
84,292,84312,1,0,0:0:0:0:
184,45,84562,1,0,0:0:0:0:
218,47,84687,1,0,0:0:0:0:
252,51,84812,1,0,0:0:0:0:
391,154,85062,1,0,0:0:0:0:
309,306,85312,1,0,0:0:0:0:
72,256,85562,1,0,0:0:0:0:
82,222,85687,1,0,0:0:0:0:
90,191,85812,1,0,0:0:0:0:
193,39,86062,5,0,0:0:0:0:
232,304,86312,1,0,0:0:0:0:
372,64,86562,1,0,0:0:0:0:
372,83,86687,2,0,L|372:125,1,22.5
321,298,87062,1,0,0:0:0:0:
204,41,87312,1,0,0:0:0:0:
107,313,87562,1,0,0:0:0:0:
109,287,87687,2,0,L|112:248,1,22.5
126,52,88062,5,0,0:0:0:0:
389,134,88312,1,0,0:0:0:0:
90,325,88562,2,0,L|69:285,2,45
235,49,89062,1,0,0:0:0:0:
311,313,89312,1,0,0:0:0:0:
381,92,89562,2,0,L|379:136,2,45
103,157,90062,1,0,0:0:0:0:
426,256,90312,1,0,0:0:0:0:
150,305,90562,2,0,L|188:286,2,22.5
272,42,91062,5,0,0:0:0:0:
378,332,91312,1,0,0:0:0:0:
59,257,91562,1,0,0:0:0:0:
370,85,91812,1,0,0:0:0:0:
286,326,92062,1,0,0:0:0:0:
68,100,92312,1,0,0:0:0:0:
419,180,92562,1,0,0:0:0:0:
108,313,92812,1,0,0:0:0:0:
140,42,93062,1,0,0:0:0:0:
347,273,93312,5,0,0:0:0:0:
60,172,93562,1,0,0:0:0:0:
232,47,93812,1,0,0:0:0:0:
351,88,94062,1,0,0:0:0:0:
361,118,94187,1,0,0:0:0:0:
372,146,94312,1,0,0:0:0:0:
391,293,94562,1,0,0:0:0:0:
217,334,94812,1,0,0:0:0:0:
113,214,95062,5,0,0:0:0:0:
128,185,95187,1,0,0:0:0:0:
143,155,95312,1,0,0:0:0:0:
300,46,95562,1,0,0:0:0:0:
389,270,95812,1,0,0:0:0:0:
183,313,96062,1,0,0:0:0:0:
153,315,96187,1,0,0:0:0:0:
114,313,96312,1,0,0:0:0:0:
75,133,96562,5,0,0:0:0:0:
312,46,96812,1,0,0:0:0:0:
380,311,97062,1,0,0:0:0:0:
348,312,97187,1,0,0:0:0:0:
313,310,97312,1,0,0:0:0:0:
74,264,97562,1,0,0:0:0:0:
227,48,97812,1,0,0:0:0:0:
401,105,98062,5,0,0:0:0:0:
395,134,98187,1,0,0:0:0:0:
387,163,98312,1,0,0:0:0:0:
376,191,98437,1,0,0:0:0:0:
363,211,98562,1,0,0:0:0:0:
346,230,98687,1,0,0:0:0:0:
324,243,98812,1,0,0:0:0:0:
302,250,98937,1,0,0:0:0:0:
281,254,99062,1,0,0:0:0:0:
258,253,99187,1,0,0:0:0:0:
235,244,99312,1,0,0:0:0:0:
125,226,99562,5,0,0:0:0:0:
256,112,99812,1,0,0:0:0:0:
256,192,100125,12,0,103875,0:0:0:0:
