osu file format v14

[General]
AudioFilename: audio.mp3
AudioLeadIn: 0
PreviewTime: -1
Countdown: 0
SampleSet: Soft
StackLeniency: 0.7
Mode: 0
LetterboxInBreaks: 0
WidescreenStoryboard: 1

[Editor]
DistanceSpacing: 1
BeatDivisor: 8
GridSize: 4
TimelineZoom: 1

[Metadata]
Title:Enjoy It! (TV Size)
TitleUnicode:Enjoy It! (TV Size)
Artist:QU4RTZ
ArtistUnicode:QU4RTZ
Creator:Sage72_
Version:Enjoy!
Source:ラブライブ!虹ヶ咲学園スクールアイドル同好会
Tags:
BeatmapID:4557383
BeatmapSetID:2159990

[Difficulty]
HPDrainRate:6
CircleSize:4
OverallDifficulty:8
ApproachRate:8.5
SliderMultiplier:1.4
SliderTickRate:1

[Events]
//Background and Video events
0,0,"cover.jpg",0,0
Video,0,"video.mp4"
//Break Periods
//Storyboard Layer 0 (Background)
//Storyboard Layer 1 (Fail)
//Storyboard Layer 2 (Pass)
//Storyboard Layer 3 (Foreground)
//Storyboard Layer 4 (Overlay)
//Storyboard Sound Samples

[TimingPoints]
0,500,4,2,1,100,1,0

[HitObjects]
154,72,1781,5,0,0:0:0:0:
166,78,1906,1,0,0:0:0:0:
287,126,2031,1,0,0:0:0:0:
295,133,2156,1,0,0:0:0:0:
142,186,2281,5,0,0:0:0:0:
154,194,2406,1,0,0:0:0:0:
293,229,2531,1,0,0:0:0:0:
302,235,2656,1,0,0:0:0:0:
143,287,2781,1,0,0:0:0:0:
154,294,2906,1,0,0:0:0:0:
273,325,3031,5,0,0:0:0:0:
321,326,3156,1,0,0:0:0:0:
364,306,3281,1,0,0:0:0:0:
399,277,3406,1,0,0:0:0:0:
430,241,3531,1,0,0:0:0:0:
139,41,3812,5,0,0:0:0:0:
211,346,4062,1,0,0:0:0:0:
402,55,4312,1,0,0:0:0:0:
393,54,4437,1,0,0:0:0:0:
386,52,4562,1,0,0:0:0:0:
106,327,4812,1,0,0:0:0:0:
446,283,5062,1,0,0:0:0:0:
300,96,5312,5,0,0:0:0:0:
258,82,5437,1,0,0:0:0:0:
216,71,5562,1,0,0:0:0:0:
177,59,5687,1,0,0:0:0:0:
86,336,5937,1,0,0:0:0:0:
431,232,6187,1,0,0:0:0:0:
422,226,6312,1,0,0:0:0:0:
58,127,6562,1,0,0:0:0:0:
439,52,6812,1,0,0:0:0:0:
205,344,7187,1,0,0:0:0:0:
449,217,7562,5,0,0:0:0:0:
309,41,8062,1,0,0:0:0:0:
258,335,8312,1,0,0:0:0:0:
266,339,8437,1,0,0:0:0:0:
273,342,8562,1,0,0:0:0:0:
164,42,8812,1,0,0:0:0:0:
292,48,9312,5,0,0:0:0:0:
328,70,9437,1,0,0:0:0:0:
365,93,9562,1,0,0:0:0:0:
402,116,9687,1,0,0:0:0:0:
287,341,9937,1,0,0:0:0:0:
110,45,10187,1,0,0:0:0:0:
121,43,10312,1,0,0:0:0:0:
121,343,10562,1,0,0:0:0:0:
267,38,10812,1,0,0:0:0:0:
374,333,11062,5,0,0:0:0:0:
405,300,11187,1,0,0:0:0:0:
435,270,11312,1,0,0:0:0:0:
465,235,11437,1,0,0:0:0:0:
255,314,11812,5,0,0:0:0:0:
339,66,12062,1,0,0:0:0:0:
374,80,12187,1,0,0:0:0:0:
403,108,12312,1,0,0:0:0:0:
424,140,12437,2,0,P|435:157|436:175,1,35
370,327,12812,5,0,0:0:0:0:
339,341,12937,1,0,0:0:0:0:
302,348,13062,1,0,0:0:0:0:
266,350,13187,2,0,P|246:352|227:345,1,35
256,192,13687,5,0,0:0:0:0:
137,318,14062,1,0,0:0:0:0:
105,297,14187,1,0,0:0:0:0:
83,266,14312,1,0,0:0:0:0:
72,229,14437,2,0,P|63:212|66:192,1,35
110,78,14812,5,0,0:0:0:0:
142,54,14937,1,0,0:0:0:0:
176,43,15062,1,0,0:0:0:0:
213,35,15187,2,0,P|231:29|250:31,1,35
256,192,15562,1,0,0:0:0:0:
359,342,15812,5,0,0:0:0:0:
221,39,16062,1,0,0:0:0:0:
123,340,16312,1,0,0:0:0:0:
335,40,16562,1,0,0:0:0:0:
67,236,16812,1,0,0:0:0:0:
414,330,17062,1,0,0:0:0:0:
446,91,17312,5,0,0:0:0:0:
412,72,17437,1,0,0:0:0:0:
374,60,17562,1,0,0:0:0:0:
335,52,17687,1,0,0:0:0:0:
52,191,17937,1,0,0:0:0:0:
329,337,18187,1,0,0:0:0:0:
343,341,18312,1,0,0:0:0:0:
222,39,18562,1,0,0:0:0:0:
142,348,18812,1,0,0:0:0:0:
440,229,19062,5,0,0:0:0:0:
436,187,19187,1,0,0:0:0:0:
434,146,19312,1,0,0:0:0:0:
154,39,19562,1,0,0:0:0:0:
155,332,19812,1,0,0:0:0:0:
264,37,20062,1,0,0:0:0:0:
384,331,20312,1,0,0:0:0:0:
142,51,20562,1,0,0:0:0:0:
454,242,20812,1,0,0:0:0:0:
164,334,21062,5,0,0:0:0:0:
126,314,21187,1,0,0:0:0:0:
100,279,21312,1,0,0:0:0:0:
349,44,21562,1,0,0:0:0:0:
388,60,21687,1,0,0:0:0:0:
423,91,21812,1,0,0:0:0:0:
59,92,22062,1,0,0:0:0:0:
91,59,22187,1,0,0:0:0:0:
130,40,22312,1,0,0:0:0:0:
472,267,22562,5,0,0:0:0:0:
450,307,22687,1,0,0:0:0:0:
411,327,22812,1,0,0:0:0:0:
79,273,23062,5,0,0:0:0:0:
102,311,23187,1,0,0:0:0:0:
143,327,23312,1,0,0:0:0:0:
436,90,23562,1,0,0:0:0:0:
409,55,23687,1,0,0:0:0:0:
369,37,23812,1,0,0:0:0:0:
373,334,24062,1,0,0:0:0:0:
412,309,24187,1,0,0:0:0:0:
432,270,24312,1,0,0:0:0:0:
123,42,24562,5,0,0:0:0:0:
85,63,24687,1,0,0:0:0:0:
75,112,24812,1,0,0:0:0:0:
116,323,25062,1,0,0:0:0:0:
133,277,25187,1,0,0:0:0:0:
148,234,25312,1,0,0:0:0:0:
228,40,25562,5,0,0:0:0:0:
255,78,25687,1,0,0:0:0:0:
284,117,25812,1,0,0:0:0:0:
417,331,26062,1,0,0:0:0:0:
375,332,26187,1,0,0:0:0:0:
335,333,26312,1,0,0:0:0:0:
89,152,26562,1,0,0:0:0:0:
88,196,26687,1,0,0:0:0:0:
89,243,26812,1,0,0:0:0:0:
441,236,27062,5,0,0:0:0:0:
442,192,27187,1,0,0:0:0:0:
441,147,27312,1,0,0:0:0:0:
289,83,27562,1,0,0:0:0:0:
329,95,27687,1,0,0:0:0:0:
360,127,27812,2,0,L|375:173,1,35
370,223,28062,1,0,0:0:0:0:
355,269,28187,1,0,0:0:0:0:
324,298,28312,2,0,L|285:306,1,35
225,306,28562,5,0,0:0:0:0:
181,296,28687,1,0,0:0:0:0:
155,258,28812,2,0,L|155:218,1,35
151,159,29062,1,0,0:0:0:0:
157,112,29187,1,0,0:0:0:0:
186,79,29312,2,0,L|221:79,1,35
449,219,29562,5,0,0:0:0:0:
447,187,29687,1,0,0:0:0:0:
447,156,29812,1,0,0:0:0:0:
288,42,30062,5,0,0:0:0:0:
257,44,30187,1,0,0:0:0:0:
225,43,30312,1,0,0:0:0:0:
55,159,30562,1,0,0:0:0:0:
56,191,30687,1,0,0:0:0:0:
57,221,30812,1,0,0:0:0:0:
225,330,31062,1,0,0:0:0:0:
256,332,31187,1,0,0:0:0:0:
287,332,31312,1,0,0:0:0:0:
254,53,31562,1,0,0:0:0:0:
104,100,31812,5,0,0:0:0:0:
100,130,31937,1,0,0:0:0:0:
100,164,32062,1,0,0:0:0:0:
105,195,32187,1,0,0:0:0:0:
117,227,32312,1,0,0:0:0:0:
133,252,32437,1,0,0:0:0:0:
160,274,32562,1,0,0:0:0:0:
184,289,32687,1,0,0:0:0:0:
216,303,32812,1,0,0:0:0:0:
245,314,32937,5,0,0:0:0:0:
281,311,33062,1,0,0:0:0:0:
311,301,33187,1,0,0:0:0:0:
337,280,33312,1,0,0:0:0:0:
355,254,33437,1,0,0:0:0:0:
373,227,33562,5,0,0:0:0:0:
386,195,33687,1,0,0:0:0:0:
396,166,33812,2,0,L|398:93,2,70
245,40,34562,1,0,0:0:0:0:
393,336,34812,1,0,0:0:0:0:
62,226,35062,1,0,0:0:0:0:
435,198,35312,5,0,0:0:0:0:
433,168,35437,1,0,0:0:0:0:
432,136,35562,1,0,0:0:0:0:
430,107,35687,1,0,0:0:0:0:
431,75,35812,1,0,0:0:0:0:
229,42,36062,1,0,0:0:0:0:
75,294,36312,1,0,0:0:0:0:
74,258,36437,1,0,0:0:0:0:
75,230,36562,1,0,0:0:0:0:
75,195,36687,1,0,0:0:0:0:
74,169,36812,1,0,0:0:0:0:
407,299,37062,5,0,0:0:0:0:
319,82,37312,1,0,0:0:0:0:
288,70,37437,1,0,0:0:0:0:
256,64,37562,1,0,0:0:0:0:
224,69,37687,1,0,0:0:0:0:
194,77,37812,1,0,0:0:0:0:
121,306,38062,1,0,0:0:0:0:
422,122,38312,5,0,0:0:0:0:
424,151,38437,1,0,0:0:0:0:
425,185,38562,1,0,0:0:0:0:
424,213,38687,1,0,0:0:0:0:
425,249,38812,1,0,0:0:0:0:
254,67,39062,1,0,0:0:0:0:
142,225,39312,1,0,0:0:0:0:
149,257,39437,1,0,0:0:0:0:
163,286,39562,1,0,0:0:0:0:
193,302,39687,1,0,0:0:0:0:
222,309,39812,1,0,0:0:0:0:
415,227,40062,5,0,0:0:0:0:
85,214,40312,1,0,0:0:0:0:
85,181,40437,1,0,0:0:0:0:
85,149,40562,1,0,0:0:0:0:
87,120,40687,1,0,0:0:0:0:
87,88,40812,1,0,0:0:0:0:
212,341,41062,1,0,0:0:0:0:
256,161,41312,5,0,0:0:0:0:
256,191,41437,1,0,0:0:0:0:
257,222,41562,1,0,0:0:0:0:
415,178,41812,5,0,0:0:0:0:
388,190,41937,1,0,0:0:0:0:
361,211,42062,1,0,0:0:0:0:
338,229,42187,1,0,0:0:0:0:
318,256,42312,1,0,0:0:0:0:
307,282,42437,1,0,0:0:0:0:
279,306,42562,1,0,0:0:0:0:
248,312,42687,1,0,0:0:0:0:
217,308,42812,1,0,0:0:0:0:
185,295,42937,5,0,0:0:0:0:
162,273,43062,1,0,0:0:0:0:
153,239,43187,1,0,0:0:0:0:
158,205,43312,1,0,0:0:0:0:
174,179,43437,1,0,0:0:0:0:
183,145,43562,1,0,0:0:0:0:
168,114,43687,1,0,0:0:0:0:
148,91,43812,1,0,0:0:0:0:
327,34,44062,1,0,0:0:0:0:
397,325,44312,5,0,0:0:0:0:
392,319,44437,1,0,0:0:0:0:
388,312,44562,1,0,0:0:0:0:
128,44,44812,1,0,0:0:0:0:
239,340,45062,1,0,0:0:0:0:
234,37,45312,5,0,0:0:0:0:
237,43,45437,1,0,0:0:0:0:
241,49,45562,1,0,0:0:0:0:
334,346,45812,1,0,0:0:0:0:
330,40,46062,1,0,0:0:0:0:
147,326,46312,1,0,0:0:0:0:
140,322,46437,1,0,0:0:0:0:
135,316,46562,1,0,0:0:0:0:
52,222,46812,5,0,0:0:0:0:
230,40,47062,1,0,0:0:0:0:
284,314,47312,5,0,0:0:0:0:
312,295,47437,1,0,0:0:0:0:
328,267,47562,1,0,0:0:0:0:
339,235,47687,1,0,0:0:0:0:
339,203,47812,1,0,0:0:0:0:
322,172,47937,1,0,0:0:0:0:
296,154,48062,1,0,0:0:0:0:
262,146,48187,1,0,0:0:0:0:
231,152,48312,1,0,0:0:0:0:
198,162,48437,5,0,0:0:0:0:
172,177,48562,1,0,0:0:0:0:
136,176,48687,1,0,0:0:0:0:
108,163,48812,1,0,0:0:0:0:
89,132,48937,1,0,0:0:0:0:
91,102,49062,1,0,0:0:0:0:
110,71,49187,1,0,0:0:0:0:
137,57,49312,1,0,0:0:0:0:
168,43,49437,1,0,0:0:0:0:
202,44,49562,5,0,0:0:0:0:
232,42,49687,1,0,0:0:0:0:
263,46,49812,1,0,0:0:0:0:
129,342,50062,1,0,0:0:0:0:
452,177,50312,1,0,0:0:0:0:
128,41,50562,5,0,0:0:0:0:
432,256,50812,1,0,0:0:0:0:
206,34,51062,1,0,0:0:0:0:
80,275,51312,5,0,0:0:0:0:
387,320,51562,1,0,0:0:0:0:
305,38,51812,1,0,0:0:0:0:
74,198,52062,1,0,0:0:0:0:
325,346,52312,1,0,0:0:0:0:
323,339,52437,1,0,0:0:0:0:
320,331,52562,1,0,0:0:0:0:
156,38,52812,5,0,0:0:0:0:
239,344,53062,1,0,0:0:0:0:
235,38,53312,1,0,0:0:0:0:
237,45,53437,1,0,0:0:0:0:
240,53,53562,1,0,0:0:0:0:
140,342,53812,1,0,0:0:0:0:
321,40,54062,1,0,0:0:0:0:
74,230,54312,1,0,0:0:0:0:
81,225,54437,1,0,0:0:0:0:
89,219,54562,1,0,0:0:0:0:
431,148,54812,5,0,0:0:0:0:
86,319,55062,1,0,0:0:0:0:
446,287,55312,1,0,0:0:0:0:
439,284,55437,1,0,0:0:0:0:
432,280,55562,1,0,0:0:0:0:
70,144,55812,1,0,0:0:0:0:
434,58,56062,1,0,0:0:0:0:
98,55,56312,5,0,0:0:0:0:
105,57,56437,1,0,0:0:0:0:
112,57,56562,1,0,0:0:0:0:
448,182,56812,1,0,0:0:0:0:
73,267,57062,1,0,0:0:0:0:
353,343,57312,5,0,0:0:0:0:
347,338,57437,1,0,0:0:0:0:
340,334,57562,1,0,0:0:0:0:
230,38,57812,1,0,0:0:0:0:
175,346,58062,1,0,0:0:0:0:
322,45,58312,5,0,0:0:0:0:
330,42,58437,1,0,0:0:0:0:
337,38,58562,1,0,0:0:0:0:
254,343,58812,1,0,0:0:0:0:
230,38,59062,1,0,0:0:0:0:
371,334,59312,5,0,0:0:0:0:
365,331,59437,1,0,0:0:0:0:
360,330,59562,1,0,0:0:0:0:
355,328,59687,1,0,0:0:0:0:
350,326,59812,1,0,0:0:0:0:
380,45,60062,1,0,0:0:0:0:
76,137,60312,1,0,0:0:0:0:
77,143,60437,1,0,0:0:0:0:
78,149,60562,1,0,0:0:0:0:
78,155,60687,1,0,0:0:0:0:
79,162,60812,1,0,0:0:0:0:
431,171,61062,5,0,0:0:0:0:
120,259,61312,1,0,0:0:0:0:
118,266,61437,1,0,0:0:0:0:
116,274,61562,1,0,0:0:0:0:
115,279,61687,1,0,0:0:0:0:
114,285,61812,1,0,0:0:0:0:
284,42,62062,1,0,0:0:0:0:
292,334,62312,5,0,0:0:0:0:
298,334,62437,1,0,0:0:0:0:
284,334,62562,1,0,0:0:0:0:
276,336,62687,1,0,0:0:0:0:
269,337,62812,1,0,0:0:0:0:
189,32,63062,1,0,0:0:0:0:
165,345,63312,1,0,0:0:0:0:
293,30,63562,1,0,0:0:0:0:
391,332,63812,5,0,0:0:0:0:
116,39,64062,1,0,0:0:0:0:
246,342,64312,1,0,0:0:0:0:
364,37,64562,1,0,0:0:0:0:
363,322,64812,5,0,0:0:0:0:
346,297,64937,1,0,0:0:0:0:
329,268,65062,1,0,0:0:0:0:
305,248,65187,1,0,0:0:0:0:
285,225,65312,1,0,0:0:0:0:
278,194,65437,1,0,0:0:0:0:
290,164,65562,1,0,0:0:0:0:
314,142,65687,1,0,0:0:0:0:
343,134,65812,1,0,0:0:0:0:
376,137,65937,1,0,0:0:0:0:
403,114,66062,5,0,0:0:0:0:
414,85,66187,1,0,0:0:0:0:
403,50,66312,1,0,0:0:0:0:
375,40,66437,1,0,0:0:0:0:
343,39,66562,1,0,0:0:0:0:
312,39,66687,1,0,0:0:0:0:
284,60,66812,1,0,0:0:0:0:
70,277,67062,1,0,0:0:0:0:
445,163,67312,1,0,0:0:0:0:
57,127,67562,1,0,0:0:0:0:
453,253,67812,5,0,0:0:0:0:
52,212,68062,1,0,0:0:0:0:
465,112,68312,5,0,0:0:0:0:
92,55,68562,1,0,0:0:0:0:
421,60,68812,5,0,0:0:0:0:
97,319,69062,1,0,0:0:0:0:
258,42,69312,5,0,0:0:0:0:
98,128,69562,1,0,0:0:0:0:
97,156,69687,1,0,0:0:0:0:
87,186,69812,1,0,0:0:0:0:
65,210,69937,1,0,0:0:0:0:
50,241,70062,1,0,0:0:0:0:
52,271,70187,1,0,0:0:0:0:
70,299,70312,1,0,0:0:0:0:
94,313,70437,1,0,0:0:0:0:
125,321,70562,5,0,0:0:0:0:
159,312,70687,1,0,0:0:0:0:
183,297,70812,1,0,0:0:0:0:
206,275,70937,1,0,0:0:0:0:
219,248,71062,1,0,0:0:0:0:
220,214,71187,1,0,0:0:0:0:
237,190,71312,1,0,0:0:0:0:
396,317,71562,1,0,0:0:0:0:
277,53,71812,1,0,0:0:0:0:
311,62,71937,1,0,0:0:0:0:
339,71,72062,5,0,0:0:0:0:
371,88,72187,1,0,0:0:0:0:
397,98,72312,1,0,0:0:0:0:
423,126,72437,1,0,0:0:0:0:
439,145,72562,1,0,0:0:0:0:
462,177,72687,1,0,0:0:0:0:
459,205,72812,1,0,0:0:0:0:
448,239,72937,1,0,0:0:0:0:
431,263,73062,1,0,0:0:0:0:
400,278,73187,1,0,0:0:0:0:
369,276,73312,1,0,0:0:0:0:
259,52,73562,5,0,0:0:0:0:
96,342,73812,1,0,0:0:0:0:
424,343,74062,1,0,0:0:0:0:
240,36,74312,1,0,0:0:0:0:
181,344,74562,1,0,0:0:0:0:
411,264,74812,1,0,0:0:0:0:
111,94,75062,1,0,0:0:0:0:
257,342,75312,1,0,0:0:0:0:
171,39,75562,5,0,0:0:0:0:
177,44,75687,1,0,0:0:0:0:
184,50,75812,1,0,0:0:0:0:
166,346,76062,1,0,0:0:0:0:
447,184,76312,1,0,0:0:0:0:
77,107,76562,1,0,0:0:0:0:
78,113,76687,1,0,0:0:0:0:
79,120,76812,1,0,0:0:0:0:
336,339,77062,5,0,0:0:0:0:
230,36,77312,1,0,0:0:0:0:
102,336,77562,1,0,0:0:0:0:
110,334,77687,1,0,0:0:0:0:
117,331,77812,1,0,0:0:0:0:
443,197,78062,5,0,0:0:0:0:
112,43,78312,1,0,0:0:0:0:
308,338,78562,1,0,0:0:0:0:
304,334,78687,1,0,0:0:0:0:
300,329,78812,1,0,0:0:0:0:
89,179,79062,1,0,0:0:0:0:
321,49,79312,1,0,0:0:0:0:
363,336,79562,1,0,0:0:0:0:
356,337,79687,1,0,0:0:0:0:
350,337,79812,1,0,0:0:0:0:
78,69,80062,5,0,0:0:0:0:
82,62,80187,1,0,0:0:0:0:
84,52,80312,1,0,0:0:0:0:
445,295,80562,1,0,0:0:0:0:
445,303,80687,1,0,0:0:0:0:
446,310,80812,1,0,0:0:0:0:
306,54,81062,1,0,0:0:0:0:
302,49,81187,1,0,0:0:0:0:
299,42,81312,1,0,0:0:0:0:
71,248,81562,5,0,0:0:0:0:
72,219,81687,1,0,0:0:0:0:
74,184,81812,1,0,0:0:0:0:
86,151,81937,1,0,0:0:0:0:
112,126,82062,1,0,0:0:0:0:
141,113,82187,1,0,0:0:0:0:
176,112,82312,1,0,0:0:0:0:
203,126,82437,1,0,0:0:0:0:
225,151,82562,1,0,0:0:0:0:
234,179,82687,5,0,0:0:0:0:
237,210,82812,1,0,0:0:0:0:
240,242,82937,1,0,0:0:0:0:
241,272,83062,1,0,0:0:0:0:
256,302,83187,1,0,0:0:0:0:
279,318,83312,1,0,0:0:0:0:
312,323,83437,1,0,0:0:0:0:
341,318,83562,1,0,0:0:0:0:
368,300,83687,1,0,0:0:0:0:
380,268,83812,1,0,0:0:0:0:
313,53,84062,5,0,0:0:0:0:
157,338,84312,1,0,0:0:0:0:
187,44,84562,1,0,0:0:0:0:
192,48,84687,1,0,0:0:0:0:
196,53,84812,2,0,L|218:79,2,35
339,344,85312,1,0,0:0:0:0:
63,185,85562,1,0,0:0:0:0:
64,192,85687,1,0,0:0:0:0:
65,199,85812,2,0,L|67:236,2,35
252,341,86312,5,0,0:0:0:0:
386,46,86562,1,0,0:0:0:0:
386,52,86687,1,0,0:0:0:0:
387,59,86812,2,0,L|388:93,2,35
45,166,87312,1,0,0:0:0:0:
388,271,87562,1,0,0:0:0:0:
388,277,87687,1,0,0:0:0:0:
390,284,87812,2,0,L|390:319,2,35
64,97,88312,1,0,0:0:0:0:
325,74,88562,5,0,0:0:0:0:
328,81,88687,1,0,0:0:0:0:
333,86,88812,1,0,0:0:0:0:
83,237,89062,1,0,0:0:0:0:
383,320,89312,1,0,0:0:0:0:
337,47,89562,1,0,0:0:0:0:
331,47,89687,1,0,0:0:0:0:
327,48,89812,1,0,0:0:0:0:
57,176,90062,1,0,0:0:0:0:
449,254,90312,1,0,0:0:0:0:
134,312,90562,5,0,0:0:0:0:
140,311,90687,1,0,0:0:0:0:
146,308,90812,1,0,0:0:0:0:
272,42,91062,5,0,0:0:0:0:
381,337,91312,1,0,0:0:0:0:
50,248,91562,1,0,0:0:0:0:
254,169,91812,1,0,0:0:0:0:
256,140,91937,1,0,0:0:0:0:
278,110,92062,1,0,0:0:0:0:
306,100,92187,1,0,0:0:0:0:
339,100,92312,1,0,0:0:0:0:
367,114,92437,1,0,0:0:0:0:
392,135,92562,5,0,0:0:0:0:
403,165,92687,1,0,0:0:0:0:
407,195,92812,1,0,0:0:0:0:
402,227,92937,1,0,0:0:0:0:
387,253,93062,1,0,0:0:0:0:
360,270,93187,1,0,0:0:0:0:
333,273,93312,1,0,0:0:0:0:
299,273,93437,1,0,0:0:0:0:
270,272,93562,1,0,0:0:0:0:
238,266,93687,5,0,0:0:0:0:
210,259,93812,1,0,0:0:0:0:
206,45,94062,1,0,0:0:0:0:
213,47,94187,1,0,0:0:0:0:
220,48,94312,1,0,0:0:0:0:
100,333,94562,1,0,0:0:0:0:
435,184,94812,1,0,0:0:0:0:
78,108,95062,5,0,0:0:0:0:
85,109,95187,1,0,0:0:0:0:
91,108,95312,1,0,0:0:0:0:
328,323,95562,1,0,0:0:0:0:
380,63,95812,1,0,0:0:0:0:
112,300,96062,1,0,0:0:0:0:
118,299,96187,1,0,0:0:0:0:
123,296,96312,1,0,0:0:0:0:
133,52,96562,5,0,0:0:0:0:
425,115,96812,1,0,0:0:0:0:
113,198,97062,1,0,0:0:0:0:
120,199,97187,1,0,0:0:0:0:
127,198,97312,1,0,0:0:0:0:
393,240,97562,5,0,0:0:0:0:
390,207,97687,1,0,0:0:0:0:
381,177,97812,1,0,0:0:0:0:
358,155,97937,1,0,0:0:0:0:
330,137,98062,1,0,0:0:0:0:
301,127,98187,1,0,0:0:0:0:
269,120,98312,1,0,0:0:0:0:
235,117,98437,1,0,0:0:0:0:
205,118,98562,5,0,0:0:0:0:
169,131,98687,1,0,0:0:0:0:
151,152,98812,1,0,0:0:0:0:
141,186,98937,1,0,0:0:0:0:
143,214,99062,1,0,0:0:0:0:
150,246,99187,1,0,0:0:0:0:
171,268,99312,1,0,0:0:0:0:
422,301,99562,5,0,0:0:0:0:
256,192,99812,1,0,0:0:0:0:
256,192,100125,12,0,103875,0:0:0:0:
