osu file format v14

[General]
AudioFilename: audio.mp3
AudioLeadIn: 0
PreviewTime: -1
Countdown: 0
SampleSet: Soft
StackLeniency: 0.7
Mode: 0
LetterboxInBreaks: 0
WidescreenStoryboard: 1

[Editor]
DistanceSpacing: 1
BeatDivisor: 8
GridSize: 4
TimelineZoom: 1

[Metadata]
Title:Enjoy It! (TV Size)
TitleUnicode:Enjoy It! (TV Size)
Artist:QU4RTZ
ArtistUnicode:QU4RTZ
Creator:Sage72_
Version:DT stuff
Source:ラブライブ!虹ヶ咲学園スクールアイドル同好会
Tags:
BeatmapID:4554751
BeatmapSetID:2159990

[Difficulty]
HPDrainRate:4
CircleSize:4
OverallDifficulty:6
ApproachRate:8.5
SliderMultiplier:1.4
SliderTickRate:1

[Events]
//Background and Video events
0,0,"cover.jpg",0,0
Video,0,"video.mp4"
//Break Periods
//Storyboard Layer 0 (Background)
//Storyboard Layer 1 (Fail)
//Storyboard Layer 2 (Pass)
//Storyboard Layer 3 (Foreground)
//Storyboard Layer 4 (Overlay)
//Storyboard Sound Samples

[TimingPoints]
0,500,4,2,1,100,1,0

[HitObjects]
423,115,1812,5,0,0:0:0:0:
359,51,2312,1,0,0:0:0:0:
323,140,2812,1,0,0:0:0:0:
287,290,3312,2,0,L|306:254,2,35
87,93,3812,6,0,P|121:83|159:99,1,70
141,188,4312,2,0,P|154:229|186:243,1,70
342,130,4812,1,0,0:0:0:0:
260,43,5312,5,0,0:0:0:0:
245,50,5437,1,0,0:0:0:0:
228,60,5562,2,0,P|190:79|187:80,1,35
122,165,6312,2,0,B|115:207|121:238|150:268|194:270,1,140
212,212,7312,1,0,0:0:0:0:
419,214,7812,2,0,B|415:175|406:124|337:99,1,140
323,151,8562,2,0,P|314:184|331:222,1,70
315,59,9312,5,0,0:0:0:0:
328,70,9437,1,0,0:0:0:0:
344,83,9562,2,0,L|379:107,1,35
391,236,9937,2,0,P|355:292|306:300,1,105
272,144,10562,2,0,P|238:125|206:134,1,70
67,288,11083,5,0,0:0:0:0:
84,297,11187,1,0,0:0:0:0:
103,306,11312,2,0,L|136:321,1,35
310,245,11812,5,0,0:0:0:0:
404,50,12062,1,0,0:0:0:0:
388,63,12187,1,0,0:0:0:0:
376,74,12312,2,0,L|346:105,1,35
263,124,12812,5,0,0:0:0:0:
252,117,12937,1,0,0:0:0:0:
239,108,13062,2,0,L|208:82,1,35
116,83,13687,5,0,0:0:0:0:
97,194,14062,2,0,L|127:217,3,35
167,320,14812,2,0,L|197:296,3,35
313,93,15812,6,0,P|362:105|384:197,1,140
332,220,16562,1,0,0:0:0:0:
283,159,16812,1,0,0:0:0:0:
399,241,17291,2,0,P|412:173|392:124,1,122.5
353,34,17958,2,0,B|310:51|289:62|255:80|222:123|184:186,1,227.5
120,83,19187,5,0,0:0:0:0:
129,90,19312,1,0,0:0:0:0:
195,162,19812,2,0,P|198:229|132:273,1,140
291,263,20562,1,0,0:0:0:0:
282,180,20812,1,0,0:0:0:0:
349,69,21187,5,0,0:0:0:0:
360,80,21312,1,0,0:0:0:0:
378,203,21562,1,0,0:0:0:0:
358,213,21687,1,0,0:0:0:0:
343,215,21812,2,0,B|297:220|256:208|233:175|235:135,2,140
106,274,23312,1,0,0:0:0:0:
122,199,23562,2,0,P|145:165|172:150,1,70
175,246,24062,6,0,P|183:262|199:286,2,35
257,175,24562,6,0,P|284:203|319:209,1,70
386,284,25062,2,0,P|398:278|417:262,2,35
392,74,25562,6,0,B|404:109|399:150|401:139,1,70
380,232,26062,2,0,P|373:245|359:262,2,35
254,228,26562,2,0,P|257:189|235:167,1,70
200,94,27062,2,0,L|170:114,2,35
93,152,27562,1,0,0:0:0:0:
106,246,27812,2,0,B|127:289|160:314|221:306,1,140
363,232,28562,2,0,P|389:199|376:169,1,70
283,65,29187,1,0,0:0:0:0:
301,68,29312,1,0,0:0:0:0:
185,38,29562,5,0,0:0:0:0:
170,50,29687,1,0,0:0:0:0:
157,59,29812,2,0,L|125:83,2,35
105,160,30312,2,0,L|139:230,2,70
172,288,31312,5,0,0:0:0:0:
252,205,31562,1,0,0:0:0:0:
355,299,31812,2,0,B|407:226|401:183|388:157,1,140
243,68,32812,2,0,P|286:113|279:188,1,140
192,239,33562,5,0,0:0:0:0:
179,230,33687,1,0,0:0:0:0:
170,218,33812,2,0,B|149:186|139:154|146:111|164:81,2,140
273,47,35312,2,0,L|313:55,2,35
383,194,35812,2,0,P|358:260|294:285,1,140
108,178,36812,6,0,B|96:135|99:106|112:78|146:48,1,140
319,78,37812,2,0,B|335:116|337:152|328:189|306:218,1,140
308,300,38812,2,0,L|152:298,1,140
35,213,39812,2,0,B|32:167|41:132|62:106|98:81,1,140
316,94,40812,2,0,P|362:109|421:186,1,140
268,248,41812,6,0,B|263:287|238:308|202:323|162:316,1,140
88,234,42812,2,0,B|101:191|117:162|145:142|173:130,1,140
346,266,43812,2,0,P|317:290|279:293,2,70
200,270,44562,1,0,0:0:0:0:
129,200,44812,2,0,P|108:173|108:134,2,70
174,49,45562,1,0,0:0:0:0:
294,38,45812,6,0,P|332:57|350:83,2,70
297,176,46562,1,0,0:0:0:0:
234,250,46812,2,0,L|241:290,3,35
342,325,47312,2,0,L|364:289,3,35
400,204,47812,5,0,0:0:0:0:
396,192,47937,1,0,0:0:0:0:
393,177,48062,1,0,0:0:0:0:
344,78,48312,2,0,L|315:57,2,35
194,61,48812,1,0,0:0:0:0:
182,65,48937,1,0,0:0:0:0:
171,69,49062,1,0,0:0:0:0:
87,180,49312,2,0,L|97:220,2,35
109,312,49812,6,0,L|184:333,2,70
214,227,50562,5,0,0:0:0:0:
371,295,50812,2,0,L|406:229,2,70
289,148,51562,1,0,0:0:0:0:
388,136,51812,2,0,B|364:93|349:72|286:37,1,140
148,65,52562,1,0,0:0:0:0:
75,152,52812,2,0,B|66:191|68:229|75:258|94:294,1,140
302,254,53562,1,0,0:0:0:0:
373,158,53812,2,0,B|380:122|371:86|349:52|321:37,1,140
286,117,54562,1,0,0:0:0:0:
226,48,54812,2,0,B|207:87|203:122|211:146|223:170|241:184,1,140
126,142,55812,5,0,0:0:0:0:
126,154,55937,1,0,0:0:0:0:
123,172,56062,2,0,L|119:209,2,35
302,290,56812,2,0,L|262:305,4,35
231,213,57812,1,0,0:0:0:0:
242,199,57937,1,0,0:0:0:0:
255,181,58062,2,0,L|279:153,2,35
328,50,58812,2,0,L|298:74,4,35
134,117,59812,6,0,B|129:154|139:185|162:223|191:242,1,140
122,307,60562,1,0,0:0:0:0:
210,329,60812,2,0,B|247:334|280:318|305:295|325:258,1,140
279,186,61562,1,0,0:0:0:0:
291,181,61687,1,0,0:0:0:0:
303,176,61812,2,0,B|335:161|369:158|414:159|448:167,1,140
311,72,62562,5,0,0:0:0:0:
215,79,62812,2,0,B|194:49|162:40|127:45|85:74,1,140
62,213,63562,1,0,0:0:0:0:
106,281,63812,2,0,P|128:316|160:333,1,70
236,239,64312,2,0,P|273:228|289:199,1,70
395,303,64812,2,0,P|353:301|331:278,1,70
397,188,65312,2,0,P|411:154|399:116,1,70
279,117,65812,1,0,0:0:0:0:
116,202,66062,1,0,0:0:0:0:
329,255,66312,5,0,0:0:0:0:
186,295,66562,1,0,0:0:0:0:
327,161,66812,1,0,0:0:0:0:
156,121,67062,1,0,0:0:0:0:
334,263,67312,1,0,0:0:0:0:
145,235,67562,1,0,0:0:0:0:
284,99,67812,5,0,0:0:0:0:
195,282,68062,1,0,0:0:0:0:
191,108,68312,5,0,0:0:0:0:
311,273,68562,1,0,0:0:0:0:
363,112,68812,5,0,0:0:0:0:
249,305,69062,1,0,0:0:0:0:
114,255,69562,2,0,P|95:287|94:290,2,35
179,169,70062,2,0,L|188:207,2,35
75,177,70562,2,0,L|113:208,2,35
227,308,71062,2,0,L|194:281,2,35
276,209,71562,2,0,L|347:217,1,70
413,218,72062,6,0,P|436:186|434:152,1,70
379,100,72562,2,0,P|364:65|336:61,1,70
254,110,73062,2,0,P|268:151|261:183,1,70
161,60,73562,5,0,0:0:0:0:
275,245,73812,1,0,0:0:0:0:
254,85,74062,1,0,0:0:0:0:
146,264,74312,1,0,0:0:0:0:
227,327,74562,2,0,P|275:334|303:315,1,70
377,275,75062,2,0,P|396:246|393:205,1,70
329,81,75562,6,0,L|321:117,2,35
296,260,76062,1,0,0:0:0:0:
161,82,76312,1,0,0:0:0:0:
114,234,76562,2,0,L|145:265,2,35
272,92,77062,1,0,0:0:0:0:
287,300,77312,1,0,0:0:0:0:
110,84,77562,2,0,L|120:120,2,35
147,255,78062,5,0,0:0:0:0:
259,65,78312,1,0,0:0:0:0:
290,270,78562,2,0,L|274:237,2,35
101,173,79062,1,0,0:0:0:0:
267,83,79312,1,0,0:0:0:0:
278,190,79562,2,0,L|234:193,2,35
168,301,80062,6,0,P|144:271|152:240,1,70
329,306,80562,2,0,P|332:271|321:233,1,70
137,172,81062,2,0,P|125:137|138:109,1,70
336,161,81562,2,0,P|344:125|340:83,1,70
314,283,82062,1,0,0:0:0:0:
148,88,82312,5,0,0:0:0:0:
167,284,82562,1,0,0:0:0:0:
316,93,82812,1,0,0:0:0:0:
237,291,83062,5,0,0:0:0:0:
234,89,83312,1,0,0:0:0:0:
305,304,83562,1,0,0:0:0:0:
327,88,83812,2,0,P|347:130|346:157,1,70
132,140,84312,2,0,P|111:174|125:215,1,70
310,88,84812,1,0,0:0:0:0:
203,259,85062,1,0,0:0:0:0:
231,93,85312,1,0,0:0:0:0:
320,271,85562,2,0,L|330:235,2,35
173,86,86062,5,0,0:0:0:0:
238,283,86312,1,0,0:0:0:0:
331,81,86562,2,0,L|323:131,2,35
308,274,87062,1,0,0:0:0:0:
216,94,87312,1,0,0:0:0:0:
151,297,87562,2,0,L|155:258,2,35
367,249,88062,5,0,0:0:0:0:
190,191,88312,1,0,0:0:0:0:
357,166,88562,2,0,L|336:126,2,35
126,120,89062,1,0,0:0:0:0:
344,248,89312,1,0,0:0:0:0:
136,217,89562,2,0,L|134:261,2,35
334,142,90062,1,0,0:0:0:0:
171,146,90312,1,0,0:0:0:0:
363,241,90562,2,0,L|401:222,2,35
173,99,91062,5,0,0:0:0:0:
262,243,91312,1,0,0:0:0:0:
262,46,91562,1,0,0:0:0:0:
318,125,91812,2,0,P|331:160|332:201,1,70
242,309,92312,2,0,P|202:303|179:281,1,70
124,201,92812,2,0,P|120:160|139:134,1,70
228,115,93312,6,0,L|231:189,1,70
236,265,93812,2,0,P|241:300|270:320,1,70
384,248,94312,2,0,P|389:209|389:175,1,70
217,334,94812,1,0,0:0:0:0:
113,214,95062,2,0,L|126:177,2,35
264,110,95562,1,0,0:0:0:0:
330,258,95812,1,0,0:0:0:0:
183,313,96062,2,0,L|144:295,2,35
106,185,96562,5,0,0:0:0:0:
264,86,96812,1,0,0:0:0:0:
318,256,97062,2,0,L|291:283,2,35
193,285,97562,1,0,0:0:0:0:
105,198,97812,2,0,P|83:163|98:125,1,70
248,118,98312,2,0,P|281:132|298:163,1,70
363,260,98812,1,0,0:0:0:0:
354,265,98937,1,0,0:0:0:0:
344,272,99062,2,0,L|310:291,2,35
138,127,99562,5,0,0:0:0:0:
256,192,99812,1,0,0:0:0:0:
256,192,100250,12,0,104000,0:0:0:0:
