osu file format v14

[General]
AudioFilename: audio.mp3
AudioLeadIn: 0
PreviewTime: -1
Countdown: 0
SampleSet: Soft
StackLeniency: 0.7
Mode: 0
LetterboxInBreaks: 0
WidescreenStoryboard: 1

[Editor]
DistanceSpacing: 1
BeatDivisor: 8
GridSize: 4
TimelineZoom: 1

[Metadata]
Title:Enjoy It! (TV Size)
TitleUnicode:Enjoy It! (TV Size)
Artist:QU4RTZ
ArtistUnicode:QU4RTZ
Creator:Sage72_
Version:7 digit stuff
Source:ラブライブ!虹ヶ咲学園スクールアイドル同好会
Tags:
BeatmapID:4556000
BeatmapSetID:2159990

[Difficulty]
HPDrainRate:3
CircleSize:3
OverallDifficulty:4
ApproachRate:5
SliderMultiplier:1.4
SliderTickRate:1

[Events]
//Background and Video events
0,0,"cover.jpg",0,0
Video,0,"video.mp4"
//Break Periods
//Storyboard Layer 0 (Background)
//Storyboard Layer 1 (Fail)
//Storyboard Layer 2 (Pass)
//Storyboard Layer 3 (Foreground)
//Storyboard Layer 4 (Overlay)
//Storyboard Sound Samples

[TimingPoints]
0,500,4,2,1,100,1,0

[HitObjects]
423,115,1812,6,0,B|383:89|357:72|328:69|282:77,1,140
185,100,2812,2,0,B|146:127|133:154|119:185|125:228,1,140
199,257,3812,2,0,B|206:305|226:329|261:332|297:329,1,140
343,318,4812,1,0,0:0:0:0:
401,228,5312,2,0,L|362:257,3,35
394,149,6312,2,0,B|384:101|363:81|331:62|281:68,1,140
206,67,7312,1,0,0:0:0:0:
147,90,7812,2,0,B|111:129|96:185|100:232,1,140
133,312,8812,1,0,0:0:0:0:
236,271,9312,6,0,L|237:227,3,35
245,139,10250,1,0,0:0:0:0:
333,60,10812,1,0,0:0:0:0:
411,155,11062,2,0,L|413:191,3,35
355,281,12062,2,0,L|322:300,3,35
200,285,12812,2,0,L|162:286,3,35
97,194,14062,2,0,L|112:150,3,35
173,80,14812,2,0,L|203:56,3,35
313,67,15812,6,0,P|362:79|384:171,1,140
320,274,16812,1,0,0:0:0:0:
210,289,17687,1,0,0:0:0:0:
137,314,17958,2,0,B|99:298|80:259|62:203|68:150|78:94,1,227.5
157,62,19312,1,0,0:0:0:0:
195,162,19812,2,0,P|198:229|132:273,1,140
221,312,20812,1,0,0:0:0:0:
281,271,21812,2,0,B|335:246|350:217|348:178|335:147,2,140
378,88,23812,2,0,B|348:60|316:44|285:43|246:49,1,140
185,77,24812,6,0,B|141:102|126:136|127:188|137:210,1,140
197,269,25812,2,0,B|242:289|276:295|309:296|344:292,2,140
415,194,27312,1,0,0:0:0:0:
321,105,27812,2,0,B|270:112|245:139|223:197,1,140
206,278,28812,2,0,B|232:305|273:322|302:324|345:326,1,140
332,255,29812,2,0,B|328:216|331:179|337:147|350:116,2,140
431,186,31312,5,0,0:0:0:0:
385,281,31812,2,0,B|342:315|284:316|242:301,1,140
147,281,32812,2,0,P|108:236|52:173,1,140
147,88,33812,2,0,B|155:79|182:58|232:48|292:71,2,140
347,84,35312,2,0,L|362:118,2,35
383,194,35812,2,0,P|358:260|314:314,1,140
218,319,36812,6,0,B|180:318|150:301|112:278|81:254,1,140
113,152,37812,2,0,P|161:95|229:86,2,140
323,111,39312,1,0,0:0:0:0:
408,198,39812,2,0,P|411:274|361:315,1,140
264,303,40812,2,0,P|175:294|125:293,1,140
94,213,41812,6,0,P|91:137|128:89,2,140
253,155,43312,1,0,0:0:0:0:
192,41,43812,2,0,P|145:46|125:68,2,70
100,167,44812,2,0,P|98:197|118:233,2,70
183,304,45812,6,0,P|215:324|256:322,2,70
282,253,46812,2,0,L|353:212,2,70
371,127,47812,2,0,L|301:104,2,70
181,58,48812,2,0,L|121:113,2,70
91,177,49812,6,0,L|116:249,2,70
147,342,50812,2,0,L|223:340,2,70
273,277,51812,2,0,B|251:248|239:180|260:132,1,140
354,32,52812,2,0,B|386:58|406:89|420:132|423:161,1,140
425,264,53812,2,0,B|398:283|366:303|311:305|281:307,1,140
165,312,54812,2,0,B|133:310|95:295|78:252|72:232|73:208,1,140
112,124,55812,6,0,L|151:94,4,35
276,87,56812,2,0,L|312:94,4,35
381,219,57812,2,0,L|394:262,4,35
295,289,58812,2,0,L|265:313,4,35
148,299,59812,6,0,P|77:235|73:188,1,140
113,128,60812,2,0,B|126:86|151:59|192:43|228:57,1,140
320,50,61812,2,0,B|371:51|411:55|440:78|463:100,1,140
472,216,62812,2,0,B|452:241|424:256|396:279|352:289,1,140
214,299,63812,2,0,P|199:287|163:252,2,70
120,152,64812,2,0,P|123:124|137:82,2,70
203,70,65812,2,0,L|280:68,2,70
244,186,66812,2,0,L|238:260,2,70
327,330,67812,6,0,P|403:314|431:257,1,140
379,174,68812,2,0,P|342:111|268:88,1,140
141,72,69812,2,0,P|64:89|42:149,1,140
93,184,70812,2,0,P|92:261|126:318,1,140
210,302,71812,2,0,L|279:301,2,70
340,253,72812,2,0,L|391:202,2,70
363,139,73812,2,0,P|330:75|271:43,1,140
134,115,74812,2,0,P|88:172|88:245,1,140
98,288,75812,6,0,L|165:324,2,70
261,307,76812,2,0,L|333:298,2,70
401,250,77812,2,0,L|431:186,2,70
373,130,78812,2,0,L|321:83,2,70
157,65,79812,2,0,P|94:98|68:167,1,140
101,187,80812,2,0,L|121:254,2,70
157,293,81812,2,0,P|226:322|294:309,1,140
370,276,82812,6,0,L|377:193,2,70
377,113,83812,2,0,P|327:55|255:47,1,140
156,52,84812,2,0,P|151:127|195:173,1,140
223,270,85812,2,0,L|154:301,2,70
270,339,86812,2,0,L|354:344,2,70
375,270,87812,2,0,P|449:240|490:188,1,140
443,92,88812,2,0,L|382:55,2,70
277,57,89812,2,0,L|208:83,2,70
103,129,90812,2,0,P|84:211|105:268,1,140
173,293,91812,2,0,P|241:318|318:320,1,140
381,240,92812,6,0,L|416:170,2,70
348,94,93812,2,0,P|301:43|231:45,1,140
156,64,94812,2,0,L|112:121,2,70
98,196,95812,2,0,P|106:266|173:306,1,140
230,313,96812,2,0,L|305:314,2,70
346,284,97812,2,0,P|410:249|427:185,1,140
376,105,98812,2,0,L|298:83,2,70
256,192,99812,1,0,0:0:0:0:
256,192,100250,12,0,104000,0:0:0:0:
