osu file format v14

[General]
AudioFilename: audio.mp3
AudioLeadIn: 0
PreviewTime: 24595
Countdown: 0
SampleSet: Soft
StackLeniency: 0.2
Mode: 0
LetterboxInBreaks: 0
WidescreenStoryboard: 1

[Editor]
Bookmarks: 38441,47095,74788,88634,101614
DistanceSpacing: 1
BeatDivisor: 1
GridSize: 16
TimelineZoom: 0.5999999

[Metadata]
Title:Canal Grande
TitleUnicode:Canal Grande
Artist:Q-Mex
ArtistUnicode:Q-Mex
Creator:Saturnalize
Version:Normal
Source:pop'n music 15 ADVENTURE
Tags:VENEZIANI 久米由基 Yuki Kume Around the World
BeatmapID:1958634
BeatmapSetID:918972

[Difficulty]
HPDrainRate:4
CircleSize:3.2
OverallDifficulty:4
ApproachRate:5
SliderMultiplier:0.899999999999999
SliderTickRate:1

[Events]
//Background and Video events
0,0,"karlsimon-concept-art-and-illustration-karlsimon-ballroom-summer-party-01-l.jpg",0,0
//Break Periods
//Storyboard Layer 0 (Background)
//Storyboard Layer 1 (Fail)
//Storyboard Layer 2 (Pass)
//Storyboard Layer 3 (Foreground)
//Storyboard Sound Samples

[TimingPoints]
375,288.461538461538,3,2,2,100,1,0

[Colours]
Combo1 : 99,245,132
Combo2 : 128,128,255
Combo3 : 255,128,233
Combo4 : 255,210,128

[HitObjects]
30,103,375,5,2,0:0:0:0:
119,87,663,2,0,L|115:198,1,89.9999999999999,2|0,0:0|0:0,0:0:0:0:
119,267,1240,1,2,0:0:0:0:
208,283,1528,2,0,L|204:172,1,89.9999999999999,2|0,0:0|0:0,0:0:0:0:
204,102,2105,5,2,0:0:0:0:
293,86,2393,2,0,L|289:197,1,89.9999999999999,2|0,0:0|0:0,0:0:0:0:
293,266,2970,1,2,0:0:0:0:
382,282,3258,2,0,L|378:171,1,89.9999999999999,2|0,0:0|0:0,0:0:0:0:
411,107,3836,6,0,P|452:89|496:90,2,89.9999999999999,0|2|0,0:0|0:0|0:0,0:0:0:0:
322,124,4701,2,0,P|277:124|236:107,2,89.9999999999999,0|2|0,0:0|0:0|0:0,0:0:0:0:
363,45,5567,6,0,B|305:203|417:137|369:304,1,270,4|2,0:0|0:0,0:0:0:0:
101,339,7298,6,0,P|51:292|90:188,1,180,2|0,0:0|0:0,0:0:0:0:
168,185,8163,1,2,0:0:0:0:
222,256,8451,1,2,0:0:0:0:
278,326,8740,1,0,0:0:0:0:
361,292,9028,2,0,P|403:290|451:317,2,89.9999999999999,2|0|2,0:0|0:0|0:0,0:0:0:0:
355,199,9894,2,0,B|351:86|412:147|408:34,1,180,2|2,0:0|0:0,0:0:0:0:
322,4,10759,6,0,P|257:7|207:103,1,180,2|0,0:0|0:0,0:0:0:0:
281,149,11624,1,2,0:0:0:0:
226,220,11913,1,2,0:0:0:0:
298,273,12201,1,0,0:0:0:0:
226,327,12490,2,0,L|126:325,2,89.9999999999999,2|2|0,0:0|0:0|0:0,0:0:0:0:
309,360,13355,1,0,0:0:0:0:
386,313,13644,2,0,L|475:314,1,89.9999999999999,2|0,0:0|0:0,0:0:0:0:
507,230,14221,6,0,P|496:143|415:111,1,180,2|0,0:0|0:0,0:0:0:0:
329,123,15086,2,0,P|326:67|351:23,2,89.9999999999999,2|0|0,0:0|0:0|0:0,0:0:0:0:
367,204,15951,1,2,0:0:0:0:
277,193,16240,1,0,0:0:0:0:
188,179,16528,1,2,0:0:0:0:
98,166,16817,2,0,P|51:212|53:278,1,135,2|0,0:0|0:0,0:0:0:0:
176,332,17682,6,0,P|216:313|274:324,1,89.9999999999999,0|2,0:0|0:0,0:0:0:0:
335,367,18259,1,0,0:0:0:0:
385,285,18548,2,0,B|368:183|465:240|451:133,1,180,2|2,0:0|0:0,0:0:0:0:
442,44,19413,1,0,0:0:0:0:
352,46,19701,2,0,L|207:51,1,135
179,24,20278,2,0,P|209:97|121:185,1,180,2|0,0:0|0:0,0:0:0:0:
67,170,21144,6,0,L|80:272,1,89.9999999999999
92,348,21721,1,0,0:0:0:0:
165,297,22009,2,0,L|257:288,1,89.9999999999999
344,280,22586,1,0,0:0:0:0:
296,203,22874,2,0,L|283:101,1,89.9999999999999
271,25,23451,1,0,0:0:0:0:
197,76,23740,1,0,0:0:0:0:
126,131,24028,1,6,0:0:0:0:
158,308,24605,6,0,P|206:340|330:303,1,180,2|0,0:0|0:0,0:0:0:0:
403,346,25471,1,2,0:0:0:0:
388,257,25759,1,2,0:0:0:0:
373,168,26048,1,0,0:0:0:0:
359,79,26336,2,0,P|400:67|452:79,2,89.9999999999999,2|0|2,0:0|0:0|0:0,0:0:0:0:
282,127,27201,2,0,B|184:143|213:78|109:96,1,180,2|2,0:0|0:0,0:0:0:0:
50,164,28067,6,0,P|120:209|91:308,1,180,2|0,0:0|0:0,0:0:0:0:
24,331,28932,1,2,0:0:0:0:
101,376,29221,1,2,0:0:0:0:
183,340,29509,1,0,0:0:0:0:
261,296,29798,2,0,L|312:377,2,89.9999999999999,2|2|0,0:0|0:0|0:0,0:0:0:0:
207,223,30663,1,0,0:0:0:0:
162,144,30951,2,0,L|181:47,1,89.9999999999999,2|0,0:0|0:0,0:0:0:0:
261,18,31528,6,0,P|339:17|406:122,1,180,2|0,0:0|0:0,0:0:0:0:
382,177,32394,2,0,P|434:174|484:205,2,89.9999999999999,2|2|0,0:0|0:0|0:0,0:0:0:0:
356,263,33259,1,2,0:0:0:0:
326,348,33548,1,0,0:0:0:0:
241,317,33836,1,2,0:0:0:0:
157,283,34124,2,0,P|102:276|36:324,1,135,2|0,0:0|0:0,0:0:0:0:
76,188,34990,6,0,P|76:141|53:99,2,89.9999999999999,0|2|0,0:0|0:0|0:0,0:0:0:0:
163,165,35855,2,0,P|179:120|171:73,2,89.9999999999999,2|0|2,0:0|0:0|0:0,0:0:0:0:
242,207,36721,2,0,P|228:250|236:300,1,89.9999999999999,2|0,0:0|0:0,0:0:0:0:
307,344,37298,2,0,P|351:334|390:302,1,89.9999999999999,2|0,0:0|0:0,0:0:0:0:
393,219,37874,2,0,P|362:185|315:167,1,89.9999999999999,2|0,0:0|0:0,0:0:0:0:
247,118,38451,5,2,0:0:0:0:
96,216,39028,1,0,0:0:0:0:
68,301,39317,2,0,L|157:312,1,89.9999999999999
246,322,39894,1,0,0:0:0:0:
218,237,40183,2,0,L|307:226,1,89.9999999999999
396,214,40759,1,0,0:0:0:0:
368,299,41048,2,0,L|457:310,2,89.9999999999999
307,225,41913,6,0,P|328:148|430:131,1,180,2|0,0:0|0:0,0:0:0:0:
404,36,42778,2,0,P|448:37|503:11,2,89.9999999999999,2|2|0,0:0|0:0|0:0,0:0:0:0:
313,27,43644,1,0,0:0:0:0:
224,10,43932,1,2,0:0:0:0:
136,30,44221,1,2,0:0:0:0:
76,97,44509,1,2,0:0:0:0:
163,116,44798,2,0,L|256:130,1,89.9999999999999,2|0,0:0|0:0,0:0:0:0:
339,148,45374,5,0,0:0:0:0:
426,169,45663,1,2,0:0:0:0:
364,234,45951,1,2,0:0:0:0:
451,255,46240,1,6,0:0:0:0:
299,351,46817,5,0,0:0:0:0:
245,278,47105,1,2,0:0:0:0:
159,248,47394,2,0,P|107:255|42:317,1,135,2|0,0:0|0:0,0:0:0:0:
38,352,47971,2,0,P|88:367|160:354,1,89.9999999999999,2|0,0:0|0:0,0:0:0:0:
203,320,48548,1,0,0:0:0:0:
273,375,48836,1,2,0:0:0:0:
310,293,49124,2,0,P|342:272|434:292,1,135,2|0,0:0|0:0,0:0:0:0:
465,320,49701,2,0,B|428:210|491:247|461:143,1,180,0|2,0:0|0:0,0:0:0:0:
414,67,50567,6,0,P|356:47|286:68,1,135,2|0,0:0|0:0,0:0:0:0:
228,135,51288,1,0,0:0:0:0:
199,169,51432,2,0,P|135:184|51:104,1,180
135,76,52298,6,0,P|154:153|48:304,1,270,2|0,0:0|0:0,0:0:0:0:
224,356,53740,5,0,0:0:0:0:
240,267,54028,1,2,0:0:0:0:
301,202,54317,2,0,P|367:187|432:203,1,135,2|0,0:0|0:0,0:0:0:0:
473,222,54894,2,0,P|468:283|441:333,1,89.9999999999999,2|0,0:0|0:0,0:0:0:0:
385,364,55471,1,0,0:0:0:0:
303,326,55759,1,2,0:0:0:0:
224,356,56048,2,0,L|81:344,1,135,2|0,0:0|0:0,0:0:0:0:
46,357,56624,2,0,B|26:265|105:287|84:181,1,180
51,105,57490,6,0,L|196:114,1,135,2|2,0:0|0:0,0:0:0:0:
266,72,58211,1,2,0:0:0:0:
280,114,58355,2,0,L|464:102,1,180,2|0,0:0|0:0,0:0:0:0:
503,179,59221,2,0,P|424:272|331:193,1,270,2|0,0:0|0:0,0:0:0:0:
190,29,60951,6,0,P|108:32|80:198,1,270
162,186,62105,2,0,P|175:228|172:273,1,89.9999999999999
145,359,62682,2,0,B|277:386|255:301|409:339,1,270
420,122,64413,6,0,P|423:57|446:22,2,89.9999999999999
350,179,65278,2,0,P|320:121|322:79,2,89.9999999999999
315,262,66143,6,0,P|318:327|341:362,2,89.9999999999999
245,205,67009,2,0,P|215:262|217:304,2,89.9999999999999
169,155,67874,5,0,0:0:0:0:
188,65,68163,2,0,B|271:48|266:129|355:109,1,180
431,61,69028,1,0,0:0:0:0:
429,151,69317,1,0,0:0:0:0:
426,240,69605,5,4,0:0:0:0:
339,213,69894,2,0,P|277:211|219:295,1,135,2|0,0:0|0:0,0:0:0:0:
222,303,70471,1,2,0:0:0:0:
136,274,70759,1,0,0:0:0:0:
47,293,71048,1,2,0:0:0:0:
70,206,71336,6,0,L|50:111,1,89.9999999999999,2|2,0:0|0:0,0:0:0:0:
104,45,71913,1,0,0:0:0:0:
185,82,72201,2,0,L|166:170,1,89.9999999999999,2|2,0:0|0:0,0:0:0:0:
219,243,72778,1,0,0:0:0:0:
271,169,73067,6,0,B|430:137|346:270|514:235,1,270,6|2,0:0|0:0,0:0:0:0:
276,363,74798,6,0,P|264:308|130:266,1,180,2|0,0:0|0:0,0:0:0:0:
77,290,75663,1,2,0:0:0:0:
92,201,75951,1,2,0:0:0:0:
107,112,76240,1,0,0:0:0:0:
120,23,76528,2,0,P|88:13|27:42,2,89.9999999999999,2|0|2,0:0|0:0|0:0,0:0:0:0:
196,70,77394,2,0,B|297:81|255:20|366:34,1,180,2|2,0:0|0:0,0:0:0:0:
452,62,78259,6,0,P|487:118|415:211,1,180,2|0,0:0|0:0,0:0:0:0:
355,251,79124,1,2,0:0:0:0:
267,228,79413,1,2,0:0:0:0:
181,201,79701,1,0,0:0:0:0:
94,176,79990,2,0,L|65:85,2,89.9999999999999,2|2|0,0:0|0:0|0:0,0:0:0:0:
124,260,80855,1,0,0:0:0:0:
155,344,81144,2,0,L|251:339,1,89.9999999999999,2|0,0:0|0:0,0:0:0:0:
334,336,81721,6,0,P|334:250|409:207,1,180,2|0,0:0|0:0,0:0:0:0:
498,218,82586,2,0,P|506:271|493:317,2,89.9999999999999,2|2|0,0:0|0:0|0:0,0:0:0:0:
474,130,83451,1,2,0:0:0:0:
384,119,83740,1,0,0:0:0:0:
294,107,84028,1,2,0:0:0:0:
204,95,84317,2,0,L|56:138,1,135,2|2,0:0|0:0,0:0:0:0:
26,259,85182,6,0,P|23:303|32:347,2,89.9999999999999,0|2|0,0:0|0:0|0:0,0:0:0:0:
114,280,86048,2,0,P|133:320|162:354,2,89.9999999999999,2|0|2,0:0|0:0|0:0,0:0:0:0:
201,260,86913,2,0,P|237:285|280:299,2,89.9999999999999,2|0|2,0:0|0:0|0:0,0:0:0:0:
255,188,87778,1,2,0:0:0:0:
314,120,88067,1,2,0:0:0:0:
402,102,88355,1,0,0:0:0:0:
481,142,88644,6,0,P|496:231|485:320,1,180
418,380,89509,1,0,0:0:0:0:
329,361,89798,1,0,0:0:0:0:
240,343,90086,1,0,0:0:0:0:
152,321,90374,2,0,L|47:336,2,89.9999999999999
148,230,91240,2,0,L|43:215,2,89.9999999999999
137,140,92105,5,0,0:0:0:0:
195,71,92394,1,0,0:0:0:0:
282,48,92682,1,0,0:0:0:0:
371,60,92971,1,0,0:0:0:0:
443,113,93259,2,0,P|455:155|448:199,1,89.9999999999999,0|2,0:0|0:0,0:0:0:0:
509,265,93836,2,0,B|356:214|409:344|256:302,1,270
93,87,95567,6,0,P|54:85|5:113,2,89.9999999999999
180,63,96432,2,0,P|162:28|113:0,2,89.9999999999999
270,67,97298,5,2,0:0:0:0:
359,77,97586,2,0,L|458:88,1,89.9999999999999,2|0,0:0|0:0,0:0:0:0:
499,161,98163,1,2,0:0:0:0:
410,171,98451,2,0,L|320:180,1,89.9999999999999,2|0,0:0|0:0,0:0:0:0:
231,196,99028,5,2,0:0:0:0:
200,280,99317,1,2,0:0:0:0:
258,349,99605,1,0,0:0:0:0:
347,334,99894,1,2,0:0:0:0:
378,249,100182,1,2,0:0:0:0:
320,180,100471,1,0,0:0:0:0:
231,195,100759,6,0,P|154:121|260:116,1,270,6|2,0:0|0:0,0:0:0:0:
