osu file format v14

[General]
AudioFilename: audio.mp3
AudioLeadIn: 0
PreviewTime: 58898
Countdown: 0
SampleSet: Soft
StackLeniency: 0.7
Mode: 2
LetterboxInBreaks: 0
WidescreenStoryboard: 1

[Editor]
Bookmarks: 86571
DistanceSpacing: 1.4
BeatDivisor: 4
GridSize: 8
TimelineZoom: 2.1

[Metadata]
Title:Kaze Tsuyoku, Kimi Atsuku. (TV Size)
TitleUnicode:風強く、君熱く。(TV Size)
Artist:Q-MHz feat. Mitsuhiro Hidaka a.k.a SKY-HI
ArtistUnicode:Q-MHz feat. 日高光啓 a.k.a. SKY-HI
Creator:Dako
Version:Nelly's Overdose
Source:風が強く吹いている
Tags:run with the wind opening anime op toy's factory j-rock j rock chatie jbh jbhyperion nelly greaper japanese 吹いている kaze ga tsuyoku futeiru fuite iru bastian jorkseljund
BeatmapID:2258183
BeatmapSetID:1069433

[Difficulty]
HPDrainRate:7
CircleSize:4.2
OverallDifficulty:9.4
ApproachRate:9.4
SliderMultiplier:1.8
SliderTickRate:2

[Events]
//Background and Video events
0,0,"blowit.jpg",0,0
//Break Periods
//Storyboard Layer 0 (Background)
//Storyboard Layer 1 (Fail)
//Storyboard Layer 2 (Pass)
//Storyboard Layer 3 (Foreground)
//Storyboard Layer 4 (Overlay)
//Storyboard Sound Samples

[TimingPoints]
754,309.278350515464,4,2,1,60,1,0
2609,-100,4,2,1,5,0,0
2764,-100,4,2,1,60,0,0
3228,-100,4,2,1,60,0,0
6939,-100,4,2,1,60,0,1
13743,-100,4,2,1,60,0,0
14362,-100,4,2,1,60,0,0
24259,-100,4,2,1,60,0,0
34156,-100,4,2,1,60,0,0
44052,-100,4,2,1,60,0,0
57506,-83.3333333333333,4,2,1,60,0,0
58434,-100,4,2,1,60,0,0
58898,-100,4,2,1,60,0,1
68795,-100,4,2,1,60,0,1
78692,-100,4,2,1,60,0,0
82403,-100,4,2,1,60,0,0

[Colours]
Combo1 : 234,236,130
Combo2 : 186,210,218
Combo3 : 154,166,248

[HitObjects]
256,192,792,12,0,2609,0:0:0:0:
152,269,2764,5,8,0:0:0:0:
294,257,2918,2,0,L|299:209,1,45,8|8,0:3|0:3,0:0:0:0:
216,193,3073,2,0,L|221:145,1,45,8|8,0:3|0:3,0:0:0:0:
425,99,3228,1,6,0:0:0:0:
145,298,4465,5,10,0:0:0:0:
358,292,4929,1,10,0:0:0:0:
75,159,5702,5,10,0:0:0:0:
305,131,5857,1,10,0:3:0:0:
179,122,6011,1,10,0:0:0:0:
398,63,6166,1,10,0:0:0:0:
152,326,6630,6,0,L|17:320,1,135,2|0,0:0|0:0,0:0:0:0:
252,240,6939,6,0,L|343:238,1,90,4|0,0:0|0:0,0:0:0:0:
197,140,7248,2,0,L|106:138,1,90,8|8,0:0|0:3,0:0:0:0:
391,152,7558,2,0,L|398:62,1,90,8|8,0:0|0:3,0:0:0:0:
254,45,7867,1,10,0:0:0:0:
33,295,8022,6,0,L|126:289,1,90,10|8,0:3|0:0,0:0:0:0:
248,199,8331,1,2,0:0:0:0:
122,188,8485,1,8,0:0:0:0:
344,113,8640,2,0,L|435:110,1,90,8|8,0:3|0:0,0:0:0:0:
193,303,8949,2,0,L|282:305,2,90,8|8|8,0:3|0:0|0:3,0:0:0:0:
451,293,9413,6,0,L|456:203,1,90,10|0,0:0|0:0,0:0:0:0:
310,193,9723,1,8,0:0:0:0:
455,179,9877,1,10,0:3:0:0:
190,159,10032,2,0,L|195:69,1,90,8|10,0:0|0:3,0:0:0:0:
338,55,10341,1,8,0:0:0:0:
51,323,10496,6,0,L|46:233,1,90,10|8,0:3|0:0,0:0:0:0:
190,223,10805,1,2,0:0:0:0:
47,209,10960,1,8,0:0:0:0:
275,160,11114,2,0,L|365:156,1,90,10|8,0:3|0:0,0:0:0:0:
219,69,11424,1,10,0:3:0:0:
469,321,11578,2,0,L|474:231,1,90,8|8,0:0|0:3,0:0:0:0:
216,183,11888,6,0,L|124:181,1,90,14|8,0:0|0:3,0:0:0:0:
270,277,12197,1,8,0:3:0:0:
126,277,12351,1,8,0:3:0:0:
417,342,12506,6,0,L|423:293,1,45,10|0,0:3|0:0,0:0:0:0:
349,282,12661,2,0,L|355:233,1,45,8|0,0:3|0:0,0:0:0:0:
429,203,12815,1,8,0:3:0:0:
106,218,12970,6,0,P|102:183|200:92,1,180,6|8,0:0|0:3,0:0:0:0:
260,92,13357,1,8,0:3:0:0:
106,319,13434,2,0,L|116:271,1,45,8|8,0:0|0:3,0:0:0:0:
187,274,13589,2,0,L|197:226,1,45,8|8,0:3|0:3,0:0:0:0:
22,167,13743,5,10,0:0:0:0:
349,284,14207,1,2,0:0:0:0:
98,255,14362,6,0,L|92:165,1,90,6|2,0:0|0:0,0:0:0:0:
228,165,14671,2,0,L|234:75,1,90,10|2,0:3|0:0,0:0:0:0:
172,66,14903,1,0,0:0:0:0:
113,56,14980,2,0,L|205:50,1,90,10|2,0:3|0:0,0:0:0:0:
329,149,15290,2,0,L|237:143,1,90,10|2,0:3|0:0,0:0:0:0:
365,149,15599,5,10,0:3:0:0:
491,183,15754,2,0,L|503:138,2,45,2|0|10,0:0|0:0|0:3,0:0:0:0:
355,244,16063,2,0,L|266:239,1,90,2|10,0:0|0:3,0:0:0:0:
398,148,16372,2,0,L|309:143,1,90,2|8,0:0|0:3,0:0:0:0:
172,136,16681,1,8,0:0:0:0:
435,317,16836,6,0,L|440:228,1,90,2|0,0:0|0:0,0:0:0:0:
314,211,17145,2,0,L|220:207,1,90,2|2,0:0|0:2,0:0:0:0:
169,202,17377,1,0,0:0:0:0:
123,295,17455,2,0,L|217:291,1,90,10|2,0:3|0:2,0:0:0:0:
337,211,17764,2,0,L|243:207,1,90,10|2,0:3|0:0,0:0:0:0:
111,108,18073,6,0,L|205:104,2,90,10|0|10,0:3|0:0|0:3,0:0:0:0:
246,188,18537,2,0,L|253:277,1,90,2|8,0:0|0:3,0:0:0:0:
118,290,18846,1,2,0:0:0:0:
408,344,19001,2,0,L|415:255,1,90,8|8,0:0|0:3,0:0:0:0:
351,246,19233,1,8,0:3:0:0:
124,194,19310,6,0,L|213:190,2,90,6|8|8,0:0|0:3|0:0,0:0:0:0:
347,93,19774,2,0,L|164:89,1,180,6|10,0:0|0:3,0:0:0:0:
311,188,20238,1,8,0:0:0:0:
20,324,20393,6,0,P|15:283|111:201,1,180,6|10,0:0|0:3,0:0:0:0:
254,200,20857,1,8,0:3:0:0:
482,82,21011,2,0,L|299:78,1,180,6|8,0:0|0:3,0:0:0:0:
450,186,21475,2,0,L|456:277,1,90,8|2,0:0|0:0,0:0:0:0:
190,319,21784,5,6,0:0:0:0:
112,277,21939,1,10,0:3:0:0:
82,194,22094,1,10,0:0:0:0:
114,113,22248,1,2,0:0:0:0:
150,86,22326,1,0,0:0:0:0:
193,73,22403,1,10,0:3:0:0:
337,73,22558,1,10,0:3:0:0:
193,73,22712,1,10,0:0:0:0:
450,243,22867,1,6,0:0:0:0:
190,320,23640,5,10,0:3:0:0:
334,247,23795,2,0,L|287:244,1,45,8|8,0:3|0:3,0:0:0:0:
79,192,23949,2,0,L|168:187,1,90,10|2,0:0|0:0,0:0:0:0:
403,82,24259,6,0,L|223:78,1,180,6|10,0:0|0:0,0:0:0:0:
367,176,24723,1,0,0:0:0:0:
120,286,24877,2,0,L|112:193,1,90,10|8,0:3|0:3,0:0:0:0:
256,182,25186,1,10,0:0:0:0:
110,176,25341,1,2,0:0:0:0:
345,328,25496,5,10,0:3:0:0:
454,310,25650,2,0,L|457:221,1,90,8|10,0:3|0:0,0:0:0:0:
201,115,25960,2,0,L|383:112,1,180,10|10,0:3|0:3,0:0:0:0:
166,289,26424,1,8,0:0:0:0:
289,274,26578,2,0,L|292:228,1,45,2|0,0:0|0:0,0:0:0:0:
73,207,26733,6,0,P|45:169|108:65,1,180,10|10,0:3|0:0,0:0:0:0:
245,59,27197,1,2,0:0:0:0:
489,189,27351,2,0,L|398:187,1,90,10|8,0:3|0:3,0:0:0:0:
253,280,27661,1,10,0:0:0:0:
399,284,27815,1,2,0:0:0:0:
178,241,27970,6,0,L|173:152,1,90,10|8,0:3|0:3,0:0:0:0:
316,135,28279,1,10,0:0:0:0:
85,48,28434,2,0,L|266:44,1,180,10|10,0:3|0:3,0:0:0:0:
44,286,28898,2,0,L|38:197,1,90,8|2,0:0|0:0,0:0:0:0:
328,215,29207,6,0,L|147:211,1,180,6|10,0:0|0:0,0:0:0:0:
292,310,29671,2,0,L|384:306,2,90,2|8|10,0:0|0:3|0:3,0:0:0:0:
147,314,30135,1,8,0:0:0:0:
407,345,30290,6,0,P|462:318|440:217,1,180,6|0,0:0|0:3,0:0:0:0:
204,195,30754,2,0,L|115:200,1,90,8|0,0:0|0:0,0:0:0:0:
258,360,31063,2,0,P|295:322|259:260,1,135,10|0,0:3|0:0,0:0:0:0:
22,93,31372,2,0,L|111:98,1,90,10|2,0:0|0:0,0:0:0:0:
255,107,31681,6,0,L|264:201,1,90,10|8,0:3|0:3,0:0:0:0:
114,196,31991,2,0,L|105:290,1,90,8|10,0:0|0:3,0:0:0:0:
374,336,32300,2,0,L|328:332,1,45,10|0,0:0|0:0,0:0:0:0:
144,277,32455,2,0,L|190:273,1,45,10|10,0:3|0:3,0:0:0:0:
359,257,32609,2,0,L|313:253,1,45,10|0,0:0|0:0,0:0:0:0:
165,190,32764,2,0,L|211:186,1,45,10|10,0:3|0:3,0:0:0:0:
443,170,32918,5,10,0:0:0:0:
346,160,33073,1,8,0:3:0:0:
335,81,33228,1,8,0:3:0:0:
376,14,33382,1,10,0:3:0:0:
235,19,33537,2,0,L|226:66,1,45,10|8,0:3|0:3,0:0:0:0:
299,85,33692,2,0,L|290:132,1,45,10|8,0:3|0:3,0:0:0:0:
84,282,33846,2,0,P|47:244|83:182,1,135,10|0,0:0|0:0,0:0:0:0:
289,166,34156,6,0,L|471:173,1,180,6|2,0:0|0:0,0:0:0:0:
473,264,34619,1,8,0:3:0:0:
256,307,34774,1,10,0:0:0:0:
381,324,34929,2,0,L|472:332,1,90,10|2,0:0|0:0,0:0:0:0:
239,108,35238,6,0,L|149:112,2,90,10|2|10,0:3|0:0|0:3,0:0:0:0:
382,94,35702,2,0,L|472:98,2,90,2|10|8,0:0|0:3|0:0,0:0:0:0:
159,242,36166,1,10,0:3:0:0:
303,237,36321,1,2,0:0:0:0:
46,331,36475,6,0,P|22:284|88:182,1,180,6|10,0:0|0:0,0:0:0:0:
314,178,36939,2,0,L|404:185,1,90,2|10,0:0|0:3,0:0:0:0:
259,258,37248,1,10,0:0:0:0:
471,355,37403,2,0,L|478:265,1,90,10|10,0:0|0:3,0:0:0:0:
197,153,37712,6,0,L|286:150,1,90,10|0,0:0|0:0,0:0:0:0:
432,67,38022,2,0,L|343:64,1,90,10|0,0:0|0:0,0:0:0:0:
36,145,38331,2,0,P|36:181|109:238,1,135,14|0,0:0|0:0,0:0:0:0:
162,237,38640,2,0,L|210:234,1,45,8|8,0:3|0:3,0:0:0:0:
279,227,38795,2,0,L|284:180,1,45,10|8,0:3|0:3,0:0:0:0:
212,148,38949,2,0,L|207:101,1,45,10|8,0:3|0:3,0:0:0:0:
413,47,39104,6,0,P|458:67|415:167,1,180,6|2,0:0|0:0,0:0:0:0:
295,174,39568,1,8,0:3:0:0:
150,178,39723,1,10,0:0:0:0:
364,300,39877,2,0,L|457:305,1,90,10|2,0:0|0:0,0:0:0:0:
206,353,40186,6,0,P|154:289|214:233,1,180,10|10,0:3|0:0,0:0:0:0:
486,190,40650,2,0,L|394:186,1,90,0|10,0:0|0:3,0:0:0:0:
165,116,40960,2,0,L|257:112,2,90,10|10|2,0:0|0:0|0:0,0:0:0:0:
450,334,41424,6,0,P|469:284|402:189,1,180,6|10,0:0|0:0,0:0:0:0:
177,177,41888,2,0,L|88:175,1,90,0|10,0:0|0:3,0:0:0:0:
329,181,42197,2,0,L|338:92,1,90,8|10,0:0|0:0,0:0:0:0:
194,74,42506,1,2,0:0:0:0:
480,306,42661,6,0,L|391:302,1,90,10|0,0:0|0:0,0:0:0:0:
136,251,42970,2,0,L|225:247,1,90,10|0,0:0|0:0,0:0:0:0:
479,213,43279,2,0,P|499:169|464:94,1,135,14|0,0:0|0:0,0:0:0:0:
279,78,43589,2,0,L|233:76,1,45,10|8,0:3|0:3,0:0:0:0:
416,219,43743,2,0,L|460:217,1,45,10|0,0:0|0:0,0:0:0:0:
254,161,43898,2,0,L|209:159,1,45,8|8,0:3|0:3,0:0:0:0:
437,346,44052,6,0,P|474:298|422:200,1,180,6|10,0:0|0:0,0:0:0:0:
300,193,44516,1,0,0:0:0:0:
75,187,44671,2,0,L|174:179,1,90,10|8,0:3|0:3,0:0:0:0:
309,309,44980,2,0,L|210:301,1,90,10|0,0:0|0:0,0:0:0:0:
474,218,45290,6,0,L|479:128,1,90,10|0,0:3|0:0,0:0:0:0:
343,112,45599,2,0,L|433:109,1,90,10|0,0:0|0:0,0:0:0:0:
288,207,45908,2,0,L|198:204,1,90,10|8,0:3|0:3,0:0:0:0:
343,112,46217,2,0,L|433:109,1,90,10|0,0:0|0:0,0:0:0:0:
154,65,46527,6,0,P|113:83|154:181,1,180,10|10,0:3|0:0,0:0:0:0:
280,180,46991,1,0,0:0:0:0:
503,170,47145,2,0,L|411:166,2,90,10|8|8,0:3|0:3|0:0,0:0:0:0:
192,313,47609,5,2,0:0:0:0:
327,306,47764,2,0,L|332:216,1,90,6|10,0:0|0:3,0:0:0:0:
68,152,48073,2,0,L|158:147,2,90,8|8|10,0:0|0:3|0:0,0:0:0:0:
308,196,48537,2,0,L|313:147,1,45,8|8,0:3|0:3,0:0:0:0:
91,70,48692,1,10,0:0:0:0:
74,110,48769,1,0,0:0:0:0:
89,151,48846,1,10,0:3:0:0:
129,170,48924,1,8,0:3:0:0:
325,176,49001,6,0,L|416:170,1,90,10|10,0:0|0:3,0:0:0:0:
166,316,49310,2,0,L|159:227,1,90,10|10,0:0|0:3,0:0:0:0:
416,84,49619,2,0,L|325:78,2,90,10|10|10,0:0|0:3|0:3,0:0:0:0:
158,274,50083,6,0,L|341:264,1,180,10|2,0:0|0:0,0:0:0:0:
74,173,50547,2,0,L|165:165,1,90,10|10,0:0|0:3,0:0:0:0:
290,151,50857,1,8,0:3:0:0:
62,325,51011,2,0,L|106:321,1,45,8|8,0:3|0:3,0:0:0:0:
310,297,51166,1,8,0:3:0:0:
350,278,51243,1,8,0:3:0:0:
365,237,51321,1,8,0:3:0:0:
348,197,51398,1,8,0:3:0:0:
196,162,51475,6,0,L|107:160,1,90,6|10,0:0|0:3,0:0:0:0:
352,60,51784,2,0,L|263:58,2,90,10|8|10,0:3|0:3|0:0,0:0:0:0:
118,295,52248,2,0,L|114:250,1,45,8|8,0:3|0:3,0:0:0:0:
180,228,52403,1,8,0:3:0:0:
403,150,52558,6,0,L|498:147,2,90,6|2|6,0:0|0:0|0:0,0:0:0:0:
179,279,53022,2,0,L|272:281,2,90,8|8|8,0:0|0:3|0:0,0:0:0:0:
409,255,53485,1,8,0:3:0:0:
392,214,53563,1,8,0:3:0:0:
344,195,53640,1,8,0:0:0:0:
208,195,53795,1,2,0:0:0:0:
458,137,53949,6,0,P|471:95|418:28,1,135,6|0,0:0|0:0,0:0:0:0:
199,32,54259,1,10,0:3:0:0:
182,72,54336,1,0,0:0:0:0:
197,113,54413,1,8,0:3:0:0:
237,132,54491,1,0,0:0:0:0:
410,137,54568,2,0,L|424:90,3,45,8|0|8|0,0:0|0:0|0:3|0:0,0:0:0:0:
254,243,54877,2,0,L|208:239,1,45,10|0,0:0|0:0,0:0:0:0:
254,328,55032,2,0,L|300:324,1,45,8|0,0:3|0:0,0:0:0:0:
142,340,55186,5,10,0:0:0:0:
102,321,55264,1,0,0:0:0:0:
87,280,55341,1,8,0:3:0:0:
104,240,55418,1,8,0:3:0:0:
272,160,55496,2,0,L|318:156,1,45,10|0,0:0|0:0,0:0:0:0:
148,243,55650,2,0,L|102:239,1,45,8|8,0:3|0:3,0:0:0:0:
298,246,55805,2,0,L|344:242,1,45,10|0,0:0|0:0,0:0:0:0:
298,331,55960,2,0,L|252:327,1,45,8|8,0:3|0:3,0:0:0:0:
456,194,56114,1,10,0:0:0:0:
487,150,56192,1,0,0:0:0:0:
472,109,56269,1,8,0:3:0:0:
432,90,56346,1,8,0:3:0:0:
229,82,56424,6,0,L|181:80,1,45,10|8,0:0|0:3,0:0:0:0:
229,167,56578,2,0,L|277:165,1,45,8|8,0:3|0:3,0:0:0:0:
110,234,56733,2,0,L|64:230,1,45,8|8,0:0|0:3,0:0:0:0:
234,317,56888,2,0,L|280:313,1,45,8|8,0:3|0:3,0:0:0:0:
51,146,57042,2,0,L|45:101,1,45,10|8,0:0|0:3,0:0:0:0:
229,82,57197,1,8,0:3:0:0:
294,78,57274,1,8,0:3:0:0:
481,162,57351,1,8,0:0:0:0:
416,158,57429,1,8,0:3:0:0:
204,279,57506,6,0,B|171:269|137:235|128:181|148:120|220:96|313:140|364:153|409:166|451:146|461:92|427:27|342:34,1,539.999983520508,6|10,0:0|0:3,0:0:0:0:
197,30,58434,2,0,L|152:29,1,45,2|8,0:0|0:3,0:0:0:0:
356,256,58589,2,0,L|490:248,1,135,10|0,0:0|0:0,0:0:0:0:
249,168,58898,6,0,L|159:163,1,90,14|8,0:0|0:3,0:0:0:0:
303,85,59207,2,0,L|393:80,1,90,8|8,0:0|0:3,0:0:0:0:
115,337,59516,2,0,L|110:248,1,90,8|8,0:0|0:3,0:0:0:0:
238,172,59826,1,8,0:0:0:0:
108,167,59980,1,8,0:3:0:0:
396,86,60135,6,0,L|486:81,1,90,10|0,0:0|0:0,0:0:0:0:
214,348,60444,2,0,L|209:259,1,90,8|8,0:0|0:3,0:0:0:0:
422,266,60754,2,0,L|427:177,1,90,8|8,0:0|0:3,0:0:0:0:
364,170,60985,1,8,0:3:0:0:
142,150,61063,2,0,L|52:145,1,90,8|8,0:0|0:3,0:0:0:0:
102,198,61295,1,8,0:3:0:0:
320,299,61372,6,0,L|410:294,1,90,10|0,0:0|0:0,0:0:0:0:
265,199,61681,1,8,0:0:0:0:
409,199,61836,1,8,0:3:0:0:
146,184,61991,2,0,L|139:91,1,90,8|8,0:0|0:3,0:0:0:0:
264,81,62300,1,8,0:0:0:0:
138,66,62455,2,0,L|183:63,1,45,8|0,0:3|0:0,0:0:0:0:
475,232,62609,6,0,L|384:230,1,90,10|0,0:0|0:0,0:0:0:0:
171,329,62918,2,0,L|262:327,1,90,10|0,0:0|0:0,0:0:0:0:
47,280,63228,2,0,L|40:191,1,90,10|8,0:0|0:3,0:0:0:0:
102,181,63460,1,8,0:3:0:0:
304,157,63537,1,10,0:0:0:0:
178,147,63692,2,0,L|223:141,1,45,8|8,0:3|0:3,0:0:0:0:
407,54,63846,6,0,L|498:48,1,90,14|0,0:0|0:0,0:0:0:0:
351,144,64156,1,8,0:0:0:0:
494,144,64310,1,8,0:3:0:0:
223,366,64465,2,0,L|218:277,1,90,10|8,0:0|0:3,0:0:0:0:
363,276,64774,2,0,L|368:187,1,90,10|8,0:0|0:3,0:0:0:0:
305,180,65006,1,8,0:3:0:0:
59,176,65083,6,0,L|152:172,1,90,10|0,0:0|0:0,0:0:0:0:
382,66,65393,2,0,L|289:62,1,90,10|0,0:0|0:0,0:0:0:0:
55,302,65702,1,10,0:0:0:0:
171,293,65857,2,0,L|177:245,1,45,8|8,0:3|0:3,0:0:0:0:
20,169,66011,2,0,L|114:163,1,90,8|8,0:0|0:3,0:0:0:0:
164,157,66243,1,8,0:3:0:0:
437,158,66321,6,0,L|442:247,1,90,10|0,0:0|0:0,0:0:0:0:
314,323,66630,1,10,0:0:0:0:
444,328,66784,1,10,0:3:0:0:
223,197,66939,2,0,L|132:195,1,90,10|8,0:0|0:3,0:0:0:0:
277,119,67248,2,0,L|368:117,1,90,10|8,0:0|0:3,0:0:0:0:
316,163,67480,1,8,0:3:0:0:
97,218,67558,6,0,L|89:308,1,90,14|8,0:0|0:3,0:0:0:0:
312,339,67867,1,10,0:0:0:0:
186,337,68022,1,8,0:3:0:0:
404,283,68176,2,0,L|359:280,1,45,10|8,0:0|0:3,0:0:0:0:
186,212,68331,2,0,L|231:209,1,45,8|8,0:3|0:3,0:0:0:0:
439,200,68485,2,0,P|476:175|441:108,1,135,10|0,0:0|0:0,0:0:0:0:
195,93,68795,6,0,L|106:90,1,90,6|0,0:0|0:0,0:0:0:0:
258,280,69104,2,0,L|264:189,1,90,10|0,0:0|0:0,0:0:0:0:
29,222,69413,2,0,L|120:220,1,90,10|8,0:3|0:3,0:0:0:0:
284,327,69723,2,0,L|193:325,1,90,10|0,0:0|0:0,0:0:0:0:
416,310,70032,6,0,L|423:217,1,90,10|8,0:3|0:3,0:0:0:0:
182,58,70341,2,0,L|273:56,1,90,10|0,0:0|0:0,0:0:0:0:
417,157,70650,2,0,L|326:155,1,90,10|8,0:3|0:3,0:0:0:0:
61,151,70960,2,0,L|59:242,1,90,8|0,0:0|0:0,0:0:0:0:
315,339,71269,6,0,L|133:337,1,180,6|10,0:0|0:0,0:0:0:0:
279,243,71733,1,0,0:0:0:0:
28,65,71888,2,0,L|119:63,1,90,10|8,0:0|0:3,0:0:0:0:
263,164,72197,2,0,L|172:162,1,90,8|0,0:3|0:0,0:0:0:0:
402,338,72506,6,0,L|493:336,1,90,10|8,0:3|0:3,0:0:0:0:
232,258,72815,2,0,L|323:256,1,90,10|0,0:0|0:0,0:0:0:0:
73,98,73125,2,0,L|68:187,1,90,10|8,0:3|0:3,0:0:0:0:
196,263,73434,1,10,0:0:0:0:
66,268,73589,1,2,0:0:0:0:
329,344,73743,6,0,P|369:322|327:222,1,180,6|8,0:0|0:0,0:0:0:0:
200,221,74207,1,0,0:0:0:0:
424,173,74362,2,0,L|432:84,1,90,8|8,0:3|0:3,0:0:0:0:
307,65,74671,1,8,0:0:0:0:
433,54,74826,1,0,0:0:0:0:
163,284,74980,5,6,0:0:0:0:
285,270,75135,2,0,L|292:178,1,90,10|8,0:3|0:0,0:0:0:0:
65,198,75444,2,0,P|66:171|176:79,1,180,6|8,0:0|0:3,0:0:0:0:
316,79,75908,1,10,0:0:0:0:
42,339,76063,6,0,L|224:337,1,180,6|10,0:0|0:3,0:0:0:0:
99,244,76527,1,10,0:0:0:0:
345,247,76681,2,0,P|381:214|315:124,1,180,6|8,0:0|0:3,0:0:0:0:
190,123,77145,1,8,0:0:0:0:
418,343,77300,6,0,P|472:316|443:217,1,180,6|8,0:0|0:3,0:0:0:0:
211,201,77764,2,0,L|120:198,1,90,10|0,0:0|0:0,0:0:0:0:
347,296,78073,2,0,L|392:294,1,45,10|8,0:0|0:3,0:0:0:0:
211,201,78228,2,0,L|165:199,1,45,8|8,0:3|0:3,0:0:0:0:
373,265,78382,1,10,0:0:0:0:
405,209,78460,1,8,0:3:0:0:
383,146,78537,1,8,0:3:0:0:
323,131,78614,1,0,0:0:0:0:
48,124,78692,5,6,0:0:0:0:
220,222,79001,2,0,L|231:312,2,90
48,124,79619,1,0,0:0:0:0:
310,339,79929,2,0,L|320:245,1,90,2|2,0:0|0:0,0:0:0:0:
122,137,80393,1,2,0:0:0:0:
375,62,80702,5,10,0:0:0:0:
148,165,80857,2,0,L|158:117,1,45,8|8,0:3|0:3,0:0:0:0:
239,119,81011,2,0,L|249:71,1,45,8|8,0:3|0:3,0:0:0:0:
60,38,81166,6,0,P|18:81|115:212,1,225,10|0,0:0|0:0,0:0:0:0:
328,323,81630,2,0,B|149:307|149:307|147:171|147:171|143:261,1,405,10|0,0:0|0:0,0:0:0:0:
358,228,82403,6,0,L|447:223,1,90,14|8,0:0|0:3,0:0:0:0:
313,128,82712,1,2,0:0:0:0:
449,128,82867,1,8,0:3:0:0:
173,316,83022,1,10,0:0:0:0:
299,309,83176,2,0,L|305:220,1,90,8|2,0:0|0:0,0:0:0:0:
63,171,83485,5,6,0:0:0:0:
199,163,83640,2,0,L|205:74,1,90,2|10,0:0|0:0,0:0:0:0:
70,260,83949,2,0,L|64:171,1,90,2|8,0:0|0:3,0:0:0:0:
327,249,84259,2,0,L|238:250,2,90,10|10|2,0:0|0:0|0:0,0:0:0:0:
78,339,84723,6,0,P|45:317|78:247,1,135,14|0,0:0|0:0,0:0:0:0:
275,236,85032,6,0,L|370:239,1,90,8|8,0:0|0:3,0:0:0:0:
125,126,85341,2,0,L|30:129,1,90,8|8,0:0|0:3,0:0:0:0:
341,35,85650,2,0,L|346:126,1,90,8|8,0:0|0:3,0:0:0:0:
28,277,85960,2,0,L|118:274,1,90,8|8,0:0|0:3,0:0:0:0:
336,246,86269,2,0,L|247:243,1,90,8|8,0:0|0:3,0:0:0:0:
485,282,86578,5,12,0:0:0:0:
499,184,86733,1,2,0:0:0:0:
370,166,86888,1,2,0:0:0:0:
356,68,87042,1,2,0:0:0:0:
506,45,87197,1,2,0:0:0:0:
