osu file format v14

[General]
AudioFilename: audio.mp3
AudioLeadIn: 0
PreviewTime: 58898
Countdown: 0
SampleSet: Soft
StackLeniency: 0.7
Mode: 2
LetterboxInBreaks: 0
WidescreenStoryboard: 1

[Editor]
DistanceSpacing: 1
BeatDivisor: 8
GridSize: 16
TimelineZoom: 3.499999

[Metadata]
Title:Kaze Tsuyoku, Kimi Atsuku. (TV Size)
TitleUnicode:風強く、君熱く。(TV Size)
Artist:Q-MHz feat. Mitsuhiro Hidaka a.k.a SKY-HI
ArtistUnicode:Q-MHz feat. 日高光啓 a.k.a. SKY-HI
Creator:Dako
Version:Chatie's Cup
Source:風が強く吹いている
Tags:run with the wind opening anime op toy's factory j-rock j rock chatie jbh jbhyperion nelly greaper japanese 吹いている kaze ga tsuyoku futeiru fuite iru bastian jorkseljund
BeatmapID:2248305
BeatmapSetID:1069433

[Difficulty]
HPDrainRate:3
CircleSize:2
OverallDifficulty:6
ApproachRate:6
SliderMultiplier:1.7
SliderTickRate:1

[Events]
//Background and Video events
0,0,"dako.jpg",0,0
//Break Periods
//Storyboard Layer 0 (Background)
//Storyboard Layer 1 (Fail)
//Storyboard Layer 2 (Pass)
//Storyboard Layer 3 (Foreground)
//Storyboard Layer 4 (Overlay)
//Storyboard Sound Samples

[TimingPoints]
754,309.278350515464,4,2,1,60,1,0
2609,-100,4,2,1,5,0,0
2764,-100,4,2,1,60,0,0
3228,-100,4,2,1,60,0,0
6939,-100,4,2,1,60,0,1
13743,-100,4,2,1,60,0,0
24259,-100,4,2,1,60,0,0
34156,-100,4,2,1,60,0,0
44052,-100,4,2,1,60,0,0
53949,-100,4,2,1,60,0,0
58898,-100,4,2,1,60,0,1
68795,-100,4,2,1,60,0,1
78692,-100,4,2,1,60,0,0
82403,-100,4,2,1,60,0,0

[Colours]
Combo1 : 180,180,180
Combo2 : 53,128,202
Combo3 : 253,176,130
Combo4 : 62,68,108

[HitObjects]
256,192,792,12,8,2764,0:0:0:0:
328,217,3228,5,6,0:0:0:0:
140,222,4465,5,10,0:0:0:0:
365,216,4929,1,10,0:0:0:0:
226,205,5702,5,10,0:0:0:0:
303,206,5857,1,10,0:3:0:0:
226,205,6011,1,10,0:0:0:0:
154,201,6166,1,10,0:0:0:0:
350,267,6630,1,2,0:0:0:0:
229,268,6939,6,0,P|183:188|244:149,1,170,4|8,0:0|0:0,0:0:0:0:
359,218,7558,1,8,0:0:0:0:
231,149,7867,1,10,0:0:0:0:
359,218,8176,6,0,L|474:67,2,170,8|8|8,0:0|0:0|0:0,0:0:0:0:
105,255,9413,6,0,P|72:179|121:116,1,170,10|8,0:0|0:0,0:0:0:0:
252,247,10032,2,0,P|309:178|243:142,1,170,8|8,0:0|0:0,0:0:0:0:
99,168,10650,5,8,0:0:0:0:
245,142,10960,1,8,0:0:0:0:
99,168,11269,1,8,0:0:0:0:
262,291,11888,6,0,P|421:104|259:53,1,510,14|8,0:0|0:3,0:0:0:0:
172,116,12970,1,6,0:0:0:0:
322,249,13279,5,8,0:3:0:0:
390,203,13434,1,8,0:0:0:0:
433,124,13589,1,8,0:3:0:0:
390,203,13743,1,10,0:0:0:0:
170,268,14362,6,0,P|147:193|232:135,1,170,6|10,0:0|0:3,0:0:0:0:
334,217,14980,2,0,L|173:131,1,170,10|10,0:3|0:3,0:0:0:0:
333,128,15599,5,10,0:3:0:0:
220,200,15908,1,10,0:3:0:0:
156,205,16063,2,0,P|116:110|178:66,1,170,2|2,0:0|0:0,0:0:0:0:
290,176,16681,1,8,0:0:0:0:
368,282,16836,6,0,B|495:280|443:143,1,170,2|2,0:0|0:0,0:0:0:0:
339,207,17455,2,0,L|193:90,1,170,10|10,0:3|0:3,0:0:0:0:
57,179,18073,5,10,0:3:0:0:
189,126,18382,1,10,0:3:0:0:
246,163,18537,2,0,L|359:22,1,170,2|2,0:0|0:0,0:0:0:0:
469,192,19156,1,8,0:3:0:0:
384,197,19310,6,0,L|280:24,1,170,6|8,0:0|0:0,0:0:0:0:
211,74,19774,2,0,L|353:195,1,170,6|10,0:0|0:3,0:0:0:0:
477,204,20393,6,0,L|350:62,1,170,6|10,0:0|0:3,0:0:0:0:
193,142,21011,1,6,0:0:0:0:
283,206,21630,1,2,0:0:0:0:
351,197,21784,6,0,P|402:121|351:69,1,170,6|10,0:0|0:0,0:0:0:0:
220,210,22403,2,0,P|180:103|226:69,1,170,10|10,0:3|0:0,0:0:0:0:
283,206,22867,1,6,0:0:0:0:
407,201,23176,5,2,0:0:0:0:
477,198,23331,1,2,0:0:0:0:
407,201,23485,1,2,0:0:0:0:
343,242,23640,2,0,P|285:171|298:92,1,170,10|10,0:3|0:0,0:0:0:0:
449,156,24259,6,0,P|488:62|450:-27,1,170,6|10,0:0|0:0,0:0:0:0:
329,215,24877,2,0,L|166:115,1,170,10|10,0:3|0:0,0:0:0:0:
303,220,25496,6,0,P|331:136|304:57,1,170,10|10,0:3|0:0,0:0:0:0:
230,216,25960,1,10,0:3:0:0:
85,170,26269,1,10,0:3:0:0:
242,140,26578,1,2,0:0:0:0:
191,269,26733,6,0,P|138:162|180:126,1,170,10|10,0:3|0:0,0:0:0:0:
303,218,27351,2,0,P|357:131|324:65,1,170,10|10,0:3|0:0,0:0:0:0:
175,252,27970,6,0,P|137:161|186:115,1,170,10|10,0:3|0:0,0:0:0:0:
255,259,28434,2,0,P|325:226|284:128,1,170,10|10,0:3|0:3,0:0:0:0:
158,192,29052,1,2,0:0:0:0:
94,183,29207,6,0,L|210:51,1,170,6|10,0:0|0:0,0:0:0:0:
273,207,29671,2,0,P|324:133|262:97,1,170,2|10,0:0|0:3,0:0:0:0:
112,139,30290,1,6,0:0:0:0:
307,214,31063,5,10,0:3:0:0:
220,211,31295,1,0,0:0:0:0:
138,209,31527,1,2,0:0:0:0:
59,206,31681,6,0,P|31:122|84:54,1,170,10|8,0:3|0:0,0:0:0:0:
153,56,32145,1,10,0:3:0:0:
236,55,32300,1,10,0:0:0:0:
371,270,32918,6,0,P|465:185|446:61,1,255,10|10,0:0|0:3,0:0:0:0:
356,74,33537,1,10,0:3:0:0:
214,192,33846,1,10,0:0:0:0:
60,151,34156,5,6,0:0:0:0:
214,192,34465,2,0,P|237:85|194:68,1,170,2|10,0:0|0:0,0:0:0:0:
21,160,35238,6,0,P|128:189|165:140,2,170,10|10|10,0:3|0:3|0:3,0:0:0:0:
159,155,36166,1,10,0:3:0:0:
312,155,36475,1,6,0:0:0:0:
127,240,36939,6,0,P|153:181|229:93,1,170,2|10,0:0|0:0,0:0:0:0:
351,206,37558,1,10,0:3:0:0:
351,206,37712,1,10,0:0:0:0:
195,191,38022,5,10,0:0:0:0:
195,191,38331,1,14,0:0:0:0:
354,230,38795,1,10,0:3:0:0:
401,224,38949,1,10,0:3:0:0:
354,230,39104,5,6,0:0:0:0:
171,243,39413,2,0,P|76:208|64:134,1,170,2|10,0:0|0:0,0:0:0:0:
207,239,40032,1,2,0:0:0:0:
377,190,40341,6,0,P|448:157|464:55,2,170,0|0|10,0:0|0:0|0:0,0:0:0:0:
193,223,41269,1,2,0:0:0:0:
116,217,41424,6,0,P|70:133|148:111,1,170,6|10,0:0|0:0,0:0:0:0:
193,223,41888,1,0,0:0:0:0:
331,200,42197,2,0,P|380:119|318:65,1,170,8|2,0:0|0:0,0:0:0:0:
218,205,42661,1,10,0:0:0:0:
218,205,42970,5,10,0:0:0:0:
335,231,43279,2,0,P|391:168|317:109,1,170,14|10,0:0|0:3,0:0:0:0:
287,162,43743,1,10,0:0:0:0:
158,172,44052,5,6,0:0:0:0:
364,286,44671,2,0,P|404:219|354:139,1,170,10|10,0:3|0:0,0:0:0:0:
241,281,45290,6,0,P|206:207|250:132,1,170,10|10,0:3|0:0,0:0:0:0:
346,202,45908,1,10,0:3:0:0:
211,206,46217,1,10,0:0:0:0:
364,289,46527,6,0,P|459:125|338:63,1,340,10|10,0:3|0:3,0:0:0:0:
204,312,47609,6,0,P|139:267|79:169,1,170,2|10,0:0|0:3,0:0:0:0:
28,193,48073,1,8,0:0:0:0:
155,196,48382,1,10,0:0:0:0:
286,165,48692,2,0,L|290:40,1,85,10|10,0:0|0:3,0:0:0:0:
186,57,49001,5,10,0:0:0:0:
340,289,49310,2,0,P|429:226|449:143,1,170,10|10,0:0|0:0,0:0:0:0:
388,165,49774,1,10,0:3:0:0:
272,256,50083,1,10,0:0:0:0:
216,254,50238,6,0,L|216:62,1,170,10|10,0:3|0:0,0:0:0:0:
100,254,50857,2,0,P|75:212|121:87,1,170,8|8,0:3|0:3,0:0:0:0:
255,193,51475,6,0,L|366:60,1,170,6|10,0:0|0:3,0:0:0:0:
433,175,51939,2,0,L|404:73,1,85,8|10,0:3|0:0,0:0:0:0:
329,146,52403,1,8,0:3:0:0:
265,140,52558,1,6,0:0:0:0:
329,146,52712,6,0,L|420:88,1,85,2|6,0:0|0:0,0:0:0:0:
329,146,53022,1,8,0:0:0:0:
224,282,53331,2,0,P|236:192|299:129,1,170,8|8,0:0|0:0,0:0:0:0:
355,124,53795,1,2,0:0:0:0:
250,91,53949,5,6,0:0:0:0:
167,189,54568,2,0,L|39:59,2,170,8|10|10,0:0|0:0|0:0,0:0:0:0:
300,194,55496,5,10,0:0:0:0:
160,188,55805,2,0,P|139:130|181:32,1,170,10|10,0:0|0:0,0:0:0:0:
331,272,56424,6,0,P|405:110|276:28,1,340,10|10,0:0|0:0,0:0:0:0:
256,192,57506,12,10,58589,0:0:0:0:
168,269,58898,6,0,P|98:103|219:13,1,340,14|8,0:0|0:0,0:0:0:0:
350,103,59826,1,8,0:0:0:0:
194,260,60135,6,0,P|139:170|197:125,1,170,10|8,0:0|0:0,0:0:0:0:
304,180,60754,1,8,0:0:0:0:
178,188,61063,1,8,0:0:0:0:
331,295,61372,6,0,P|418:126|312:55,1,340,10|8,0:0|0:0,0:0:0:0:
238,177,62300,1,8,0:0:0:0:
83,233,62609,6,0,P|74:147|119:80,1,170,10|10,0:0|0:0,0:0:0:0:
238,177,63228,1,10,0:0:0:0:
130,177,63537,1,10,0:0:0:0:
300,289,63846,6,0,P|367:226|348:152,1,170,14|8,0:0|0:0,0:0:0:0:
229,255,64465,2,0,P|166:173|209:127,1,170,10|10,0:0|0:0,0:0:0:0:
375,264,65083,6,0,L|369:62,1,170,10|10,0:0|0:0,0:0:0:0:
253,102,65702,1,10,0:0:0:0:
381,90,66011,1,8,0:0:0:0:
198,162,66321,5,10,0:0:0:0:
330,261,66630,1,10,0:0:0:0:
382,197,66784,1,10,0:3:0:0:
330,261,66939,1,10,0:0:0:0:
186,185,67248,1,10,0:0:0:0:
356,246,67558,6,0,P|426:179|431:78,2,170,14|10|10,0:0|0:0|0:0,0:0:0:0:
240,227,68485,1,10,0:0:0:0:
390,246,68795,6,0,B|448:162|448:162|206:70,1,340,6|10,0:0|0:3,0:0:0:0:
81,114,69723,1,10,0:0:0:0:
225,77,70032,6,0,L|373:221,2,170,10|10|10,0:3|0:0|0:3,0:0:0:0:
391,57,70960,1,8,0:0:0:0:
233,202,71269,6,0,B|164:125|164:125|406:52,1,340,6|10,0:0|0:0,0:0:0:0:
270,224,72197,1,8,0:3:0:0:
155,225,72506,6,0,P|65:140|54:74,2,170,10|10|10,0:3|0:0|0:3,0:0:0:0:
285,243,73434,1,10,0:0:0:0:
356,204,73589,1,2,0:0:0:0:
258,197,73743,5,6,0:0:0:0:
155,298,74052,2,0,P|99:206|141:160,1,170,8|8,0:0|0:3,0:0:0:0:
277,200,74671,1,8,0:0:0:0:
127,167,74980,6,0,L|143:61,1,85,6|10,0:0|0:3,0:0:0:0:
271,192,75444,1,6,0:0:0:0:
417,174,75754,2,0,L|416:77,1,85,8|10,0:3|0:0,0:0:0:0:
310,189,76063,1,6,0:0:0:0:
180,263,76372,5,10,0:3:0:0:
128,247,76527,1,10,0:0:0:0:
76,222,76681,2,0,P|38:123|64:44,1,170,6|8,0:0|0:3,0:0:0:0:
221,140,77300,5,6,0:0:0:0:
82,141,77609,1,8,0:3:0:0:
164,160,77764,2,0,P|243:116|277:42,2,170,10|10|10,0:0|0:0|0:0,0:0:0:0:
322,262,78692,5,6,0:0:0:0:
398,259,79001,2,0,P|473:171|460:123,2,170,2|2|2,0:0|0:0|0:0,0:0:0:0:
287,248,79929,6,0,L|230:170,1,85,2|2,0:0|0:0,0:0:0:0:
366,160,80393,1,2,0:0:0:0:
214,182,80702,1,10,0:0:0:0:
156,155,80857,1,8,0:3:0:0:
116,97,81011,1,8,0:3:0:0:
211,88,81166,5,10,0:0:0:0:
367,258,81630,1,10,0:0:0:0:
185,276,81939,1,2,0:0:0:0:
185,276,82094,1,2,0:0:0:0:
91,323,82403,5,14,0:0:0:0:
338,251,82867,2,0,L|337:148,1,85,8|10,0:3|0:0,0:0:0:0:
181,330,83485,6,0,P|116:275|114:185,1,170,6|10,0:0|0:0,0:0:0:0:
141,175,83949,2,0,P|199:110|283:67,1,170,2|10,0:0|0:0,0:0:0:0:
329,113,84413,2,0,P|372:58|365:24,1,85,10|2,0:0|0:0,0:0:0:0:
271,70,84723,1,14,0:0:0:0:
91,289,85186,6,0,P|47:197|83:123,1,170,8|8,0:3|0:3,0:0:0:0:
110,113,85650,1,8,0:0:0:0:
257,87,85960,1,8,0:0:0:0:
110,113,86269,5,8,0:0:0:0:
259,224,86578,1,12,0:0:0:0:
337,234,86733,2,0,P|373:147|320:85,1,170,2|2,0:0|0:0,0:0:0:0:
259,224,87197,1,2,0:0:0:0:
