osu file format v14

[General]
AudioFilename: audio.mp3
AudioLeadIn: 0
PreviewTime: 6554
Countdown: 1
SampleSet: Soft
StackLeniency: 0.7
Mode: 3
LetterboxInBreaks: 0
SpecialStyle: 0
WidescreenStoryboard: 0

[Editor]
DistanceSpacing: 1
BeatDivisor: 4
GridSize: 4
TimelineZoom: 1.5

[Metadata]
Title:Koise yo Minna, Hai! (TV Size)
TitleUnicode:恋せよみんな、ハイ!(TV size)
Artist:Pyxis
ArtistUnicode:Pyxis
Creator:dudehacker
Version:Kichou Wife No.1
Source:ノブナガ先生の幼な妻
Tags:FruityEnLoops Amiichii Mr. Nobunaga's Young Bride Itou Miku 伊藤美来 Toyota Moe 豊田萌絵
BeatmapID:2047567
BeatmapSetID:978439

[Difficulty]
HPDrainRate:7
CircleSize:4
OverallDifficulty:7
ApproachRate:5
SliderMultiplier:1.4
SliderTickRate:1

[Events]
//Background and Video events
0,0,"bg.jpg",0,0
Video,1679,"video.avi"
//Break Periods
//Storyboard Layer 0 (Background)
//Storyboard Layer 1 (Fail)
//Storyboard Layer 2 (Pass)
//Storyboard Layer 3 (Foreground)
//Storyboard Sound Samples

[TimingPoints]
1679,375,4,2,1,5,1,0

[HitObjects]
64,192,1679,5,0,0:0:0:0:
448,192,1679,1,0,0:0:0:0:
320,192,2054,128,0,2429:0:0:0:0:
192,192,2429,128,0,2804:0:0:0:0:
64,192,2804,128,0,3179:0:0:0:0:
448,192,3179,1,0,0:0:0:0:
448,192,3366,1,0,0:0:0:0:
192,192,3554,1,0,0:0:0:0:
192,192,3741,1,0,0:0:0:0:
64,192,3929,1,0,0:0:0:0:
64,192,4116,1,0,0:0:0:0:
448,192,4304,128,0,4679:0:0:0:0:
64,192,4679,128,0,5054:0:0:0:0:
320,192,5054,1,0,0:0:0:0:
64,192,6554,1,0,0:0:0:0:
192,192,6554,1,0,0:0:0:0:
320,192,6647,1,0,0:0:0:0:
448,192,6741,1,0,0:0:0:0:
320,192,6929,1,0,0:0:0:0:
192,192,7022,1,0,0:0:0:0:
64,192,7116,1,0,0:0:0:0:
192,192,7304,1,0,0:0:0:0:
320,192,7397,1,0,0:0:0:0:
448,192,7491,1,0,0:0:0:0:
64,192,7679,1,0,0:0:0:0:
192,192,7679,1,0,0:0:0:0:
192,192,8054,1,0,0:0:0:0:
320,192,8147,1,0,0:0:0:0:
448,192,8241,1,0,0:0:0:0:
320,192,8429,1,0,0:0:0:0:
192,192,8522,1,0,0:0:0:0:
64,192,8616,1,0,0:0:0:0:
192,192,8804,1,0,0:0:0:0:
320,192,8897,1,0,0:0:0:0:
448,192,8991,1,0,0:0:0:0:
64,192,9179,1,0,0:0:0:0:
192,192,9179,1,0,0:0:0:0:
448,192,9554,128,0,9741:0:0:0:0:
64,192,9554,1,0,0:0:0:0:
448,192,9929,128,0,10116:0:0:0:0:
64,192,9929,1,0,0:0:0:0:
192,192,10304,128,0,10491:0:0:0:0:
320,192,10304,1,0,0:0:0:0:
192,192,10679,128,0,10866:0:0:0:0:
320,192,10679,1,0,0:0:0:0:
64,192,11054,128,0,11241:0:0:0:0:
192,192,11054,1,0,0:0:0:0:
64,192,11429,128,0,11616:0:0:0:0:
192,192,11429,1,0,0:0:0:0:
448,192,11804,128,0,12179:0:0:0:0:
320,192,11804,1,0,0:0:0:0:
192,192,12179,128,0,12366:0:0:0:0:
64,192,12179,1,0,0:0:0:0:
448,192,12554,1,0,0:0:0:0:
64,192,12554,1,0,0:0:0:0:
320,192,12647,1,0,0:0:0:0:
192,192,12741,1,0,0:0:0:0:
64,192,12929,1,0,0:0:0:0:
192,192,13022,1,0,0:0:0:0:
320,192,13116,1,0,0:0:0:0:
448,192,13304,1,0,0:0:0:0:
320,192,13397,1,0,0:0:0:0:
192,192,13491,1,0,0:0:0:0:
64,192,13679,1,0,0:0:0:0:
448,192,13679,1,0,0:0:0:0:
448,192,14054,1,0,0:0:0:0:
320,192,14147,1,0,0:0:0:0:
192,192,14241,1,0,0:0:0:0:
64,192,14429,1,0,0:0:0:0:
192,192,14522,1,0,0:0:0:0:
320,192,14616,1,0,0:0:0:0:
448,192,14804,1,0,0:0:0:0:
320,192,14897,1,0,0:0:0:0:
192,192,14991,1,0,0:0:0:0:
64,192,15179,1,0,0:0:0:0:
448,192,15179,1,0,0:0:0:0:
192,192,15554,128,0,15741:0:0:0:0:
448,192,15554,1,0,0:0:0:0:
192,192,15929,128,0,16116:0:0:0:0:
448,192,15929,1,0,0:0:0:0:
320,192,16304,128,0,16491:0:0:0:0:
64,192,16304,1,0,0:0:0:0:
320,192,16679,128,0,16866:0:0:0:0:
64,192,16679,1,0,0:0:0:0:
448,192,17054,128,0,17241:0:0:0:0:
192,192,17054,1,0,0:0:0:0:
448,192,17429,128,0,17616:0:0:0:0:
192,192,17429,1,0,0:0:0:0:
64,192,17804,128,0,17991:0:0:0:0:
320,192,17991,128,0,18179:0:0:0:0:
192,192,18179,1,0,0:0:0:0:
448,192,18179,1,0,0:0:0:0:
64,192,18366,1,0,0:0:0:0:
192,192,18554,1,0,0:0:0:0:
448,192,18554,1,0,0:0:0:0:
320,192,18741,128,0,18929:0:0:0:0:
192,192,18929,128,0,19116:0:0:0:0:
64,192,19116,128,0,19304:0:0:0:0:
448,192,19304,128,0,19491:0:0:0:0:
320,192,19491,128,0,19679:0:0:0:0:
192,192,19679,128,0,19866:0:0:0:0:
64,192,19866,128,0,20054:0:0:0:0:
192,192,20241,128,0,20429:0:0:0:0:
320,192,20429,128,0,20616:0:0:0:0:
448,192,20616,128,0,20804:0:0:0:0:
64,192,20804,128,0,20991:0:0:0:0:
192,192,20991,128,0,21179:0:0:0:0:
320,192,21179,128,0,21366:0:0:0:0:
448,192,21366,128,0,21554:0:0:0:0:
64,192,21741,1,0,0:0:0:0:
320,192,21929,1,0,0:0:0:0:
64,192,21929,1,0,0:0:0:0:
192,192,22116,1,0,0:0:0:0:
448,192,22304,1,0,0:0:0:0:
192,192,22304,1,0,0:0:0:0:
64,192,22491,1,0,0:0:0:0:
320,192,22679,1,0,0:0:0:0:
448,192,22679,1,0,0:0:0:0:
192,192,22866,1,0,0:0:0:0:
448,192,23054,1,0,0:0:0:0:
192,192,23054,1,0,0:0:0:0:
64,192,23241,1,0,0:0:0:0:
320,192,23429,1,0,0:0:0:0:
64,192,23429,1,0,0:0:0:0:
192,192,23616,1,0,0:0:0:0:
448,192,23804,128,0,23991:0:0:0:0:
320,192,23804,1,0,0:0:0:0:
64,192,24179,128,0,24366:0:0:0:0:
192,192,24179,1,0,0:0:0:0:
320,192,24366,1,0,0:0:0:0:
448,192,24554,1,0,0:0:0:0:
64,192,24554,1,0,0:0:0:0:
192,192,24741,128,0,24929:0:0:0:0:
320,192,24929,128,0,25116:0:0:0:0:
448,192,25116,128,0,25304:0:0:0:0:
64,192,25304,128,0,25491:0:0:0:0:
192,192,25491,128,0,25679:0:0:0:0:
320,192,25679,128,0,25866:0:0:0:0:
448,192,25866,128,0,26054:0:0:0:0:
320,192,26241,128,0,26429:0:0:0:0:
192,192,26429,128,0,26616:0:0:0:0:
64,192,26616,128,0,26804:0:0:0:0:
448,192,26804,128,0,26991:0:0:0:0:
320,192,26991,128,0,27179:0:0:0:0:
192,192,27179,128,0,27366:0:0:0:0:
64,192,27366,128,0,27554:0:0:0:0:
448,192,27741,128,0,27929:0:0:0:0:
64,192,27929,128,0,28116:0:0:0:0:
192,192,28116,1,0,0:0:0:0:
320,192,28210,1,0,0:0:0:0:
448,192,28304,128,0,28491:0:0:0:0:
320,192,28679,128,0,28866:0:0:0:0:
192,192,29054,128,0,29241:0:0:0:0:
448,192,29429,128,0,29616:0:0:0:0:
64,192,29804,128,0,29991:0:0:0:0:
192,192,30085,1,0,0:0:0:0:
320,192,30179,1,0,0:0:0:0:
448,192,30179,1,0,0:0:0:0:
