osu file format v14

[General]
AudioFilename: audio.mp3
AudioLeadIn: 0
PreviewTime: 4598
Countdown: 0
SampleSet: Soft
StackLeniency: 0.7
Mode: 0
LetterboxInBreaks: 0
WidescreenStoryboard: 0

[Editor]
DistanceSpacing: 0.4
BeatDivisor: 4
GridSize: 4
TimelineZoom: 1.7

[Metadata]
Title:Koise yo Minna, Hai! (TV Size)
TitleUnicode:恋せよみんな、ハイ!(TV Size)
Artist:Pyxis
ArtistUnicode:Pyxis
Creator:Imakuri
Version:Advanced
Source:ノブナガ先生の幼な妻
Tags:ピクシス pop jpop japanese anime nobnaga-sensei no osanazuma
BeatmapID:2054968
BeatmapSetID:981859

[Difficulty]
HPDrainRate:4
CircleSize:3.6
OverallDifficulty:5
ApproachRate:5
SliderMultiplier:1.2
SliderTickRate:1

[Events]
//Background and Video events
0,0,"background.jpg",0,0
//Break Periods
//Storyboard Layer 0 (Background)
//Storyboard Layer 1 (Fail)
//Storyboard Layer 2 (Pass)
//Storyboard Layer 3 (Foreground)
//Storyboard Layer 4 (Overlay)
//Storyboard Sound Samples

[TimingPoints]
98,375,4,2,0,75,1,0
6122,375,4,2,0,75,1,0
6122,-100,4,2,0,75,0,0
7247,-100,4,2,0,75,0,0
7622,-100,4,2,0,75,0,0
8747,-100,4,2,0,75,0,0
9122,-100,4,2,0,75,0,0
11653,-100,4,2,0,75,0,0
11747,-100,4,2,0,75,0,0
12122,-100,4,2,0,75,0,0
13247,-100,4,2,0,75,0,0
13622,-100,4,2,0,75,0,0
14747,-100,4,2,0,75,0,0
15122,-100,4,2,0,75,0,0
18122,-100,4,2,0,85,0,1
29372,-100,4,2,0,75,0,0
30122,-100,4,2,0,5,0,0

[Colours]
Combo1 : 255,255,128
Combo2 : 255,128,64
Combo3 : 0,128,0
Combo4 : 128,64,64

[HitObjects]
399,129,98,6,0,L|150:115,1,240
23,202,1223,1,8,0:0:0:0:
23,202,1598,6,0,P|9:249|33:342,2,120,4|2|8,0:0|0:0|0:0,0:0:0:0:
173,263,2723,2,0,L|249:266,1,60,2|0,0:0|0:0,0:0:0:0:
296,213,3098,2,0,L|369:216,1,60,10|0,0:0|0:0,0:0:0:0:
413,274,3473,2,0,L|494:278,1,60,2|0,0:0|0:0,0:0:0:0:
496,199,3848,6,0,B|536:123|495:26|495:26|478:78|446:88,1,240,10|4,3:2|0:0,0:0:0:0:
77,0,6122,6,0,P|56:45|76:129,1,120,6|10,0:3|0:3,0:0:0:0:
113,180,6684,1,2,0:0:0:0:
163,245,6872,2,0,L|154:317,2,60,10|2|10,0:0|0:0|0:3,0:0:0:0:
233,99,7622,6,0,B|294:81|294:81|356:98,1,120,10|10,0:0|0:3,0:0:0:0:
419,138,8184,1,2,0:0:0:0:
493,169,8372,2,0,L|511:103,2,60,10|2|10,0:0|0:0|0:3,0:0:0:0:
482,332,9122,6,0,P|431:348|351:333,1,120,8|2,0:0|0:0,0:0:0:0:
294,296,9684,1,0,0:0:0:0:
231,244,9872,2,0,P|178:227|97:249,1,120,8|2,0:0|0:0,0:0:0:0:
45,282,10434,1,0,0:0:0:0:
12,208,10622,6,0,L|10:139,1,60,8|0,0:0|0:0,0:0:0:0:
85,115,10997,2,0,L|83:46,1,60,2|0,0:0|0:0,0:0:0:0:
151,10,11372,2,0,L|294:4,1,120,8|2,0:0|0:0,0:0:0:0:
374,131,12122,6,0,L|243:129,1,120,10|10,0:0|0:3,0:0:0:0:
172,139,12684,1,2,0:0:0:0:
118,201,12872,2,0,P|84:202|49:212,2,60,10|2|10,0:0|0:0|0:3,0:0:0:0:
224,323,13622,6,0,L|362:313,1,120,10|10,0:0|0:3,0:0:0:0:
407,262,14184,1,2,0:0:0:0:
481,298,14372,2,0,L|475:365,2,60,10|2|10,0:0|0:0|0:3,0:0:0:0:
466,137,15122,6,0,L|471:67,2,60,8|0|2,0:0|0:0|0:0,0:0:0:0:
384,142,15684,2,0,L|389:72,2,60,0|8|0,0:0|0:0|0:0,0:0:0:0:
312,179,16247,1,2,0:0:0:0:
242,141,16434,1,0,0:0:0:0:
166,171,16622,6,0,L|96:175,1,60,8|0,0:0|0:0,0:0:0:0:
100,256,16997,2,0,L|179:252,1,60,2|0,0:0|0:0,0:0:0:0:
227,301,17372,2,0,P|254:334|318:339,2,90,8|8|8,0:3|0:3|0:3,0:0:0:0:
143,167,18309,6,0,L|69:173,2,60,2|10|2,0:0|0:0|0:0,0:0:0:0:
198,108,18872,2,0,P|261:90|328:126,1,120,2|10,0:0|0:0,0:0:0:0:
365,167,19434,1,2,0:0:0:0:
461,294,19809,6,0,P|514:299|546:298,2,60,2|10|2,0:0|0:0|0:0,0:0:0:0:
390,335,20372,2,0,P|355:337|309:348,1,60,2|2,0:0|0:0,0:0:0:0:
251,357,20747,1,10,0:0:0:0:
251,357,20934,1,2,0:0:0:0:
104,296,21309,6,0,P|82:297|36:309,2,60,2|10|2,0:0|0:0|0:0,0:0:0:0:
151,230,21872,2,0,P|154:190|150:167,1,60,2|2,0:0|0:0,0:0:0:0:
74,149,22247,2,0,P|71:112|76:78,1,60,10|2,0:0|0:0,0:0:0:0:
112,19,22622,6,0,L|35:15,2,60,2|2|10,0:0|0:0|0:0,0:0:0:0:
167,77,23184,1,2,0:0:0:0:
223,19,23372,2,0,P|266:8|359:31,1,120,2|2,0:3|0:3,0:0:0:0:
443,236,24309,6,0,P|451:272|469:305,2,60,2|10|2,0:0|0:0|0:0,0:0:0:0:
372,199,24872,2,0,L|237:207,1,120,2|10,0:0|0:0,0:0:0:0:
171,214,25434,1,2,0:0:0:0:
42,305,25809,6,0,L|38:371,2,60,2|10|2,0:0|0:0|0:0,0:0:0:0:
82,235,26372,2,0,P|88:192|84:152,1,60,2|2,0:0|0:0,0:0:0:0:
38,112,26747,1,10,0:0:0:0:
38,112,26934,1,2,0:0:0:0:
186,17,27309,6,0,L|316:8,1,120,2|2,0:0|0:0,0:0:0:0:
380,45,27872,2,0,P|388:75|384:107,1,60,2|0,0:0|0:0,0:0:0:0:
320,154,28247,1,10,0:0:0:0:
454,242,28622,6,0,L|514:232,2,60,2|0|10,0:0|0:0|0:0,0:0:0:0:
400,300,29184,1,0,0:0:0:0:
400,300,29372,6,0,L|328:296,1,60,6|0,0:0|0:0,0:0:0:0:
258,287,29747,2,0,P|214:283|146:342,1,120,0|0,0:0|0:0,0:0:0:0:
