osu file format v14

[General]
AudioFilename: audio.mp3
AudioLeadIn: 0
PreviewTime: -1
Countdown: 0
SampleSet: None
StackLeniency: 0.7
Mode: 0
LetterboxInBreaks: 0
WidescreenStoryboard: 1

[Editor]
DistanceSpacing: 0.8
BeatDivisor: 1
GridSize: 32
TimelineZoom: 1

[Metadata]
Title:Cherchez la femme
TitleUnicode:Cherchez la femme
Artist:Pyrokinesis
ArtistUnicode:Pyrokinesis
Creator:snxosu
Version:hard..
Source:
Tags:
BeatmapID:4556415
BeatmapSetID:2160698

[Difficulty]
HPDrainRate:7.4
CircleSize:6.1
OverallDifficulty:7.3
ApproachRate:7.3
SliderMultiplier:2.00000000596047
SliderTickRate:1

[Events]
//Background and Video events
0,0,"ыы.jpg",0,0
//Break Periods
2,30866,33766
2,46199,49766
2,88199,97099
2,104866,108099
//Storyboard Layer 0 (Background)
//Storyboard Layer 1 (Fail)
//Storyboard Layer 2 (Pass)
//Storyboard Layer 3 (Foreground)
//Storyboard Layer 4 (Overlay)
//Storyboard Sound Samples

[TimingPoints]
0,333.333333333333,4,1,0,100,1,0

[Colours]
Combo1 : 255,255,255
Combo2 : 255,255,255

[HitObjects]
256,192,666,5,0,0:0:0:0:
256,192,1333,5,0,0:0:0:0:
96,192,1666,6,0,L|320:192,1,200.000000596047
320,192,2333,5,0,0:0:0:0:
352,192,2666,5,8,0:0:0:0:
384,192,2999,5,0,0:0:0:0:
352,192,3333,5,8,0:0:0:0:
320,192,3666,5,0,0:0:0:0:
288,192,3999,6,0,L|96:96,1,200.000000596047
96,96,4666,5,0,0:0:0:0:
160,96,4999,5,0,0:0:0:0:
224,96,5333,5,0,0:0:0:0:
256,192,5999,12,0,7666,0:0:0:0:
224,192,8666,5,8,0:0:0:0:
288,192,8999,5,8,0:0:0:0:
256,256,9333,5,8,0:0:0:0:
256,128,9666,5,0,0:0:0:0:
256,192,9999,6,0,P|64:128|64:96,1,200.000000596047
64,160,10666,5,0,0:0:0:0:
128,160,11333,5,0,0:0:0:0:
192,160,11666,6,0,P|384:96|384:64,1,200.000000596047
384,128,12333,5,0,0:0:0:0:
384,192,12666,5,0,0:0:0:0:
256,192,13333,5,8,0:0:0:0:
160,192,13666,5,8,0:0:0:0:
192,128,13999,5,8,0:0:0:0:
256,96,14333,5,8,0:0:0:0:
320,128,14666,5,8,0:0:0:0:
352,192,14999,5,8,0:0:0:0:
320,256,15333,5,8,0:0:0:0:
256,288,15666,5,8,0:0:0:0:
192,256,15999,5,8,0:0:0:0:
160,192,16333,5,8,0:0:0:0:
160,128,16666,6,0,P|384:128|448:160,1,200.000000596047
384,128,17333,6,0,P|160:128|96:96,1,200.000000596047
160,128,17999,5,0,0:0:0:0:
256,192,18666,12,0,19999,0:0:0:0:
256,192,20666,5,0,0:0:0:0:
160,192,20999,6,0,L|384:192,1,200.000000596047
384,192,21666,5,8,0:0:0:0:
352,192,21999,5,8,0:0:0:0:
320,192,22333,6,0,L|96:192,1,200.000000596047
96,192,22999,5,0,0:0:0:0:
256,192,23666,5,0,0:0:0:0:
192,192,23999,5,0,0:0:0:0:
128,192,24333,6,8,L|256:32,1,200.000000596047
320,32,24999,5,0,0:0:0:0:
320,96,25333,6,8,L|192:256,1,200.000000596047
128,256,25999,5,0,0:0:0:0:
256,192,26666,12,0,28666,0:0:0:0:
256,192,29333,5,0,0:0:0:0:
256,192,29999,5,8,0:0:0:0:
256,192,30666,5,0,0:0:0:0:
256,192,34666,5,0,0:0:0:0:
256,192,35999,6,4,P|32:192|64:128,1,400.000001192094
32,128,36999,6,0,P|256:128|224:64,1,400.000001192094
224,64,37999,5,4,0:0:0:0:
256,192,38666,12,0,40333,0:0:0:0:
192,192,41333,6,8,L|0:128,1,200.000000596047
0,96,41999,6,0,L|192:160,1,200.000000596047
192,128,42666,6,8,L|0:64,1,200.000000596047
0,32,43333,6,0,L|192:96,1,200.000000596047
192,96,43999,5,8,0:0:0:0:
256,96,44666,6,0,P|480:96|512:128,1,200.000000596047
480,128,45333,6,0,P|256:128|224:160,1,200.000000596047
256,128,45999,5,8,0:0:0:0:
256,192,50666,12,0,52666,0:0:0:0:
256,192,52999,5,0,0:0:0:0:
160,192,53666,6,0,L|384:192,1,200.000000596047
384,192,54333,5,0,0:0:0:0:
352,192,54666,6,0,L|128:192,1,200.000000596047
128,192,55333,5,8,0:0:0:0:
160,192,55666,6,0,P|384:192|256:192,2,200.000000596047
128,192,56666,5,0,0:0:0:0:
256,192,57333,5,0,0:0:0:0:
160,96,57666,5,8,0:0:0:0:
256,192,57999,5,0,0:0:0:0:
352,96,58333,5,8,0:0:0:0:
256,192,58666,5,0,0:0:0:0:
352,288,58999,5,8,0:0:0:0:
256,192,59333,5,0,0:0:0:0:
160,288,59666,5,8,0:0:0:0:
256,192,59999,5,0,0:0:0:0:
256,192,60666,6,0,P|32:192|0:352,1,400.000001192094
64,352,61666,6,0,P|224:224|224:352,1,400.000001192094
224,352,62666,5,8,0:0:0:0:
256,320,62999,6,0,P|256:96|192:96,1,200.000000596047
288,96,63666,5,0,0:0:0:0:
256,192,63999,12,0,66999,0:0:0:0:
256,192,67333,5,8,0:0:0:0:
256,192,67999,5,0,0:0:0:0:
160,192,68666,6,0,L|384:192,1,200.000000596047
416,192,69333,5,0,0:0:0:0:
416,256,69666,5,8,0:0:0:0:
352,256,69999,6,0,L|128:256,1,200.000000596047
96,256,70666,5,0,0:0:0:0:
96,192,70999,5,8,0:0:0:0:
256,192,71999,5,0,0:0:0:0:
352,192,72666,5,8,0:0:0:0:
160,192,73333,5,0,0:0:0:0:
256,96,73999,5,8,0:0:0:0:
256,288,74666,5,0,0:0:0:0:
256,192,75333,5,8,0:0:0:0:
256,192,75999,5,0,0:0:0:0:
256,192,76666,5,8,0:0:0:0:
256,192,77333,5,0,0:0:0:0:
256,192,78333,5,8,0:0:0:0:
320,192,78666,5,0,0:0:0:0:
352,192,79666,6,0,L|128:192,1,200.000000596047
96,192,80333,5,0,0:0:0:0:
32,192,80666,5,8,0:0:0:0:
32,128,80999,6,0,P|256:128|256:224,1,200.000000596047
256,128,81666,5,0,0:0:0:0:
256,192,82666,5,8,0:0:0:0:
256,192,83333,5,0,0:0:0:0:
192,192,83999,5,8,0:0:0:0:
320,192,84666,5,0,0:0:0:0:
256,192,85333,12,0,86666,0:0:0:0:
256,192,87333,5,8,0:0:0:0:
256,192,87999,5,0,0:0:0:0:
256,192,97999,5,0,0:0:0:0:
256,256,98333,6,0,L|32:256,1,200.000000596047
0,256,98999,5,8,0:0:0:0:
0,192,99333,5,0,0:0:0:0:
64,192,99666,5,8,0:0:0:0:
128,192,99999,6,0,L|352:192,1,200.000000596047
320,256,100666,6,0,L|96:256,1,200.000000596047
64,256,101333,5,8,0:0:0:0:
64,192,101666,5,0,0:0:0:0:
96,128,101999,5,8,0:0:0:0:
160,96,102333,5,0,0:0:0:0:
224,128,102666,5,8,0:0:0:0:
256,192,102999,5,0,0:0:0:0:
256,256,103333,6,0,L|256:32,1,200.000000596047
256,96,103999,5,0,0:0:0:0:
256,160,104333,5,8,0:0:0:0:
256,224,104666,5,0,0:0:0:0:
256,192,108999,5,4,0:0:0:0:
256,192,109999,12,0,111999,0:0:0:0:
256,192,112666,5,8,0:0:0:0:
256,192,114666,5,0,0:0:0:0:
192,192,115999,5,8,0:0:0:0:
320,192,117333,5,0,0:0:0:0:
256,256,118666,5,8,0:0:0:0:
256,128,119999,5,0,0:0:0:0:
256,192,121333,5,8,0:0:0:0:
256,192,122666,6,0,L|32:192,1,200.000000596047
256,192,123333,6,0,L|480:192,1,200.000000596047
256,192,123999,5,8,0:0:0:0:
256,192,125333,12,0,126666,0:0:0:0:
256,192,127999,5,8,0:0:0:0:
256,192,128333,6,0,L|32:192,2,200.000000596047
256,192,129333,5,8,0:0:0:0:
256,192,129666,6,0,L|480:192,2,200.000000596047
256,192,130666,5,8,0:0:0:0:
256,192,131666,12,0,133000,0:0:0:0:
256,192,133333,5,8,0:0:0:0:
