osu file format v14

[General]
AudioFilename: Cleopatrysm.mp3
AudioLeadIn: 0
PreviewTime: 76169
Countdown: 0
SampleSet: Soft
StackLeniency: 0.2
Mode: 0
LetterboxInBreaks: 0
WidescreenStoryboard: 1

[Editor]
Bookmarks: 46350,82824
DistanceSpacing: 1.3
BeatDivisor: 4
GridSize: 32
TimelineZoom: 2.4

[Metadata]
Title:Cleopatrysm
TitleUnicode:Cleopatrysm
Artist:PyramiD
ArtistUnicode:ピラミッ℃
Creator:6th
Version:Insane
Source:発見!よみがえったBEMANI遺跡
Tags:Nekomata Master 96 Sota Fujimori Shoccho Akhuta Camellia Jager-kun Sharu
BeatmapID:1428655
BeatmapSetID:675326

[Difficulty]
HPDrainRate:6.5
CircleSize:4
OverallDifficulty:8
ApproachRate:9.5
SliderMultiplier:1.4
SliderTickRate:1

[Events]
//Background and Video events
0,0,"pyramids-fantasy-art-futuristic.jpg",0,0
//Break Periods
2,66391,68192
//Storyboard Layer 0 (Background)
//Storyboard Layer 1 (Fail)
//Storyboard Layer 2 (Pass)
//Storyboard Layer 3 (Foreground)
//Storyboard Sound Samples

[TimingPoints]
1770,315.789473684211,4,2,0,65,1,0
1770,-133.333333333333,4,2,0,65,0,0
9033,-66.6666666666667,4,2,0,65,0,0
9348,-100,4,2,0,65,0,0
30191,-66.6666666666667,4,2,0,65,0,0
30506,-133.333333333333,4,2,0,65,0,0
33348,-133.333333333333,4,2,0,65,0,0
34612,-66.6666666666667,4,2,0,65,0,0
35243,-55.5555555555556,4,2,0,65,0,0
35875,-62.5,4,2,0,65,0,0
36507,-83.3333333333333,4,2,0,65,0,0
36822,-66.6666666666667,4,2,0,65,0,0
37454,-62.5,4,2,0,65,0,0
37770,-76.9230769230769,4,2,0,65,0,0
38085,-100,4,2,0,65,0,0
38401,-62.5,4,2,0,65,0,0
39033,-83.3333333333333,4,2,0,65,0,0
40296,-100,4,2,0,65,0,0
40928,-62.5,4,2,0,65,0,0
41559,-83.3333333333333,4,2,0,65,0,0
41875,-66.6666666666667,4,2,0,65,0,0
42507,-62.5,4,2,0,65,0,0
42822,-76.9230769230769,4,2,0,65,0,0
43454,-62.5,4,2,0,65,0,0
44085,-83.3333333333333,4,2,0,65,0,0
44401,-83.3333333333333,4,2,0,65,0,0
44717,-100,4,2,0,65,0,0
45980,-62.5,4,2,0,65,0,0
46612,-83.3333333333333,4,2,0,65,0,0
46928,-66.6666666666667,4,2,0,65,0,0
47559,-62.5,4,2,0,65,0,0
47875,-76.9230769230769,4,2,0,65,0,0
48506,-62.5,4,2,0,65,0,0
49138,-83.3333333333333,4,2,0,65,0,0
50401,-100,4,2,0,65,0,0
51033,-62.5,4,2,0,65,0,0
51664,-83.3333333333333,4,2,0,65,0,0
51980,-66.6666666666667,4,2,0,65,0,0
52612,-62.5,4,2,0,65,0,0
52928,-76.9230769230769,4,2,0,65,0,0
53559,-100,4,2,0,65,0,0
56085,-133.333333333333,4,2,0,65,0,0
66191,-133.333333333333,4,2,0,65,0,0
68717,-133.333333333333,4,2,0,50,0,0
75033,-100,4,2,0,65,0,0
75664,-55.5555555555556,4,2,0,65,0,0
76296,-50,4,2,0,65,0,1
88927,-40,4,2,0,80,0,1
90033,-36.3636363636364,4,2,0,50,0,0
91454,-100,4,2,0,65,0,0

[Colours]
Combo1 : 158,74,251
Combo2 : 157,234,228
Combo3 : 73,187,224
Combo4 : 240,134,190

[HitObjects]
194,318,1296,6,0,L|143:314,4,35
242,245,1770,6,0,P|254:198|252:180,1,52.5000020027161,0|0,1:0|0:0,0:0:0:0:
254,180,2006,1,0,0:0:0:0:
249,168,2084,1,0,0:0:0:0:
289,309,2243,2,0,P|340:297|378:244,1,105.000004005432,0|0,1:0|0:0,0:0:0:0:
385,241,2638,1,0,0:0:0:0:
390,218,2717,1,0,0:0:0:0:
386,194,2796,1,0,0:0:0:0:
381,173,2875,6,0,P|330:183|295:221,1,105.000004005432,0|0,1:0|0:0,0:0:0:0:
373,258,3349,1,0,0:0:0:0:
146,350,3507,2,0,L|127:239,1,105.000004005432,0|0,1:0|0:0,0:0:0:0:
134,234,3901,1,0,0:0:0:0:
143,220,3980,2,0,L|160:184,2,26.2500010013581
99,101,4297,6,0,L|210:109,1,105.000004005432,0|0,1:0|0:0,0:0:0:0:
308,108,4770,2,0,L|413:101,1,105.000004005432,0|0,1:0|0:0,0:0:0:0:
463,180,5243,1,0,0:0:0:0:
463,180,5322,1,0,0:0:0:0:
463,180,5401,1,0,1:0:0:0:
405,241,5559,6,0,B|400:268|400:268|411:304,1,52.5000020027161
237,263,5875,1,0,0:0:0:0:
314,308,6034,2,0,B|321:331|321:331|316:358,1,52.5000020027161,0|0,1:0|0:0,0:0:0:0:
166,317,6349,2,0,L|126:322,3,26.2500010013581,0|0|0|0,0:0|0:0|1:0|0:0,0:0:0:0:
237,263,6664,1,0,0:0:0:0:
48,345,6822,6,0,P|43:319|47:293,1,52.5000020027161,0|0,1:0|0:0,0:0:0:0:
58,279,7059,1,0,0:0:0:0:
72,265,7138,1,0,0:0:0:0:
122,193,7296,2,0,L|133:73,1,105.000004005432,0|0,1:0|0:0,0:0:0:0:
152,80,7691,1,0,0:0:0:0:
178,74,7770,1,0,0:0:0:0:
203,67,7849,1,0,0:0:0:0:
217,44,7928,6,0,L|206:164,1,105.000004005432,0|0,1:0|0:0,0:0:0:0:
339,120,8401,1,0,0:0:0:0:
286,183,8559,2,0,L|290:236,1,52.5000020027161,0|0,1:0|0:0,0:0:0:0:
335,105,8875,5,0,1:0:0:0:
290,236,9034,2,0,P|332:234|378:262,1,52.5000020027161,2|0,1:0|0:0,0:0:0:0:
443,87,9191,2,0,P|465:51|464:-3,1,52.5000020027161,2|0,1:0|0:0,0:0:0:0:
478,222,9349,6,0,P|442:281|445:307,1,70,4|0,1:0|0:0,0:0:0:0:
442,279,9585,1,0,0:0:0:0:
442,279,9664,1,0,1:0:0:0:
244,153,9822,2,0,P|277:213|364:232,1,140,4|0,1:0|1:0,0:0:0:0:
151,361,10296,1,0,0:0:0:0:
186,276,10454,6,0,P|133:321|65:319,3,140,4|0|0|0,1:0|0:0|0:0|0:0,0:0:0:0:
106,241,11559,6,0,L|101:193,1,35,2|0,0:0|0:0,0:0:0:0:
268,322,11717,2,0,L|264:356,1,35,2|0,0:0|0:0,0:0:0:0:
383,246,11875,6,0,P|437:232|520:275,1,140,0|0,1:0|0:0,0:0:0:0:
401,117,12349,2,0,P|415:171|372:254,1,140,0|0,1:0|0:0,0:0:0:0:
497,163,12822,1,0,1:0:0:0:
382,245,12980,2,0,P|328:230|277:151,1,140,0|0,1:0|0:0,0:0:0:0:
315,75,13454,1,2,0:0:0:0:
416,60,13612,2,0,L|497:50,1,70,0|0,1:0|0:0,0:0:0:0:
293,200,13928,1,0,1:0:0:0:
382,245,14085,1,0,0:0:0:0:
315,75,14243,6,0,P|246:78|194:122,1,140,2|0,1:0|1:0,0:0:0:0:
132,66,14717,2,0,P|111:37|108:-3,1,70,0|0,1:0|0:0,0:0:0:0:
106,3,14954,1,2,0:0:0:0:
106,3,15033,1,0,1:0:0:0:
115,143,15191,1,2,0:0:0:0:
36,206,15349,1,2,0:0:0:0:
99,352,15507,6,0,L|107:283,1,70,0|0,1:0|0:0,0:0:0:0:
183,218,15822,2,0,P|215:212|255:227,1,70,0|0,1:0|0:0,0:0:0:0:
494,367,16138,2,0,P|459:372|427:361,1,70,0|0,1:0|0:0,0:0:0:0:
322,356,16454,2,0,L|330:287,1,70,0|0,1:0|0:0,0:0:0:0:
359,44,16769,1,2,1:2:0:0:
359,44,16849,1,2,0:0:0:0:
359,44,16928,6,0,L|341:182,1,140,4|0,1:0|0:0,0:0:0:0:
330,286,17401,1,0,0:0:0:0:
421,313,17560,1,0,1:0:0:0:
357,379,17717,1,2,0:0:0:0:
241,257,17875,1,2,0:0:0:0:
190,335,18033,6,0,L|47:348,1,140,0|0,1:0|0:0,0:0:0:0:
11,274,18507,2,0,B|4:239|4:239|30:182,1,70,0|0,1:0|0:0,0:0:0:0:
50,347,18822,2,0,L|42:399,2,35,2|0|0,1:2|0:0|0:0,0:0:0:0:
19,207,19138,1,2,1:0:0:0:
180,254,19296,6,0,L|111:251,1,70,2|0,1:0|0:0,0:0:0:0:
234,129,19612,1,2,0:0:0:0:
72,138,19770,1,0,1:0:0:0:
234,129,19928,2,0,L|143:134,1,70,2|0,1:0|0:0,0:0:0:0:
19,207,20244,1,2,0:0:0:0:
114,62,20402,1,2,0:0:0:0:
152,298,20560,6,0,P|211:320|296:269,1,140,0|0,1:0|0:0,0:0:0:0:
346,190,21033,1,0,0:0:0:0:
512,277,21191,2,0,P|447:299|385:271,1,140,0|0,1:0|0:0,0:0:0:0:
346,190,21664,1,2,0:0:0:0:
502,113,21822,1,2,0:0:0:0:
354,21,21980,6,0,B|303:27|303:27|272:54|272:54|213:60,1,140,0|0,1:0|0:0,0:0:0:0:
137,153,22454,2,0,P|127:106|154:73,1,70,0|0,1:0|0:0,0:0:0:0:
135,88,22691,1,2,0:0:0:0:
135,88,22770,1,0,1:0:0:0:
215,207,22928,1,0,1:0:0:0:
191,294,23085,6,0,L|174:371,1,70,0|0,1:0|0:0,0:0:0:0:
124,226,23402,2,0,L|101:157,2,70,0|0|0,1:0|0:0|1:0,0:0:0:0:
191,294,23875,1,0,1:0:0:0:
275,239,24034,1,0,0:0:0:0:
263,216,24112,1,0,0:0:0:0:
242,203,24191,1,0,0:0:0:0:
191,294,24349,6,0,B|343:305,1,140,0|0,1:0|0:0,0:0:0:0:
333,209,24822,2,0,L|250:218,1,70,0|0,1:0|0:0,0:0:0:0:
408,138,25138,2,2,P|412:118|410:103,2,35
419,245,25454,2,0,L|427:317,1,70,0|0,1:0|1:0,0:0:0:0:
340,350,25770,5,0,0:0:0:0:
274,293,25928,2,0,P|301:271|334:263,1,70,0|0,1:0|0:0,0:0:0:0:
487,344,26243,2,0,P|453:335|426:313,1,70,0|0,1:0|0:0,0:0:0:0:
421,146,26559,2,0,P|427:181|419:215,1,70,0|0,1:0|0:0,0:0:0:0:
340,350,26875,1,0,1:0:0:0:
156,224,27033,6,0,P|84:218|38:278,1,140,0|0,1:0|0:0,0:0:0:0:
127,358,27507,1,2,0:0:0:0:
156,224,27665,2,0,P|186:158|261:148,1,140,8|0,1:0|0:0,0:0:0:0:
256,320,28138,1,2,0:0:0:0:
356,224,28296,6,0,P|428:218|474:278,1,140,0|0,1:0|0:0,0:0:0:0:
385,358,28770,1,2,0:0:0:0:
356,224,28928,2,0,P|326:158|251:148,1,140,8|0,1:0|0:0,0:0:0:0:
256,32,29402,1,0,0:0:0:0:
109,60,29560,5,2,0:0:0:0:
86,86,29638,1,2,0:0:0:0:
79,120,29717,1,2,0:0:0:0:
90,152,29796,1,2,0:0:0:0:
114,177,29876,1,2,0:0:0:0:
147,171,29954,1,2,0:0:0:0:
180,182,30033,1,2,0:0:0:0:
203,208,30112,1,2,0:0:0:0:
205,243,30192,1,2,0:0:0:0:
182,269,30271,1,2,0:0:0:0:
149,280,30348,1,2,0:0:0:0:
116,274,30428,1,2,0:0:0:0:
79,246,30507,5,4,1:0:0:0:
192,340,30822,1,0,0:0:0:0:
256,256,31138,1,0,1:0:0:0:
320,340,31454,1,2,1:0:0:0:
407,234,31770,2,0,L|392:188,1,35.0000013351441,0|0,1:0|0:0,0:0:0:0:
184,219,32085,2,0,L|199:173,1,35.0000013351441,0|0,1:0|0:0,0:0:0:0:
301,135,32401,1,0,1:0:0:0:
256,32,32717,1,2,1:0:0:0:
313,134,33349,5,2,0:0:0:0:
319,186,33506,1,2,0:0:0:0:
326,238,33664,1,2,0:0:0:0:
333,290,33822,1,2,0:0:0:0:
439,370,33981,5,2,0:0:0:0:
445,317,34138,1,2,0:0:0:0:
452,265,34296,1,2,0:0:0:0:
459,213,34454,1,2,0:0:0:0:
459,132,34612,6,2,B|431:133|402:156,1,52.5000020027161
337,240,34771,2,2,B|309:239|280:216,1,52.5000020027161
223,132,34928,2,2,B|195:133|166:156,1,52.5000020027161
101,240,35085,2,2,B|73:239|44:216,1,52.5000020027161
27,89,35243,5,0,1:0:0:0:
27,89,35322,1,0,1:0:0:0:
27,89,35401,1,0,1:0:0:0:
27,89,35480,1,0,1:0:0:0:
27,89,35559,1,0,1:0:0:0:
27,89,35638,1,0,1:0:0:0:
27,89,35717,2,0,L|101:80,1,62.9999980773926,2|0,0:0|0:0,0:0:0:0:
337,163,35875,6,0,L|169:151,1,168,4|0,1:0|0:0,0:0:0:0:
165,165,36191,2,0,L|179:240,1,56,2|0,0:0|0:0,0:0:0:0:
193,328,36349,2,0,L|207:403,1,56,2|0,0:0|0:0,0:0:0:0:
96,239,36507,6,0,L|263:250,1,167.999994873047,8|0,1:0|0:0,0:0:0:0:
325,324,36901,1,0,0:0:0:0:
350,318,36979,1,0,1:0:0:0:
376,313,37058,1,2,1:0:0:0:
402,308,37137,1,0,0:3:0:0:
449,337,37217,1,0,0:0:0:0:
451,311,37295,1,0,1:0:0:0:
455,285,37374,1,0,1:0:0:0:
458,260,37454,6,0,B|436:108|436:108|415:175,1,224,4|8,1:0|1:0,0:0:0:0:
312,219,37928,1,0,1:0:0:0:
361,51,38085,1,0,0:0:0:0:
168,160,38243,2,0,L|236:167,1,35,0|0,1:0|3:0,0:0:0:0:
361,51,38401,6,0,P|404:1|339:7,1,168,4|0,1:0|0:0,0:0:0:0:
291,102,38717,2,0,B|280:135|280:135|286:155,2,56,0|0|0,1:0|0:0|1:0,0:0:0:0:
343,217,39033,1,8,1:0:0:0:
460,325,39191,1,0,0:0:0:0:
348,368,39348,6,0,L|376:314,1,41.9999987182618,2|2,1:0|0:0,0:0:0:0:
449,171,39506,2,0,L|430:209,1,41.9999987182618,0|0,1:0|0:0,0:0:0:0:
348,368,39664,6,0,B|317:372|317:372|295:384,2,55.9999982910157,2|2|0,1:0|3:3|2:0,1:0:0:0:
449,171,39980,2,0,B|480:167|480:167|502:155,2,55.9999982910157,2|2|0,1:0|3:3|1:0,1:0:0:0:
308,273,40296,6,0,B|378:266|378:266|439:289|439:289|523:279,1,210,4|0,1:0|0:0,0:0:0:0:
336,346,40928,6,0,P|374:311|395:182,1,168,4|0,1:0|0:0,0:0:0:0:
428,119,41244,2,0,L|408:66,1,56
316,80,41402,2,0,L|336:133,1,56
240,151,41560,6,0,B|209:135|209:135|75:168,1,167.999994873047,8|0,1:0|0:0,0:0:0:0:
26,228,41955,1,0,0:0:0:0:
32,253,42033,1,0,1:0:0:0:
37,279,42112,1,2,1:0:0:0:
42,305,42191,1,0,0:0:0:0:
16,348,42271,1,0,0:0:0:0:
41,363,42349,1,0,1:0:0:0:
65,366,42428,1,2,1:0:0:0:
90,361,42506,6,0,B|242:339|242:339|301:361,1,210.000008010865,4|8,1:0|1:0,0:0:0:0:
415,212,42981,1,0,1:0:0:0:
311,258,43138,2,0,L|379:286,1,45.4999979171754
485,329,43297,1,0,1:0:0:0:
415,212,43455,6,0,B|405:150|458:57|458:57|476:165,1,224,4|0,1:0|0:0,0:0:0:0:
384,303,43927,1,0,0:0:0:0:
314,183,44085,6,0,B|306:161|308:133|308:133|270:188|316:239,1,167.999994873047,8|0,1:0|0:0,0:0:0:0:
384,303,44559,1,0,0:0:0:0:
236,315,44717,5,0,0:0:0:0:
128,330,44875,2,0,L|121:370,1,35
38,296,45032,1,0,0:0:0:0:
38,296,45111,1,2,1:0:0:0:
38,296,45191,1,2,1:0:0:0:
93,217,45348,6,0,P|96:193|90:171,2,46.6666666666667,0|0|0,1:0|0:0|0:0,0:0:0:0:
134,102,45664,6,0,P|137:78|135:63,1,35,0|0,1:0|0:0,0:0:0:0:
16,197,45821,1,0,1:0:0:0:
162,271,45980,6,0,B|183:244|183:244|317:234,1,168,4|0,1:0|0:0,0:0:0:0:
387,181,46296,2,0,P|393:154|384:123,1,56
376,300,46454,2,0,P|370:327|379:358,1,56
454,245,46612,6,0,P|483:155|460:77,1,167.999994873047,8|0,1:0|0:0,0:0:0:0:
376,50,47005,1,0,0:0:0:0:
351,56,47085,1,0,1:0:0:0:
325,61,47164,1,0,1:0:0:0:
299,66,47243,1,0,0:0:0:0:
267,39,47323,1,0,0:0:0:0:
249,60,47401,1,0,1:0:0:0:
241,86,47480,1,0,1:0:0:0:
241,115,47560,6,0,B|69:93|69:93|119:126,1,224,4|8,1:0|1:0,0:0:0:0:
183,17,48033,1,0,1:0:0:0:
291,208,48190,1,0,0:0:0:0:
392,63,48348,2,0,L|324:70,1,45.4999979171754,0|0,1:0|3:0,0:0:0:0:
197,218,48506,6,0,B|165:193|165:193|291:208,1,168,4|0,1:0|0:0,0:0:0:0:
368,221,48822,2,0,B|372:192|372:192|359:164,2,56,0|0|0,1:0|0:0|0:0,0:0:0:0:
318,317,49138,1,8,1:0:0:0:
437,326,49296,1,0,0:0:0:0:
289,210,49454,6,0,L|346:209,1,41.9999987182618,2|0,1:0|0:0,0:0:0:0:
482,227,49612,2,0,L|418:232,1,41.9999987182618,2|0,1:0|0:0,0:0:0:0:
393,161,49770,6,0,B|396:134|396:134|384:107,2,55.9999982910157,0|2|0,1:0|3:3|2:0,1:0:0:0:
380,326,50085,2,0,B|377:353|377:353|388:379,2,55.9999982910157,0|2|0,1:0|3:3|1:0,1:0:0:0:
393,161,50401,6,0,B|243:173|243:173|294:209|294:209|353:204,1,245,4|0,1:0|0:0,0:0:0:0:
356,85,51033,6,0,L|165:99,1,168,4|0,1:0|0:0,0:0:0:0:
101,49,51349,2,0,L|50:25,1,56
47,164,51507,2,0,L|98:140,1,56
188,97,51665,6,0,B|208:129|208:129|184:288,1,167.999994873047,8|0,1:0|0:0,0:0:0:0:
178,352,52060,1,0,0:0:0:0:
203,346,52138,1,0,1:0:0:0:
229,341,52217,1,2,1:0:0:0:
255,336,52295,1,0,0:0:0:0:
300,363,52375,1,0,0:0:0:0:
313,339,52453,1,0,1:0:0:0:
314,309,52532,1,2,1:0:0:0:
302,286,52612,6,0,B|367:267|408:303|408:303|435:257|505:252,1,224,0|8,1:0|1:0,0:0:0:0:
414,348,53085,1,0,1:0:0:0:
338,204,53243,1,2,0:0:0:0:
451,182,53401,6,0,L|426:133,1,45.4999979171754,0|0,1:0|0:0,0:0:0:0:
364,0,53559,1,4,0:0:0:0:
256,192,53638,12,0,55770,0:0:0:0:
415,244,56085,6,0,L|407:186,1,52.5000020027161,0|0,1:0|0:0,0:0:0:0:
496,227,56401,1,0,0:0:0:0:
407,259,56559,2,0,P|350:269|288:242,1,105.000004005432,0|0,1:0|0:0,0:0:0:0:
76,285,57033,6,0,P|111:270|148:278,1,52.5000020027161,0|0,1:0|0:0,0:0:0:0:
224,355,57349,1,0,0:0:0:0:
123,346,57507,2,0,P|174:361|236:351,1,105.000004005432,0|0,1:0|0:0,0:0:0:0:
298,299,57980,6,0,P|320:236|260:283,1,183.750007009506,4|0,1:0|0:0,0:0:0:0:
164,245,58612,6,0,L|173:178,1,52.5000020027161,0|0,1:0|0:0,0:0:0:0:
191,98,58928,1,0,0:0:0:0:
146,167,59085,2,0,B|148:203|148:203|162:222|162:222|166:270,1,105.000004005432,0|0,1:0|0:0,0:0:0:0:
197,100,59559,2,0,B|200:54|200:54|214:35|214:35|216:0,1,105.000004005432,0|0,1:0|0:0,0:0:0:0:
291,261,60033,6,0,L|316:256,2,26.2500010013581,0|0|0,1:0|0:0|0:0,0:0:0:0:
244,190,60349,1,2,0:0:0:0:
293,270,60507,1,2,1:2:0:0:
374,197,60664,6,0,L|387:155,1,26.2500010013581,0|0,1:0|0:0,0:0:0:0:
428,284,60822,2,0,L|447:311,1,26.2500010013581,0|0,1:0|0:0,0:0:0:0:
475,137,60980,2,0,L|488:95,1,26.2500010013581,0|0,1:0|0:0,0:0:0:0:
342,351,61138,6,0,L|275:357,1,52.5000020027161,0|0,1:0|0:0,0:0:0:0:
295,270,61454,1,0,0:0:0:0:
346,358,61612,2,0,P|403:369|465:341,1,105.000004005432,0|0,1:0|0:0,0:0:0:0:
211,270,62086,6,0,P|188:258|163:256,1,52.5000020027161,0|0,1:0|0:0,0:0:0:0:
166,336,62402,1,0,0:0:0:0:
85,286,62559,2,0,P|115:326|166:336,1,105.000004005432,0|0,1:0|0:0,0:0:0:0:
195,256,63033,6,0,P|252:214|239:284,1,183.750007009506,4|0,1:0|0:0,0:0:0:0:
124,199,63665,6,0,L|133:132,1,52.5000020027161,0|0,1:0|0:0,0:0:0:0:
201,69,63981,1,0,0:0:0:0:
277,128,64138,2,0,B|346:142|346:142|397:120,1,105.000004005432,0|0,1:0|0:0,0:0:0:0:
493,214,64612,2,0,B|424:200|424:200|373:222,1,105.000004005432,0|0,1:0|0:0,0:0:0:0:
317,272,65086,6,0,L|291:267,2,26.2500010013581,0|0|0,1:0|0:0|0:0,0:0:0:0:
207,255,65402,1,2,0:0:0:0:
244,332,65560,1,2,0:0:0:0:
303,270,65717,6,0,P|303:246|292:225,2,26.2500010013581,4|0|0,1:0|0:0|0:0,0:0:0:0:
438,192,65955,2,0,P|426:188|416:180,2,26.2500010013581,4|0|0,1:0|0:0|0:0,0:0:0:0:
434,322,66191,1,4,1:0:0:0:
252,270,68717,6,0,L|324:279,1,52.5000020027161,0|0,1:0|0:0,0:0:0:0:
314,271,68954,1,0,0:0:0:0:
324,264,69033,1,0,0:0:0:0:
352,349,69191,6,0,B|380:333|380:333|462:349,1,105.000004005432,0|0,1:0|1:0,0:0:0:0:
436,265,69664,1,0,1:0:0:0:
436,265,69743,1,0,0:0:0:0:
436,265,69822,1,0,1:0:0:0:
377,103,69980,6,0,L|332:118,1,26.2500010013581,0|0,1:0|0:0,0:0:0:0:
250,191,70138,2,0,L|274:182,1,26.2500010013581,0|0,1:0|0:0,0:0:0:0:
376,193,70296,2,0,L|331:178,1,26.2500010013581,0|0,1:0|0:0,0:0:0:0:
247,102,70454,2,0,L|271:110,1,26.2500010013581,0|0,1:0|0:0,0:0:0:0:
200,345,70770,5,2,0:0:0:0:
200,345,70849,1,2,0:0:0:0:
200,345,70928,1,2,0:0:0:0:
200,345,71007,1,2,0:0:0:0:
200,345,71085,1,2,0:0:0:0:
116,307,71243,6,0,P|91:313|43:309,1,52.5000020027161,0|0,1:0|0:0,0:0:0:0:
174,220,71559,1,0,0:0:0:0:
81,235,71717,6,0,P|120:208|188:234,1,105.000004005432,0|0,1:0|1:0,0:0:0:0:
190,200,72112,1,0,0:0:0:0:
201,176,72190,1,0,0:0:0:0:
202,150,72269,1,0,0:0:0:0:
194,125,72349,6,0,P|155:98|87:124,1,105.000004005432,0|0,1:0|0:0,0:0:0:0:
248,59,72822,1,0,1:0:0:0:
292,131,72979,6,0,P|341:142|384:115,1,105.000004005432,2|0,1:0|1:0,0:0:0:0:
393,36,73454,1,2,1:0:0:0:
447,205,73612,1,2,1:0:0:0:
360,325,73770,6,2,L|401:319,4,26.2500010013581
278,350,74243,2,0,L|165:359,1,105.000004005432,0|0,1:0|0:0,0:0:0:0:
173,358,74638,1,2,0:0:0:0:
173,358,74717,1,2,0:0:0:0:
323,174,74875,5,0,0:0:0:0:
402,228,75033,2,0,P|435:236|468:226,1,70,2|0,1:0|0:0,0:0:0:0:
417,83,75349,2,0,P|402:50|372:29,1,70,2|0,1:0|0:0,0:0:0:0:
293,16,75585,1,0,0:0:0:0:
296,44,75664,1,0,1:2:0:0:
300,72,75742,1,0,1:2:0:0:
303,99,75821,5,0,1:2:0:0:
274,145,75900,1,0,1:2:0:0:
239,183,75980,1,2,1:2:0:0:
196,216,76058,1,2,1:2:0:0:
147,239,76137,1,2,1:2:0:0:
95,251,76216,1,2,1:2:0:0:
48,239,76296,6,0,P|108:210|203:262,1,140,4|0,1:0|0:0,0:0:0:0:
169,317,76533,1,0,0:0:0:0:
159,339,76612,2,0,P|135:351|85:342,1,70,8|0,1:0|0:0,0:0:0:0:
0,122,76770,6,0,B|67:102|67:102|103:114|103:114|137:97|137:97|252:119,1,210,0|0,1:0|0:0,0:0:0:0:
288,80,77085,6,0,L|275:179,1,70,0|0,1:0|0:0,0:0:0:0:
260,279,77243,2,0,L|247:378,1,70,8|0,1:1|0:0,0:0:0:0:
450,187,77401,6,0,P|521:219|439:252,1,210,0|0,1:0|0:0,0:0:0:0:
361,213,77717,6,0,B|354:178|354:178|371:128,1,70,0|0,1:0|0:0,0:0:0:0:
443,17,77875,2,0,B|450:52|450:52|438:84,1,70,8|0,1:0|0:0,0:0:0:0:
361,313,78033,6,0,B|278:307|278:307|234:327|234:327|117:323,1,210,0|0,1:0|0:0,0:0:0:0:
29,317,78349,5,0,1:0:0:0:
214,238,78507,2,2,L|288:207,3,70,10|2|2|2,1:0|0:0|0:0|0:0,0:0:0:0:
80,127,78822,6,0,B|57:236|57:236|83:224,1,140,0|0,1:0|0:0,0:0:0:0:
176,159,79059,1,0,1:0:0:0:
194,142,79138,2,0,P|197:93|176:63,1,70,8|0,0:1|0:0,0:0:0:0:
44,42,79296,6,0,L|273:28,1,210,0|0,1:0|0:0,0:0:0:0:
333,25,79612,1,0,1:0:0:0:
303,336,79770,1,8,1:0:0:0:
303,336,79849,1,0,1:0:0:0:
303,336,79928,6,0,P|265:317|228:316,1,70,0|0,1:0|0:0,0:0:0:0:
58,336,80085,2,0,P|22:359|3:390,1,70,2|0,1:2|0:0,0:0:0:0:
119,138,80243,2,0,P|119:173|133:205,1,70,0|0,1:0|0:0,0:0:0:0:
238,314,80401,2,0,P|268:330|302:335,1,70,8|0,1:0|0:0,0:0:0:0:
450,185,80559,6,0,B|489:161|489:161|287:144,1,210,0|0,1:0|0:0,0:0:0:0:
219,233,80875,5,2,0:2:0:0:
186,245,80953,1,2,0:2:0:0:
151,246,81032,1,10,0:1:0:0:
118,235,81111,1,2,0:2:0:0:
91,213,81190,1,2,0:2:0:0:
73,183,81269,1,2,0:2:0:0:
69,152,81349,5,6,1:0:0:0:
82,362,81506,1,2,1:0:0:0:
82,362,81585,1,2,1:0:0:0:
82,362,81664,2,0,L|75:280,1,70,8|0,1:0|0:0,0:0:0:0:
38,75,81822,6,0,B|89:61|123:90|123:90|156:78|156:78|195:112|238:96,1,210,6|0,1:2|0:0,0:0:0:0:
285,6,82138,6,0,P|250:5|218:19,1,70,2|0,1:0|0:0,0:0:0:0:
145,167,82296,2,0,P|176:181|213:180,1,70,10|0,1:0|0:0,0:0:0:0:
499,151,82454,6,0,B|533:106|533:106|346:132,1,210,2|0,1:2|0:0,0:0:0:0:
309,78,82770,6,0,L|291:172,1,70,2|0,1:0|0:0,0:0:0:0:
278,259,82927,2,0,L|260:353,1,70,10|0,1:0|0:0,0:0:0:0:
194,162,83085,6,0,P|146:252|184:345,1,210,2|0,1:2|0:0,0:0:0:0:
197,357,83400,5,2,1:0:0:0:
76,273,83559,2,2,B|52:263|52:263|9:272,3,70,10|2|2|2,1:0|0:0|0:0|0:0,0:0:0:0:
320,241,83875,6,0,P|247:232|182:335,1,140,2|0,1:0|0:0,0:0:0:0:
133,338,84112,1,0,1:0:0:0:
112,357,84191,2,0,P|82:366|31:354,1,70,10|0,1:0|0:0,0:0:0:0:
25,193,84348,6,0,B|56:141|56:141|106:176|113:238|49:311,1,210,2|0,1:0|0:0,0:0:0:0:
1,267,84665,1,0,1:0:0:0:
34,65,84823,1,8,1:0:0:0:
34,65,84902,1,0,1:0:0:0:
34,65,84981,6,0,L|107:56,1,70,2|0,1:0|0:0,0:0:0:0:
343,41,85138,2,0,L|270:32,1,70,2|0,1:0|0:0,0:0:0:0:
47,75,85296,6,0,L|120:66,1,70,2|0,1:0|0:0,0:0:0:0:
356,51,85454,2,0,L|283:42,1,70,10|0,1:0|0:0,0:0:0:0:
201,191,85612,6,0,P|241:276|356:224,1,210,2|0,1:0|0:0,0:0:0:0:
283,171,85927,5,2,0:0:0:0:
279,205,86005,1,2,0:0:0:0:
277,239,86084,1,10,1:0:0:0:
274,274,86163,1,2,0:0:0:0:
271,309,86242,1,2,0:0:0:0:
268,345,86321,1,2,0:0:0:0:
266,380,86401,5,2,1:0:0:0:
467,180,86560,1,2,1:0:0:0:
467,180,86639,1,2,1:0:0:0:
467,180,86717,2,0,L|385:173,1,70,10|0,1:0|0:0,0:0:0:0:
201,90,86875,6,0,B|170:68|170:68|157:203|157:203|121:173,1,210,2|0,1:0|0:0,0:0:0:0:
86,84,87191,6,0,B|83:49|83:49|97:18,1,70,2|0,1:0|0:0,0:0:0:0:
238,187,87348,2,0,B|241:222|241:222|221:259,1,70,10|0,1:0|0:0,0:0:0:0:
74,344,87506,6,0,B|124:315|169:339|179:344|179:344|189:348|231:372|303:326,1,210,2|0,1:0|0:0,0:0:0:0:
341,279,87822,6,0,P|359:308|364:342,1,70,2|0,1:0|0:0,0:0:0:0:
477,234,87980,2,0,P|499:190|476:123,1,70,10|0,1:0|0:0,0:0:0:0:
410,56,88138,6,0,B|354:74|314:38|314:38|277:83|198:67,1,210,2|0,1:0|0:0,0:0:0:0:
145,41,88453,1,2,1:0:0:0:
340,280,88612,6,0,B|346:312|346:312|334:347,1,70,10|0,1:0|1:0,0:0:0:0:
178,347,88770,2,0,B|166:312|166:312|172:280,1,70,2|0,1:0|1:0,0:0:0:0:
340,146,88927,6,0,B|370:110|493:77|563:164|529:271|452:275|410:248,1,350,4|0,1:0|0:0,0:0:0:0:
359,44,89401,2,0,L|144:367,1,350,4|0,1:0|0:0,0:0:0:0:
153,44,89875,5,8,1:0:0:0:
359,340,90034,1,8,1:0:0:0:
256,192,90111,12,0,91375,0:0:0:0:
113,301,91454,6,0,P|169:269|256:293,1,140,4|0,1:0|0:0,0:0:0:0:
256,192,91927,1,0,0:0:0:0:
341,224,92085,2,0,P|363:159|422:123,1,140,8|0,1:0|0:0,0:0:0:0:
442,215,92559,1,0,1:0:0:0:
442,215,92638,1,0,1:0:0:0:
442,215,92717,2,0,L|497:227,1,35,2|0,1:0|0:0,0:0:0:0:
432,128,92875,1,0,1:0:0:0:
432,128,92954,1,0,1:0:0:0:
432,128,93033,6,0,L|455:43,1,70,0|0,1:0|0:0,0:0:0:0:
442,215,93348,2,0,L|400:359,1,140,8|0,1:0|0:0,0:0:0:0:
334,288,93822,1,0,1:0:0:0:
334,288,93901,1,0,1:0:0:0:
334,288,93980,2,0,P|310:219|359:143,1,140,0|0,1:0|0:0,0:0:0:0:
231,129,94454,1,0,0:0:0:0:
145,293,94612,1,8,1:0:0:0:
218,217,94770,2,0,L|47:200,1,140,0|0,1:0|0:0,0:0:0:0:
78,203,95164,1,2,1:0:0:0:
78,203,95243,5,0,1:0:0:0:
245,303,95401,2,0,P|245:320|237:335,2,35,2|0|0,0:0|1:0|0:0,0:0:0:0:
322,192,95717,1,0,0:0:0:0:
322,192,95796,1,0,0:0:0:0:
322,192,95875,2,0,P|336:200|345:214,1,35,10|0,1:0|1:0,0:0:0:0:
396,369,96033,2,0,L|434:375,1,35,2|0,1:0|1:0,0:0:0:0:
440,213,96191,1,0,0:0:0:0:
341,302,96348,1,0,0:0:0:0:
341,302,96427,1,0,0:0:0:0:
341,302,96506,6,0,B|380:285|380:285|498:300,1,140,0|0,1:0|0:0,0:0:0:0:
440,213,96980,1,0,0:0:0:0:
498,143,97138,2,0,B|459:126|459:126|341:141,1,140,8|0,1:0|0:0,0:0:0:0:
328,233,97612,1,0,1:0:0:0:
328,233,97691,1,0,1:0:0:0:
328,233,97770,2,0,L|306:285,1,35,2|0,1:0|0:0,0:0:0:0:
362,138,97927,1,0,1:0:0:0:
362,138,98006,1,0,1:0:0:0:
362,138,98085,6,0,P|372:98|363:63,1,70,0|0,1:0|0:0,0:0:0:0:
328,232,98401,2,0,P|261:246|205:207,1,140,8|0,1:0|0:0,0:0:0:0:
187,118,98875,1,0,1:0:0:0:
187,118,98954,1,0,1:0:0:0:
187,118,99033,6,0,P|121:104|61:149,1,140,0|0,1:0|0:0,0:0:0:0:
37,54,99506,1,0,0:0:0:0:
137,183,99664,1,8,1:0:0:0:
59,230,99822,2,0,B|75:333|75:333|98:298,1,140,0|0,1:0|0:0,0:0:0:0:
107,295,100217,1,2,1:0:0:0:
119,285,100296,6,0,L|181:299,2,35,0|0|0,1:0|0:0|0:0,0:0:0:0:
53,150,100533,2,0,L|46:91,2,35,0|0|0,1:0|0:0|0:0,0:0:0:0:
131,199,100770,6,0,L|139:165,1,35,0|0,1:0|0:0,0:0:0:0:
276,100,100927,2,0,L|335:93,1,35,0|0,1:0|0:0,0:0:0:0:
171,73,101085,1,8,1:0:0:0:
305,186,101243,1,0,1:0:0:0:
402,40,101401,1,0,1:0:0:0:
402,40,101480,1,0,1:0:0:0:
402,40,101559,5,4,1:0:0:0:
471,294,102191,6,0,P|411:277|330:338,1,140,12|0,1:0|0:0,0:0:0:0:
279,248,102664,1,0,1:0:0:0:
279,248,102743,1,0,1:0:0:0:
279,248,102822,2,0,L|265:199,1,35,2|0,1:0|0:0,0:0:0:0:
244,332,102980,1,0,1:0:0:0:
244,332,103059,1,0,1:0:0:0:
244,332,103138,6,0,L|173:346,1,70,0|0,1:0|0:0,0:0:0:0:
279,248,103454,2,0,P|304:194|254:122,1,140,8|0,1:0|0:0,0:0:0:0:
419,74,103927,1,0,1:0:0:0:
419,74,104006,1,0,1:0:0:0:
419,74,104085,6,0,P|382:130|407:193,1,140,0|0,1:0|0:0,0:0:0:0:
462,139,104559,1,0,0:0:0:0:
341,38,104717,1,8,1:0:0:0:
267,128,104875,2,0,B|217:126|217:126|180:145|180:145|105:140,1,140,0|0,1:0|0:0,0:0:0:0:
131,141,105270,1,2,1:0:0:0:
131,141,105348,5,0,1:0:0:0:
162,64,105506,2,0,B|162:47|162:47|170:32,2,35,2|0|0,0:0|1:0|0:0,0:0:0:0:
249,211,105822,1,0,0:0:0:0:
249,211,105901,1,0,0:0:0:0:
249,211,105980,2,0,L|197:218,1,35,10|0,1:0|1:0,0:0:0:0:
126,340,106138,2,0,L|88:346,1,35,2|0,1:0|1:0,0:0:0:0:
37,210,106296,1,0,0:0:0:0:
191,293,106454,1,0,0:0:0:0:
191,293,106533,1,0,0:0:0:0:
191,293,106612,6,0,B|233:325|287:297|287:297|253:276,1,140,0|0,1:0|0:0,0:0:0:0:
346,356,107085,1,0,0:0:0:0:
395,258,107243,2,0,B|353:226|299:254|299:254|333:275,1,140,8|0,1:0|0:0,0:0:0:0:
448,338,107717,1,0,1:0:0:0:
448,338,107796,1,0,1:0:0:0:
448,338,107875,2,0,L|381:351,1,35,0|0,1:0|0:0,0:0:0:0:
495,260,108033,1,0,1:0:0:0:
495,260,108112,1,0,1:0:0:0:
495,260,108191,2,0,L|459:181,1,70,0|0,1:0|0:0,0:0:0:0:
512,113,108506,2,0,B|459:100|459:100|427:108|427:108|357:90,1,140,8|0,1:0|0:0,0:0:0:0:
213,55,108980,1,0,1:0:0:0:
213,55,109059,1,0,1:0:0:0:
213,55,109138,6,0,L|220:119,1,35,8|0,1:0|0:0,0:0:0:0:
125,187,109296,2,0,L|61:194,1,35,0|0,1:0|0:0,0:0:0:0:
216,89,109454,2,0,L|209:153,1,35,8|0,1:0|0:0,0:0:0:0:
296,225,109612,2,0,L|360:232,1,35,0|0,1:0|1:0,1:0:0:0:
212,123,109770,2,0,L|215:157,1,35,8|0,1:0|0:0,0:0:0:0:
130,287,109927,2,0,L|95:290,1,35,0|0,1:0|0:0,0:0:0:0:
215,157,110085,2,0,L|211:191,1,35,8|0,1:0|1:0,1:0:0:0:
257,354,110243,2,0,L|260:319,1,35,0|0,1:0|0:0,0:0:0:0:
356,197,110401,5,8,1:0:0:0:
389,183,110479,1,0,1:0:0:0:
423,182,110558,1,0,1:0:0:0:
457,192,110637,1,0,1:0:0:0:
483,263,110717,1,8,1:0:0:0:
474,298,110796,1,0,1:0:0:0:
456,327,110875,1,0,1:0:0:0:
428,348,110953,1,0,1:0:0:0:
368,295,111033,6,4,B|346:255|346:255|356:192,2,105,4|4|4,1:0|1:0|1:0,0:0:0:0:
