osu file format v14

[General]
AudioFilename: audio.mp3
AudioLeadIn: 0
PreviewTime: 55497
Countdown: 0
SampleSet: Normal
StackLeniency: 0.7
Mode: 1
LetterboxInBreaks: 0
WidescreenStoryboard: 0

[Editor]
Bookmarks: 1734,11839,21944,35839,56049,66155,76260,86365
DistanceSpacing: 1
BeatDivisor: 4
GridSize: 32
TimelineZoom: 2.599999

[Metadata]
Title:Cleopatrysm
TitleUnicode:Cleopatrysm
Artist:PyramiC
ArtistUnicode:ピラミッ℃
Creator:_DUSK_
Version:Sphinx
Source:beatmania IIDX 21 SPADA
Tags:REFLEC BEAT groovin'!! pop'n music ラピストリア popn GITADORA OverDrive PHARAO BEAM STEP video game electronic instrumental nekomata 猫叉Master かめりあ camellia sota fujimori akhuta 96 shoccho Pyramid genjuro dubstep
BeatmapID:2615623
BeatmapSetID:1258272

[Difficulty]
HPDrainRate:6
CircleSize:5
OverallDifficulty:6.5
ApproachRate:9
SliderMultiplier:1.4
SliderTickRate:1

[Events]
//Background and Video events
0,0,"bg.png",0,-20
//Break Periods
//Storyboard Layer 0 (Background)
//Storyboard Layer 1 (Fail)
//Storyboard Layer 2 (Pass)
//Storyboard Layer 3 (Foreground)
//Storyboard Layer 4 (Overlay)
//Storyboard Sound Samples

[TimingPoints]
470,315.789473684211,4,1,0,80,1,0
470,-142.857142857143,4,1,0,80,0,0
8522,-138.888888888889,4,1,0,80,0,0
8759,-135.135135135135,4,1,0,100,0,0
8917,-131.578947368421,4,1,0,100,0,0
8996,-128.205128205128,4,1,0,100,0,0
9075,-125,4,1,0,100,0,0
9154,-121.951219512195,4,1,0,100,0,0
9233,-119.047619047619,4,1,0,100,0,0
9312,-116.279069767442,4,1,0,100,0,0
9785,-113.636363636364,4,1,0,100,0,0
10417,-111.111111111111,4,1,0,100,0,0
10496,-83.3333333333333,4,1,0,90,0,0
11838,-138.888888888889,4,1,0,100,0,0
21470,-136.986301369863,4,1,0,100,0,0
21627,-135.135135135135,4,1,0,100,0,0
21785,-133.333333333333,4,1,0,100,0,0
21943,-131.578947368421,4,1,0,100,0,0
26522,-129.87012987013,4,1,0,100,0,0
26680,-128.205128205128,4,1,0,100,0,0
26838,-126.582278481013,4,1,0,100,0,0
26917,-125,4,1,0,100,0,0
26996,-123.456790123457,4,1,0,100,0,0
27312,-121.951219512195,4,1,0,100,0,0
27627,-120.481927710843,4,1,0,100,0,0
27785,-119.047619047619,4,1,0,100,0,0
27943,-117.647058823529,4,1,0,100,0,0
28101,-116.279069767442,4,1,0,100,0,0
28259,-114.942528735632,4,1,0,100,0,0
28575,-113.636363636364,4,1,0,100,0,0
28733,-112.359550561798,4,1,0,100,0,0
28891,-111.111111111111,4,1,0,100,0,0
29048,-109.89010989011,4,1,0,100,0,0
29206,-108.695652173913,4,1,0,100,0,0
29364,-107.52688172043,4,1,0,100,0,0
29522,-106.382978723404,4,1,0,100,0,0
29838,-105.263157894737,4,1,0,100,0,0
29917,-104.166666666667,4,1,0,100,0,0
29996,-103.092783505155,4,1,0,100,0,0
30075,-102.040816326531,4,1,0,100,0,0
30154,-101.010101010101,4,1,0,100,0,0
30233,-100,4,1,0,100,0,0
30312,-99.009900990099,4,1,0,100,0,0
30391,-98.0392156862745,4,1,0,100,0,0
30470,-97.0873786407767,4,1,0,100,0,0
30785,-131.578947368421,4,1,0,100,0,0
33312,-129.87012987013,4,1,0,100,0,0
33470,-128.205128205128,4,1,0,100,0,0
33627,-126.582278481013,4,1,0,100,0,0
33785,-125,4,1,0,100,0,0
33943,-123.456790123457,4,1,0,100,0,0
34101,-121.951219512195,4,1,0,100,0,0
34259,-120.481927710843,4,1,0,100,0,0
34417,-119.047619047619,4,1,0,100,0,0
34575,-116.279069767442,4,1,0,100,0,0
34654,-113.636363636364,4,1,0,100,0,0
34733,-111.111111111111,4,1,0,100,0,0
34812,-108.695652173913,4,1,0,100,0,0
34891,-106.382978723404,4,1,0,100,0,0
34970,-104.166666666667,4,1,0,100,0,0
35048,-102.040816326531,4,1,0,100,0,0
35127,-100,4,1,0,100,0,0
35206,-98.0392156862745,4,1,0,100,0,0
35838,-83.3333333333333,4,1,0,100,0,1
53522,-83.3333333333333,4,1,0,100,0,0
53601,-66.6666666666667,4,1,0,80,0,0
54785,-149.253731343284,4,1,0,80,0,0
55417,-147.058823529412,4,1,0,90,0,0
55496,-142.857142857143,4,1,0,100,0,0
55654,-138.888888888889,4,1,0,100,0,0
55733,-135.135135135135,4,1,0,100,0,0
55812,-131.578947368421,4,1,0,100,0,0
55891,-128.205128205128,4,1,0,100,0,0
56048,-125,4,1,0,100,0,0
64891,-123.456790123457,4,1,0,100,0,0
65127,-121.951219512195,4,1,0,100,0,0
65364,-120.481927710843,4,1,0,100,0,0
65522,-119.047619047619,4,1,0,100,0,0
65680,-117.647058823529,4,1,0,100,0,0
65917,-113.636363636364,4,1,0,100,0,0
66154,-109.89010989011,4,1,0,100,0,0
66548,-133.333333333333,4,1,0,80,0,0
71206,-131.578947368421,4,1,0,80,0,0
72943,-129.87012987013,4,1,0,80,0,0
73733,-128.205128205128,4,1,0,80,0,0
74206,-126.582278481013,4,1,0,80,0,0
74838,-125,4,1,0,80,0,0
74996,-123.456790123457,4,1,0,80,0,0
75154,-121.951219512195,4,1,0,80,0,0
75312,-120.481927710843,4,1,0,80,0,0
75470,-119.047619047619,4,1,0,80,0,0
75548,-117.647058823529,4,1,0,80,0,0
75627,-116.279069767442,4,1,0,80,0,0
75680,-114.942528735632,4,1,0,80,0,0
75733,-113.636363636364,4,1,0,80,0,0
75785,-112.359550561798,4,1,0,80,0,0
75864,-111.111111111111,4,1,0,80,0,0
75943,-109.89010989011,4,1,0,80,0,0
76022,-108.695652173913,4,1,0,80,0,0
76101,-107.52688172043,4,1,0,80,0,0
76259,-100,4,1,0,100,0,1
85733,-99.009900990099,4,1,0,100,0,1
85812,-98.0392156862745,4,1,0,100,0,1
85891,-97.0873786407767,4,1,0,100,0,1
85970,-96.1538461538461,4,1,0,100,0,1
86048,-95.2380952380952,4,1,0,100,0,1
86127,-94.3396226415094,4,1,0,100,0,1
86206,-93.4579439252336,4,1,0,100,0,1
86285,-92.5925925925926,4,1,0,100,0,1
86364,-91.743119266055,4,1,0,100,0,0
86996,-129.87012987013,4,1,0,100,0,0
97101,-116.279069767442,4,1,0,100,0,0
104206,-114.942528735632,4,1,0,100,0,0
104364,-113.636363636364,4,1,0,100,0,0
104522,-112.359550561798,4,1,0,100,0,0
104601,-111.111111111111,4,1,0,100,0,0
104680,-109.89010989011,4,1,0,100,0,0
104838,-108.695652173913,4,1,0,100,0,0
104996,-107.52688172043,4,1,0,100,0,0
105154,-106.382978723404,4,1,0,100,0,0
105312,-105.263157894737,4,1,0,100,0,0
105391,-104.166666666667,4,1,0,100,0,0
105470,-103.092783505155,4,1,0,100,0,0
105548,-102.040816326531,4,1,0,100,0,0
105627,-101.010101010101,4,1,0,100,0,0
105706,-100,4,1,0,100,0,0
105785,-99.009900990099,4,1,0,100,0,0
105864,-98.0392156862745,4,1,0,100,0,0
105943,-97.0873786407767,4,1,0,100,0,0
106496,-66.6666666666667,4,1,0,90,0,0
107838,-125,4,1,0,90,0,0

[HitObjects]
256,192,1733,5,8,0:0:0:0:
256,192,2206,1,8,0:0:0:0:
256,192,2838,1,8,0:0:0:0:
256,192,3470,1,8,0:0:0:0:
256,192,4259,1,8,0:0:0:0:
256,192,4733,1,8,0:0:0:0:
256,192,5364,1,8,0:0:0:0:
256,192,5996,1,8,0:0:0:0:
256,192,6470,1,0,0:0:0:0:
256,192,6785,1,8,0:0:0:0:
256,192,7259,1,8,0:0:0:0:
256,192,7891,1,8,0:0:0:0:
256,192,8522,1,8,0:0:0:0:
256,192,8838,1,0,0:0:0:0:
256,192,8917,1,0,0:0:0:0:
256,192,8996,1,0,0:0:0:0:
256,192,9075,1,0,0:0:0:0:
256,192,9154,1,0,0:0:0:0:
256,192,9233,1,0,0:0:0:0:
256,192,9312,1,12,0:0:0:0:
256,192,9627,1,8,0:0:0:0:
256,192,9785,1,4,0:0:0:0:
256,192,10101,1,8,0:0:0:0:
256,192,10417,1,4,0:0:0:0:
256,192,10575,12,0,11522,0:0:0:0:
256,192,11838,5,0,0:0:0:0:
256,192,12154,1,8,0:0:0:0:
256,192,12312,1,0,0:0:0:0:
256,192,12627,1,8,0:0:0:0:
256,192,12785,1,8,0:0:0:0:
256,192,12943,1,8,0:0:0:0:
256,192,13575,1,0,0:0:0:0:
256,192,13891,1,8,0:0:0:0:
256,192,14048,1,8,0:0:0:0:
256,192,14206,1,0,0:0:0:0:
256,192,14364,1,8,0:0:0:0:
256,192,14522,1,0,0:0:0:0:
256,192,14838,1,0,0:0:0:0:
256,192,14996,1,8,0:0:0:0:
256,192,15154,1,0,0:0:0:0:
256,192,15312,1,8,0:0:0:0:
256,192,15470,1,8,0:0:0:0:
256,192,15785,1,8,0:0:0:0:
256,192,16101,1,8,0:0:0:0:
256,192,16417,1,8,0:0:0:0:
256,192,16733,1,8,0:0:0:0:
256,192,16891,1,0,0:0:0:0:
256,192,17364,1,0,0:0:0:0:
256,192,17522,1,8,0:0:0:0:
256,192,17680,1,8,0:0:0:0:
256,192,17838,1,0,0:0:0:0:
256,192,17996,1,8,0:0:0:0:
256,192,18470,1,8,0:0:0:0:
256,192,18627,1,0,0:0:0:0:
256,192,18785,1,8,0:0:0:0:
256,192,18943,1,0,0:0:0:0:
256,192,19101,1,8,0:0:0:0:
256,192,19259,1,8,0:0:0:0:
256,192,19575,1,0,0:0:0:0:
256,192,19733,1,8,0:0:0:0:
256,192,19891,1,0,0:0:0:0:
256,192,20048,1,0,0:0:0:0:
256,192,20364,1,8,0:0:0:0:
256,192,20522,1,8,0:0:0:0:
256,192,20838,1,0,0:0:0:0:
256,192,21154,1,8,0:0:0:0:
256,192,21470,1,0,0:0:0:0:
256,192,21627,1,8,0:0:0:0:
256,192,21785,1,8,0:0:0:0:
256,192,21943,1,4,0:0:0:0:
256,192,22259,1,8,0:0:0:0:
256,192,22417,1,0,0:0:0:0:
256,192,22733,1,0,0:0:0:0:
256,192,22891,1,0,0:0:0:0:
256,192,23048,1,8,0:0:0:0:
256,192,23206,1,0,0:0:0:0:
256,192,23522,1,8,0:0:0:0:
256,192,23680,1,0,0:0:0:0:
256,192,23996,1,0,0:0:0:0:
256,192,24154,1,8,0:0:0:0:
256,192,24312,1,0,0:0:0:0:
256,192,24470,1,0,0:0:0:0:
256,192,24627,1,8,0:0:0:0:
256,192,24943,1,8,0:0:0:0:
256,192,25101,1,0,0:0:0:0:
256,192,25259,1,0,0:0:0:0:
256,192,25417,1,8,0:0:0:0:
256,192,25575,1,8,0:0:0:0:
256,192,25733,1,0,0:0:0:0:
256,192,26048,1,8,0:0:0:0:
256,192,26206,1,0,0:0:0:0:
256,192,26522,1,0,0:0:0:0:
256,192,26680,1,8,0:0:0:0:
256,192,26838,1,8,0:0:0:0:
256,192,26917,1,8,0:0:0:0:
256,192,26996,1,0,0:0:0:0:
256,192,27312,1,0,0:0:0:0:
256,192,27627,1,8,0:0:0:0:
256,192,27785,1,0,0:0:0:0:
256,192,27943,1,8,0:0:0:0:
256,192,28101,1,8,0:0:0:0:
256,192,28259,1,0,0:0:0:0:
256,192,28575,1,0,0:0:0:0:
256,192,28733,1,0,0:0:0:0:
256,192,28891,1,8,0:0:0:0:
256,192,29048,1,8,0:0:0:0:
256,192,29206,1,0,0:0:0:0:
256,192,29364,1,8,0:0:0:0:
256,192,29522,1,0,0:0:0:0:
256,192,29838,1,0,0:0:0:0:
256,192,29917,1,0,0:0:0:0:
256,192,29996,1,0,0:0:0:0:
256,192,30075,1,0,0:0:0:0:
256,192,30154,1,8,0:0:0:0:
256,192,30233,1,0,0:0:0:0:
256,192,30312,1,0,0:0:0:0:
256,192,30391,1,0,0:0:0:0:
256,192,30470,1,8,0:0:0:0:
256,192,31101,1,0,0:0:0:0:
256,192,31417,1,8,0:0:0:0:
256,192,31733,1,0,0:0:0:0:
256,192,31838,1,0,0:0:0:0:
256,192,32048,1,0,0:0:0:0:
256,192,32154,1,0,0:0:0:0:
256,192,32364,1,0,0:0:0:0:
256,192,32680,1,8,0:0:0:0:
256,192,33312,1,0,0:0:0:0:
256,192,33470,1,0,0:0:0:0:
256,192,33627,1,0,0:0:0:0:
256,192,33785,1,0,0:0:0:0:
256,192,33943,1,0,0:0:0:0:
256,192,34101,1,0,0:0:0:0:
256,192,34259,1,0,0:0:0:0:
256,192,34417,1,0,0:0:0:0:
256,192,34575,1,0,0:0:0:0:
256,192,34654,1,0,0:0:0:0:
256,192,34733,1,0,0:0:0:0:
256,192,34812,1,0,0:0:0:0:
256,192,34891,1,0,0:0:0:0:
256,192,34970,1,0,0:0:0:0:
256,192,35048,1,0,0:0:0:0:
256,192,35127,1,0,0:0:0:0:
256,192,35206,1,8,0:0:0:0:
256,192,35285,1,8,0:0:0:0:
256,192,35364,1,0,0:0:0:0:
256,192,35443,1,8,0:0:0:0:
256,192,35522,1,8,0:0:0:0:
256,192,35601,1,0,0:0:0:0:
256,192,35680,1,8,0:0:0:0:
256,192,35759,1,8,0:0:0:0:
256,192,35838,1,0,0:0:0:0:
256,192,35891,1,0,0:0:0:0:
256,192,35943,1,0,0:0:0:0:
256,192,35996,1,8,0:0:0:0:
256,192,36048,1,8,0:0:0:0:
256,192,36101,1,8,0:0:0:0:
256,192,36154,1,0,0:0:0:0:
256,192,36312,1,0,0:0:0:0:
256,192,36391,1,0,0:0:0:0:
256,192,36470,1,8,0:0:0:0:
256,192,36522,1,8,0:0:0:0:
256,192,36575,1,8,0:0:0:0:
256,192,36627,1,8,0:0:0:0:
256,192,36680,1,8,0:0:0:0:
256,192,36733,1,8,0:0:0:0:
256,192,36785,1,0,0:0:0:0:
256,192,36864,1,0,0:0:0:0:
256,192,36943,1,8,0:0:0:0:
256,192,37022,1,8,0:0:0:0:
256,192,37101,1,0,0:0:0:0:
256,192,37180,1,0,0:0:0:0:
256,192,37259,1,8,0:0:0:0:
256,192,37338,1,0,0:0:0:0:
256,192,37417,1,8,0:0:0:0:
256,192,37470,1,0,0:0:0:0:
256,192,37522,1,0,0:0:0:0:
256,192,37575,1,0,0:0:0:0:
256,192,37627,1,0,0:0:0:0:
256,192,37680,1,0,0:0:0:0:
256,192,37733,1,8,0:0:0:0:
256,192,37891,1,8,0:0:0:0:
256,192,38048,1,0,0:0:0:0:
256,192,38206,1,8,0:0:0:0:
256,192,38364,1,0,0:0:0:0:
256,192,38417,1,0,0:0:0:0:
256,192,38470,1,0,0:0:0:0:
256,192,38522,1,8,0:0:0:0:
256,192,38575,1,8,0:0:0:0:
256,192,38627,1,8,0:0:0:0:
256,192,38680,1,0,0:0:0:0:
256,192,38759,1,8,0:0:0:0:
256,192,38838,1,0,0:0:0:0:
256,192,38917,1,0,0:0:0:0:
256,192,38996,1,8,0:0:0:0:
256,192,39233,1,0,0:0:0:0:
256,192,39312,1,8,0:0:0:0:
256,192,39470,1,8,0:0:0:0:
256,192,39785,1,0,0:0:0:0:
256,192,39943,1,0,0:0:0:0:
256,192,40048,1,0,0:0:0:0:
256,192,40154,1,0,0:0:0:0:
256,192,40259,1,8,0:0:0:0:
256,192,40417,1,8,0:0:0:0:
256,192,40575,1,8,0:0:0:0:
256,192,40733,1,8,0:0:0:0:
256,192,40891,1,0,0:0:0:0:
256,192,40943,1,0,0:0:0:0:
256,192,40996,1,0,0:0:0:0:
256,192,41048,1,0,0:0:0:0:
256,192,41101,1,0,0:0:0:0:
256,192,41154,1,0,0:0:0:0:
256,192,41206,1,8,0:0:0:0:
256,192,41259,1,8,0:0:0:0:
256,192,41312,1,8,0:0:0:0:
256,192,41364,1,0,0:0:0:0:
256,192,41443,1,0,0:0:0:0:
256,192,41522,1,8,0:0:0:0:
256,192,41575,1,8,0:0:0:0:
256,192,41627,1,0,0:0:0:0:
256,192,41680,1,0,0:0:0:0:
256,192,41733,1,0,0:0:0:0:
256,192,41785,1,0,0:0:0:0:
256,192,41838,1,8,0:0:0:0:
256,192,41917,1,0,0:0:0:0:
256,192,41996,1,8,0:0:0:0:
256,192,42075,1,8,0:0:0:0:
256,192,42154,1,0,0:0:0:0:
256,192,42233,1,0,0:0:0:0:
256,192,42312,1,8,0:0:0:0:
256,192,42391,1,8,0:0:0:0:
256,192,42470,1,0,0:0:0:0:
256,192,42522,1,0,0:0:0:0:
256,192,42575,1,0,0:0:0:0:
256,192,42627,1,0,0:0:0:0:
256,192,42680,1,0,0:0:0:0:
256,192,42733,1,0,0:0:0:0:
256,192,42785,1,8,0:0:0:0:
256,192,42943,1,8,0:0:0:0:
256,192,43101,1,8,0:0:0:0:
256,192,43259,1,8,0:0:0:0:
256,192,43417,1,0,0:0:0:0:
256,192,43470,1,0,0:0:0:0:
256,192,43522,1,0,0:0:0:0:
256,192,43575,1,8,0:0:0:0:
256,192,43627,1,8,0:0:0:0:
256,192,43680,1,8,0:0:0:0:
256,192,43733,1,0,0:0:0:0:
256,192,43891,1,0,0:0:0:0:
256,192,43970,1,0,0:0:0:0:
256,192,44048,1,8,0:0:0:0:
256,192,44206,1,8,0:0:0:0:
256,192,44364,1,8,0:0:0:0:
256,192,44443,1,8,0:0:0:0:
256,192,44601,1,8,0:0:0:0:
256,192,44680,1,0,0:0:0:0:
256,192,44917,1,0,0:0:0:0:
256,192,45075,1,8,0:0:0:0:
256,192,45154,1,0,0:0:0:0:
256,192,45312,1,8,0:0:0:0:
256,192,45548,1,8,0:0:0:0:
256,192,45785,1,8,0:0:0:0:
256,192,45943,1,0,0:0:0:0:
256,192,45996,1,0,0:0:0:0:
256,192,46048,1,0,0:0:0:0:
256,192,46101,1,8,0:0:0:0:
256,192,46154,1,0,0:0:0:0:
256,192,46206,1,0,0:0:0:0:
256,192,46259,1,8,0:0:0:0:
256,192,46312,1,8,0:0:0:0:
256,192,46364,1,8,0:0:0:0:
256,192,46417,1,0,0:0:0:0:
256,192,46496,1,0,0:0:0:0:
256,192,46575,1,8,0:0:0:0:
256,192,46627,1,8,0:0:0:0:
256,192,46680,1,8,0:0:0:0:
256,192,46733,1,8,0:0:0:0:
256,192,46785,1,8,0:0:0:0:
256,192,46838,1,8,0:0:0:0:
256,192,46891,1,0,0:0:0:0:
256,192,46970,1,0,0:0:0:0:
256,192,47048,1,8,0:0:0:0:
256,192,47127,1,8,0:0:0:0:
256,192,47206,1,0,0:0:0:0:
256,192,47285,1,0,0:0:0:0:
256,192,47364,1,8,0:0:0:0:
256,192,47443,1,8,0:0:0:0:
256,192,47522,1,0,0:0:0:0:
256,192,47575,1,8,0:0:0:0:
256,192,47627,1,8,0:0:0:0:
256,192,47680,1,0,0:0:0:0:
256,192,47733,1,8,0:0:0:0:
256,192,47785,1,8,0:0:0:0:
256,192,47838,1,0,0:0:0:0:
256,192,47996,1,0,0:0:0:0:
256,192,48075,1,8,0:0:0:0:
256,192,48154,1,0,0:0:0:0:
256,192,48233,1,0,0:0:0:0:
256,192,48312,1,8,0:0:0:0:
256,192,48470,1,8,0:0:0:0:
256,192,48522,1,8,0:0:0:0:
256,192,48575,1,8,0:0:0:0:
256,192,48627,1,0,0:0:0:0:
256,192,48680,1,0,0:0:0:0:
256,192,48733,1,0,0:0:0:0:
256,192,48785,1,8,0:0:0:0:
256,192,48864,1,8,0:0:0:0:
256,192,48943,1,0,0:0:0:0:
256,192,49101,1,8,0:0:0:0:
256,192,49259,1,0,0:0:0:0:
256,192,49417,1,8,0:0:0:0:
256,192,49575,1,8,0:0:0:0:
256,192,49891,1,0,0:0:0:0:
256,192,50048,1,0,0:0:0:0:
256,192,50206,1,0,0:0:0:0:
256,192,50259,1,0,0:0:0:0:
256,192,50312,1,0,0:0:0:0:
256,192,50364,1,8,0:0:0:0:
256,192,50522,1,8,0:0:0:0:
256,192,50680,1,8,0:0:0:0:
256,192,50838,1,8,0:0:0:0:
256,192,50996,1,0,0:0:0:0:
256,192,51048,1,0,0:0:0:0:
256,192,51101,1,0,0:0:0:0:
256,192,51154,1,8,0:0:0:0:
256,192,51206,1,8,0:0:0:0:
256,192,51259,1,8,0:0:0:0:
256,192,51312,1,0,0:0:0:0:
256,192,51364,1,8,0:0:0:0:
256,192,51417,1,8,0:0:0:0:
256,192,51470,1,0,0:0:0:0:
256,192,51548,1,0,0:0:0:0:
256,192,51627,1,8,0:0:0:0:
256,192,51680,1,8,0:0:0:0:
256,192,51733,1,0,0:0:0:0:
256,192,51785,1,0,0:0:0:0:
256,192,51838,1,0,0:0:0:0:
256,192,51891,1,0,0:0:0:0:
256,192,51943,1,8,0:0:0:0:
256,192,52022,1,0,0:0:0:0:
256,192,52101,1,8,0:0:0:0:
256,192,52180,1,8,0:0:0:0:
256,192,52259,1,0,0:0:0:0:
256,192,52338,1,0,0:0:0:0:
256,192,52417,1,8,0:0:0:0:
256,192,52496,1,8,0:0:0:0:
256,192,52575,1,0,0:0:0:0:
256,192,52627,1,0,0:0:0:0:
256,192,52680,1,0,0:0:0:0:
256,192,52733,1,0,0:0:0:0:
256,192,52785,1,0,0:0:0:0:
256,192,52838,1,0,0:0:0:0:
256,192,52891,1,8,0:0:0:0:
256,192,53048,1,0,0:0:0:0:
256,192,53127,1,0,0:0:0:0:
256,192,53206,1,8,0:0:0:0:
256,192,53285,1,0,0:0:0:0:
256,192,53364,1,8,0:0:0:0:
256,192,53522,5,4,0:0:0:0:
256,192,53680,12,0,55101,0:0:0:0:
256,192,55417,5,0,0:0:0:0:
256,192,55575,5,8,0:0:0:0:
256,192,55654,1,8,0:0:0:0:
256,192,55733,5,0,0:0:0:0:
256,192,55812,1,0,0:0:0:0:
256,192,55891,1,8,0:0:0:0:
256,192,56048,1,4,0:0:0:0:
256,192,56364,1,0,0:0:0:0:
256,192,56522,1,0,0:0:0:0:
256,192,56680,1,8,0:0:0:0:
256,192,56838,1,0,0:0:0:0:
256,192,56996,1,8,0:0:0:0:
256,192,57312,1,0,0:0:0:0:
256,192,57785,1,0,0:0:0:0:
256,192,57943,1,8,0:0:0:0:
256,192,58259,1,8,0:0:0:0:
256,192,58417,1,8,0:0:0:0:
256,192,58575,1,0,0:0:0:0:
256,192,59048,1,0,0:0:0:0:
256,192,59206,1,8,0:0:0:0:
256,192,59522,1,8,0:0:0:0:
256,192,59680,1,0,0:0:0:0:
256,192,59838,1,8,0:0:0:0:
256,192,59996,1,0,0:0:0:0:
256,192,60154,1,0,0:0:0:0:
256,192,60470,1,8,0:0:0:0:
256,192,60785,1,8,0:0:0:0:
256,192,60943,1,8,0:0:0:0:
256,192,61101,1,0,0:0:0:0:
256,192,61417,1,0,0:0:0:0:
256,192,61575,1,0,0:0:0:0:
256,192,61733,1,8,0:0:0:0:
256,192,61891,1,8,0:0:0:0:
256,192,62048,1,0,0:0:0:0:
256,192,62522,1,8,0:0:0:0:
256,192,62680,1,0,0:0:0:0:
256,192,62996,1,8,0:0:0:0:
256,192,63154,1,0,0:0:0:0:
256,192,63312,1,8,0:0:0:0:
256,192,63470,1,8,0:0:0:0:
256,192,63627,1,0,0:0:0:0:
256,192,63943,1,0,0:0:0:0:
256,192,64101,1,0,0:0:0:0:
256,192,64259,1,8,0:0:0:0:
256,192,64417,1,0,0:0:0:0:
256,192,64575,1,8,0:0:0:0:
256,192,64891,1,0,0:0:0:0:
256,192,65127,1,0,0:0:0:0:
256,192,65364,1,0,0:0:0:0:
256,192,65522,1,8,0:0:0:0:
256,192,65680,1,4,0:0:0:0:
256,192,65917,1,4,0:0:0:0:
256,192,66154,1,12,0:0:0:0:
256,192,66627,1,8,0:0:0:0:
256,192,67259,1,8,0:0:0:0:
256,192,67891,1,8,0:0:0:0:
256,192,68680,1,8,0:0:0:0:
256,192,69154,1,8,0:0:0:0:
256,192,69785,1,8,0:0:0:0:
256,192,70417,1,8,0:0:0:0:
256,192,70891,1,0,0:0:0:0:
256,192,71206,1,8,0:0:0:0:
256,192,71680,1,8,0:0:0:0:
256,192,72312,1,8,0:0:0:0:
256,192,72943,1,8,0:0:0:0:
256,192,73733,1,8,0:0:0:0:
256,192,74206,1,8,0:0:0:0:
256,192,74838,1,8,0:0:0:0:
256,192,74996,1,0,0:0:0:0:
256,192,75154,1,8,0:0:0:0:
256,192,75312,1,0,0:0:0:0:
256,192,75470,1,0,0:0:0:0:
256,192,75548,1,0,0:0:0:0:
256,192,75627,1,8,0:0:0:0:
256,192,75680,1,8,0:0:0:0:
256,192,75733,1,8,0:0:0:0:
256,192,75785,1,0,0:0:0:0:
256,192,75864,1,0,0:0:0:0:
256,192,75943,1,8,0:0:0:0:
256,192,76022,1,8,0:0:0:0:
256,192,76259,1,4,0:0:0:0:
256,192,76417,1,0,0:0:0:0:
256,192,76470,1,0,0:0:0:0:
256,192,76522,1,0,0:0:0:0:
256,192,76575,1,8,0:0:0:0:
256,192,76733,1,8,0:0:0:0:
256,192,76891,1,0,0:0:0:0:
256,192,77048,1,8,0:0:0:0:
256,192,77127,1,8,0:0:0:0:
256,192,77206,1,0,0:0:0:0:
256,192,77285,1,0,0:0:0:0:
256,192,77364,1,8,0:0:0:0:
256,192,77522,1,0,0:0:0:0:
256,192,77680,1,8,0:0:0:0:
256,192,77838,1,8,0:0:0:0:
256,192,77996,1,0,0:0:0:0:
256,192,78075,1,0,0:0:0:0:
256,192,78154,1,0,0:0:0:0:
256,192,78312,1,8,0:0:0:0:
256,192,78391,1,8,0:0:0:0:
256,192,78470,1,0,0:0:0:0:
256,192,78548,1,8,0:0:0:0:
256,192,78627,1,0,0:0:0:0:
256,192,78706,1,0,0:0:0:0:
256,192,78785,1,8,0:0:0:0:
256,192,78943,1,0,0:0:0:0:
256,192,78996,1,0,0:0:0:0:
256,192,79048,1,0,0:0:0:0:
256,192,79101,1,8,0:0:0:0:
256,192,79259,1,8,0:0:0:0:
256,192,79575,1,0,0:0:0:0:
256,192,79733,1,8,0:0:0:0:
256,192,79812,1,8,0:0:0:0:
256,192,79891,1,0,0:0:0:0:
256,192,80048,1,0,0:0:0:0:
256,192,80206,1,8,0:0:0:0:
256,192,80285,1,0,0:0:0:0:
256,192,80364,1,8,0:0:0:0:
256,192,80522,1,0,0:0:0:0:
256,192,80601,1,8,0:0:0:0:
256,192,80680,1,0,0:0:0:0:
256,192,80838,1,0,0:0:0:0:
256,192,80917,1,0,0:0:0:0:
256,192,80996,1,8,0:0:0:0:
256,192,81075,1,0,0:0:0:0:
256,192,81154,1,8,0:0:0:0:
256,192,81312,1,0,0:0:0:0:
256,192,81470,1,8,0:0:0:0:
256,192,81522,1,0,0:0:0:0:
256,192,81575,1,0,0:0:0:0:
256,192,81627,1,8,0:0:0:0:
256,192,81785,1,8,0:0:0:0:
256,192,81864,1,8,0:0:0:0:
256,192,81943,1,0,0:0:0:0:
256,192,82101,1,0,0:0:0:0:
256,192,82180,1,0,0:0:0:0:
256,192,82259,1,8,0:0:0:0:
256,192,82338,1,8,0:0:0:0:
256,192,82417,1,0,0:0:0:0:
256,192,82575,1,0,0:0:0:0:
256,192,82733,1,8,0:0:0:0:
256,192,82785,1,8,0:0:0:0:
256,192,82838,1,0,0:0:0:0:
256,192,82891,1,8,0:0:0:0:
256,192,83048,1,0,0:0:0:0:
256,192,83127,1,8,0:0:0:0:
256,192,83206,1,8,0:0:0:0:
256,192,83285,1,0,0:0:0:0:
256,192,83364,1,0,0:0:0:0:
256,192,83522,1,8,0:0:0:0:
256,192,83680,1,0,0:0:0:0:
256,192,83838,1,12,0:0:0:0:
256,192,84154,1,8,0:0:0:0:
256,192,84312,1,4,0:0:0:0:
256,192,84627,1,8,0:0:0:0:
256,192,84785,1,8,0:0:0:0:
256,192,84943,1,4,0:0:0:0:
256,192,85417,1,8,0:0:0:0:
256,192,85496,1,8,0:0:0:0:
256,192,85575,1,0,0:0:0:0:
256,192,85733,1,8,0:0:0:0:
256,192,85812,1,8,0:0:0:0:
256,192,85891,1,0,0:0:0:0:
256,192,85970,1,0,0:0:0:0:
256,192,86048,1,8,0:0:0:0:
256,192,86127,1,0,0:0:0:0:
256,192,86206,1,8,0:0:0:0:
256,192,86285,1,8,0:0:0:0:
256,192,86364,1,4,0:0:0:0:
256,192,86996,1,8,0:0:0:0:
256,192,87470,1,8,0:0:0:0:
256,192,87548,1,8,0:0:0:0:
256,192,87627,1,0,0:0:0:0:
256,192,87706,1,0,0:0:0:0:
256,192,87785,1,8,0:0:0:0:
256,192,87864,1,0,0:0:0:0:
256,192,87943,1,0,0:0:0:0:
256,192,88259,1,8,0:0:0:0:
256,192,88733,1,8,0:0:0:0:
256,192,88812,1,8,0:0:0:0:
256,192,88891,1,0,0:0:0:0:
256,192,89364,1,0,0:0:0:0:
256,192,89522,1,8,0:0:0:0:
256,192,90312,1,0,0:0:0:0:
256,192,90470,1,0,0:0:0:0:
256,192,90785,1,8,0:0:0:0:
256,192,91101,1,0,0:0:0:0:
256,192,91259,1,8,0:0:0:0:
256,192,91338,1,8,0:0:0:0:
256,192,91417,1,0,0:0:0:0:
256,192,92048,1,8,0:0:0:0:
256,192,92522,1,8,0:0:0:0:
256,192,92601,1,8,0:0:0:0:
256,192,92680,1,0,0:0:0:0:
256,192,92759,1,0,0:0:0:0:
256,192,92838,1,8,0:0:0:0:
256,192,92917,1,0,0:0:0:0:
256,192,92996,1,0,0:0:0:0:
256,192,93075,1,0,0:0:0:0:
256,192,93312,1,8,0:0:0:0:
256,192,93943,1,0,0:0:0:0:
256,192,94575,1,8,0:0:0:0:
256,192,95206,1,0,0:0:0:0:
256,192,95443,1,0,0:0:0:0:
256,192,95601,1,8,0:0:0:0:
256,192,95680,1,8,0:0:0:0:
256,192,95838,1,8,0:0:0:0:
256,192,95996,1,8,0:0:0:0:
256,192,96154,1,0,0:0:0:0:
256,192,96312,1,8,0:0:0:0:
256,192,96391,1,8,0:0:0:0:
256,192,96470,1,0,0:0:0:0:
256,192,97101,1,8,0:0:0:0:
256,192,97180,1,8,0:0:0:0:
256,192,97259,1,0,0:0:0:0:
256,192,97338,1,0,0:0:0:0:
256,192,97575,1,8,0:0:0:0:
256,192,97654,1,8,0:0:0:0:
256,192,97733,1,0,0:0:0:0:
256,192,97812,1,0,0:0:0:0:
256,192,97891,1,8,0:0:0:0:
256,192,97970,1,0,0:0:0:0:
256,192,98048,1,0,0:0:0:0:
256,192,98127,1,8,0:0:0:0:
256,192,98364,1,8,0:0:0:0:
256,192,98601,1,0,0:0:0:0:
256,192,98759,1,0,0:0:0:0:
256,192,98838,1,8,0:0:0:0:
256,192,98917,1,8,0:0:0:0:
256,192,98996,1,0,0:0:0:0:
256,192,99233,1,8,0:0:0:0:
256,192,99391,1,8,0:0:0:0:
256,192,99470,1,0,0:0:0:0:
256,192,99627,1,8,0:0:0:0:
256,192,99706,1,0,0:0:0:0:
256,192,99785,1,0,0:0:0:0:
256,192,99864,1,8,0:0:0:0:
256,192,100022,1,0,0:0:0:0:
256,192,100101,1,8,0:0:0:0:
256,192,100180,1,8,0:0:0:0:
256,192,100338,1,8,0:0:0:0:
256,192,100417,1,0,0:0:0:0:
256,192,100575,1,0,0:0:0:0:
256,192,100733,1,0,0:0:0:0:
256,192,100812,1,8,0:0:0:0:
256,192,100891,1,8,0:0:0:0:
256,192,100970,1,0,0:0:0:0:
256,192,101048,1,0,0:0:0:0:
256,192,101206,1,8,0:0:0:0:
256,192,101364,1,8,0:0:0:0:
256,192,101443,1,8,0:0:0:0:
256,192,101522,1,0,0:0:0:0:
256,192,101759,1,0,0:0:0:0:
256,192,101917,1,8,0:0:0:0:
256,192,102154,1,8,0:0:0:0:
256,192,102233,1,0,0:0:0:0:
256,192,102312,1,0,0:0:0:0:
256,192,102391,1,0,0:0:0:0:
256,192,102627,1,8,0:0:0:0:
256,192,102706,1,8,0:0:0:0:
256,192,102785,1,0,0:0:0:0:
256,192,102864,1,0,0:0:0:0:
256,192,102943,1,8,0:0:0:0:
256,192,103022,1,0,0:0:0:0:
256,192,103101,1,0,0:0:0:0:
256,192,103180,1,8,0:0:0:0:
256,192,103259,1,0,0:0:0:0:
256,192,103417,1,8,0:0:0:0:
256,192,103496,1,0,0:0:0:0:
256,192,103575,1,8,0:0:0:0:
256,192,103654,1,8,0:0:0:0:
256,192,103812,1,0,0:0:0:0:
256,192,103891,1,8,0:0:0:0:
256,192,103970,1,8,0:0:0:0:
256,192,104048,5,0,0:0:0:0:
256,192,104206,1,0,0:0:0:0:
256,192,104364,1,8,0:0:0:0:
256,192,104522,1,0,0:0:0:0:
256,192,104601,1,0,0:0:0:0:
256,192,104680,1,8,0:0:0:0:
256,192,104838,1,0,0:0:0:0:
256,192,104996,1,8,0:0:0:0:
256,192,105154,1,0,0:0:0:0:
256,192,105312,1,8,0:0:0:0:
256,192,105391,1,0,0:0:0:0:
256,192,105470,1,0,0:0:0:0:
256,192,105548,1,0,0:0:0:0:
256,192,105627,1,8,0:0:0:0:
256,192,105706,1,0,0:0:0:0:
256,192,105785,1,0,0:0:0:0:
256,192,105864,1,0,0:0:0:0:
256,192,105943,1,8,0:0:0:0:
256,192,106101,1,8,0:0:0:0:
256,192,106180,1,0,0:0:0:0:
256,192,106417,1,4,0:0:0:0:
256,192,106575,12,0,109101,0:0:0:0:
