osu file format v14

[General]
AudioFilename: audio.mp3
AudioLeadIn: 0
PreviewTime: 997
Countdown: 0
SampleSet: Soft
StackLeniency: 0.2
Mode: 0
LetterboxInBreaks: 0
WidescreenStoryboard: 0

[Editor]
Bookmarks: 1313,8892,9366,11892,30839,35892,53576,66208,76313,86418,106471,111524
DistanceSpacing: 0.8
BeatDivisor: 8
GridSize: 32
TimelineZoom: 7.599995

[Metadata]
Title:Cleopatrysm
TitleUnicode:Cleopatrysm
Artist:PyramiC
ArtistUnicode:PyramiC
Creator:Xilver
Version:A.N.S.C.S.96
Source:beatmania IIDX 21 SPADA
Tags:camellia sota fujimori akhuta 96 shoocho nekomata master PHARAO BEAM STEP
BeatmapID:1344326
BeatmapSetID:633406

[Difficulty]
HPDrainRate:5
CircleSize:2
OverallDifficulty:9
ApproachRate:9.6
SliderMultiplier:3.4
SliderTickRate:1

[Events]
//Background and Video events
0,0,"bg.png",0,0
//Break Periods
//Storyboard Layer 0 (Background)
//Storyboard Layer 1 (Fail)
//Storyboard Layer 2 (Pass)
//Storyboard Layer 3 (Foreground)
//Storyboard Sound Samples

[TimingPoints]
524,315.789473684211,4,2,1,20,1,0
1313,-500,4,2,1,20,0,0
1945,-200,4,2,1,20,0,0
3208,-400,4,2,1,20,0,0
8892,-400,4,2,1,50,0,0
10471,-1000,4,2,1,70,0,0
10945,-666.666666666667,4,2,1,70,0,1
11260,-166.666666666667,4,2,1,70,0,0
11892,-166.666666666667,4,2,1,40,0,0
14576,-500.000000000003,4,2,1,40,0,0
16155,-500.000000000003,4,2,1,40,0,1
16313,-500.000000000003,4,2,1,40,0,0
20892,-500.000000000003,4,2,1,40,0,1
21050,-500.000000000003,4,2,1,40,0,0
26576,-500.000000000003,4,2,1,40,0,1
26892,-500.000000000003,4,2,1,40,0,0
29892,-166.666666666667,4,2,1,50,0,0
30208,-125,4,2,1,50,0,0
31629,-200,4,2,1,50,0,0
32102,-200,4,2,1,50,0,1
32313,-200,4,2,1,50,0,0
33997,-200,4,2,1,60,0,0
34629,-142.857142857143,4,2,1,60,0,0
34945,-100,4,2,1,60,0,0
35260,-55.5555555555556,4,2,1,60,0,0
35892,-55.5555555555556,4,2,1,80,0,0
36522,-66.6666666666667,4,2,1,80,0,0
37471,-125,4,2,1,80,0,0
37787,-500,4,2,1,80,0,0
38418,-52.6315789473684,4,2,1,80,0,0
38892,-66.6666666666667,4,2,1,80,0,0
39050,-200,4,2,1,80,0,0
39681,-45.4545454545455,4,2,1,80,0,0
40155,-100,4,2,1,80,0,0
40313,-500,4,2,1,80,0,0
40945,-55.5555555555556,4,2,1,80,0,0
41576,-71.4285714285714,4,2,1,80,0,0
42524,-100,4,2,1,80,0,0
42839,-500,4,2,1,80,0,0
43471,-71.4285714285714,4,2,1,80,0,0
44102,-500,4,2,1,80,0,0
44971,-200,4,2,1,80,0,0
45366,-83.3333333333333,4,2,1,80,0,0
45997,-66.6666666666667,4,2,1,80,0,0
46629,-83.3333333333333,4,2,1,80,0,0
47576,-111.111111111111,4,2,1,80,0,0
47892,-499.999999999997,4,2,1,80,0,0
48524,-52.6315789473684,4,2,1,80,0,0
48918,-66.6666666666667,4,2,1,80,0,0
49155,-200,4,2,1,80,0,0
49787,-45.4545454545455,4,2,1,80,0,0
50260,-200,4,2,1,80,0,0
50418,-500,4,2,1,80,0,0
51050,-55.5555555555556,4,2,1,80,0,0
51681,-66.6666666666667,4,2,1,80,0,0
52629,-100,4,2,1,80,0,0
52945,-500,4,2,1,80,0,0
53576,-500,4,2,1,20,0,0
53892,-200,4,2,1,20,0,0
54524,-666.666666666667,4,2,1,50,0,0
54839,-200,4,2,1,50,0,0
55155,-100,4,2,1,50,0,0
56102,-125,4,2,1,60,0,0
65971,-200,4,2,1,50,0,0
68734,-200,4,2,1,30,0,0
69208,-333.333333333333,4,2,1,30,0,0
71418,-200,4,2,1,30,0,0
71734,-333.333333333333,4,2,1,30,0,0
75208,-100,4,2,1,50,0,0
75681,-76.9230769230769,4,2,1,50,0,0
75997,-62.5,4,2,1,50,0,0
76313,-100,4,2,1,70,0,1
76787,-76.9230769230769,4,2,1,70,0,1
83892,-500,4,2,1,70,0,1
84997,-500,4,2,1,70,0,1
85787,-58.8235294117647,4,2,1,70,0,1
86418,-500,4,2,1,50,0,0
87050,-500,4,2,1,50,0,0
95260,-50,4,2,1,50,0,0
95497,-100,4,2,1,50,0,0
95892,-200,4,2,1,50,0,0
96524,-66.6666666666667,4,2,1,5,0,0
97155,-500,4,2,1,50,0,0
104102,-50,4,2,1,70,0,0
104418,-100,4,2,1,70,0,0
104734,-83.3333333333333,4,2,1,70,0,0
105208,-200,4,2,1,70,0,0
105366,-500,4,2,1,70,0,0
106313,-500,4,2,1,50,0,0
106629,-500,4,2,1,40,0,0

[Colours]
Combo1 : 211,170,129
Combo2 : 255,140,85
Combo3 : 135,153,205
Combo4 : 88,194,252

[HitObjects]
56,72,1313,6,0,L|50:47,5,17
73,95,1787,5,2,0:0:0:0:
424,127,1945,2,0,L|433:85,2,42.5
433,161,2260,1,2,0:0:0:0:
77,231,2576,2,0,L|67:189,3,42.5
68,265,2892,1,2,0:0:0:0:
454,384,3208,2,2,L|461:342,2,42.5
365,295,3839,2,2,L|369:265,4,21.25,0|0|2|0|0,0:0|0:0|0:0|0:0|0:0,0:0:0:0:
403,247,4313,5,2,0:0:0:0:
93,353,4471,2,0,L|90:331,2,21.25
126,306,4787,1,2,0:0:0:0:
126,306,5102,1,0,0:0:0:0:
17,248,5260,2,0,L|14:226,2,21.25,2|0|0,0:0|0:0|0:0,0:0:0:0:
399,170,5576,2,0,L|404:127,2,42.5,2|0|0,0:0|0:0|0:0,0:0:0:0:
419,210,6050,1,0,0:0:0:0:
309,89,6366,2,0,L|312:64,4,21.25,0|0|2|0|0,0:0|0:0|0:0|0:0|0:0,0:0:0:0:
308,135,6839,5,2,0:0:0:0:
48,65,6997,2,0,L|42:48,3,14.1666666666667
87,89,7313,1,2,0:0:0:0:
415,228,7629,2,0,L|422:205,3,21.25
376,252,7945,1,2,0:0:0:0:
84,334,8260,2,0,L|79:318,3,14.1666666666667
123,358,8576,1,2,0:0:0:0:
463,150,8892,2,0,L|449:191,2,42.5
443,92,9366,5,0,1:0:0:0:
93,358,9524,1,0,0:0:0:0:
35,275,9602,1,0,0:0:0:0:
133,268,9681,1,8,0:0:0:0:
60,132,9839,6,0,B|67:173,1,42.5,0|0,1:0|0:0,0:0:0:0:
154,73,10155,2,0,L|157:93,2,21.25,0|0|2,0:0|0:0|0:0,0:0:0:0:
431,357,10471,6,0,L|438:315,1,42.5,0|0,1:0|0:0,0:0:0:0:
331,357,10945,6,0,B|330:344|330:344|338:336|338:336|339:319,1,38.2499988327027,8|0,0:0|0:0,0:0:0:0:
231,357,11260,6,0,L|239:305,3,50.9999984436036,2|0|0|0,0:0|0:0|0:0|0:0,0:0:0:0:
131,357,11576,2,0,L|139:305,3,50.9999984436036,2|0|0|0,0:0|0:0|0:0|0:0,0:0:0:0:
31,357,11892,5,0,3:0:0:0:
412,38,12681,5,2,0:0:0:0:
341,106,12839,1,0,0:0:0:0:
439,132,12997,1,2,0:0:0:0:
404,65,13313,5,0,0:0:0:0:
369,99,13471,1,0,0:0:0:0:
418,112,13629,1,0,0:0:0:0:
377,384,13945,5,2,0:0:0:0:
297,156,14103,1,2,0:0:0:0:
377,384,14260,1,0,0:0:0:0:
297,156,14576,6,0,L|306:189,2,34,0|2|0,0:0|0:0|0:0,0:0:0:0:
136,223,15208,5,0,0:0:0:0:
136,223,15366,1,0,0:0:0:0:
107,114,15524,6,0,L|112:80,1,34,2|0,0:0|0:0,0:0:0:0:
235,288,15839,2,0,L|250:318,1,34
30,219,16155,2,0,B|16:204|16:204|0:203,1,34,2|0,0:0|0:0,0:0:0:0:
235,155,16471,2,0,L|268:149,1,34
108,328,16787,6,0,L|83:352,1,34,0|2,0:0|0:0,0:0:0:0:
83,352,17260,1,0,0:0:0:0:
83,352,17418,1,0,0:0:0:0:
312,252,17734,5,2,0:0:0:0:
402,290,17892,1,0,0:0:0:0:
320,349,18050,1,2,0:0:0:0:
344,296,18367,5,0,0:0:0:0:
344,296,18524,1,0,0:0:0:0:
421,34,18839,5,2,0:0:0:0:
332,85,18997,1,0,0:0:0:0:
383,174,19155,1,0,0:0:0:0:
473,122,19313,1,2,0:0:0:0:
473,122,19787,5,2,0:0:0:0:
248,246,19945,1,0,0:0:0:0:
248,246,20418,1,0,0:0:0:0:
268,384,20576,6,0,L|253:353,1,34
205,125,20892,2,0,B|214:137|214:137|205:160,1,34,2|0,0:0|0:0,0:0:0:0:
107,286,21208,2,0,B|137:271,1,34
366,223,21524,2,0,L|335:237,1,34,2|0,0:0|0:0,0:0:0:0:
366,223,21839,1,0,0:0:0:0:
41,283,21997,5,0,1:0:0:0:
139,257,22313,1,0,0:0:0:0:
68,189,22471,1,2,0:0:0:0:
410,354,22787,5,2,0:0:0:0:
492,295,22945,1,0,0:0:0:0:
402,257,23103,1,2,0:0:0:0:
422,328,23418,5,2,0:0:0:0:
463,298,23576,1,0,0:0:0:0:
418,279,23734,1,2,0:0:0:0:
178,250,24050,5,2,0:0:0:0:
115,28,24208,1,2,0:0:0:0:
178,250,24365,1,0,0:0:0:0:
114,27,24681,6,0,L|122:59,2,34,0|2|0,0:0|0:0|0:0,0:0:0:0:
369,197,25313,5,0,0:0:0:0:
369,197,25471,1,0,0:0:0:0:
404,311,25629,6,0,L|398:344,1,34,2|0,0:0|0:0,0:0:0:0:
276,137,25944,2,0,L|260:106,1,34
481,206,26260,2,0,L|511:221,1,34,2|0,0:0|0:0,0:0:0:0:
276,270,26576,2,0,B|256:267|256:267|242:275,2,34
403,97,27050,5,6,0:0:0:0:
369,197,27524,1,0,0:0:0:0:
70,51,27681,5,8,0:0:0:0:
102,144,28313,1,6,0:0:0:0:
134,238,28787,1,0,0:0:0:0:
435,98,28944,5,12,0:0:0:0:
417,191,29102,1,0,0:0:0:0:
399,284,29260,1,0,0:0:0:0:
381,377,29418,1,0,0:0:0:0:
435,98,29576,5,4,0:0:0:0:
342,80,29892,6,4,L|331:25,3,50.9999984436036
231,70,30208,2,4,L|216:-2,3,68
261,176,30524,5,4,1:2:0:0:
271,276,30839,1,2,0:0:0:0:
281,376,31155,1,0,1:0:0:0:
231,70,31471,5,0,0:0:0:0:
295,206,31787,6,0,L|308:150,2,56.6666666666667
212,296,32102,2,0,P|199:267|215:230,2,56.6666666666667
281,376,32418,1,0,3:0:0:0:
256,6,32734,5,0,1:0:0:0:
106,207,33366,5,0,3:0:0:0:
112,255,33524,1,0,3:0:0:0:
123,305,33681,1,0,3:0:0:0:
119,353,33839,1,0,3:0:0:0:
234,158,33997,5,0,3:0:0:0:
229,227,34155,1,0,3:0:0:0:
278,284,34313,1,0,3:0:0:0:
229,347,34471,1,0,3:0:0:0:
341,186,34629,6,0,B|342:143|342:143|347:127,3,59.4999981842042,0|0|0|0,3:0|3:0|3:0|3:0,3:0:0:0:
400,302,34945,6,0,B|433:273|433:273|441:233,3,85,0|0|0|0,3:0|3:0|3:0|3:0,3:0:0:0:
338,378,35260,6,4,B|352:341|319:308|319:308|304:311|304:311|279:284|251:289,7,152.999995330811,4|4|4|4|4|4|4|4,3:0|3:0|3:0|3:0|3:0|3:0|3:0|3:0,3:0:0:0:
446,200,35892,6,2,B|446:180|446:180|426:164|426:164|464:165|464:165|417:153|417:153|477:155|477:155|408:139|408:139|487:141|487:141|403:122|403:122|495:122|495:122|449:76|449:76|379:66|319:20|319:20|330:155|269:104|309:206|309:206|374:247|318:297|421:353,1,1070.99996731567,2|0,1:0|1:0,1:0:0:0:
153,289,36524,2,0,B|153:249|183:202|212:191|212:191|249:192|296:220|314:257|314:257|320:295|278:360|240:359,1,382.500014591218,8|0,1:2|0:0,0:0:0:0:
435,222,36839,5,0,3:3:0:0:
385,220,36918,1,0,3:0:0:0:
419,190,36997,1,0,3:0:0:0:
395,158,37076,1,0,3:0:0:0:
428,98,37155,5,4,3:2:0:0:
343,115,37234,1,0,3:0:0:0:
438,71,37313,1,0,3:0:0:0:
317,106,37392,1,0,3:0:0:0:
329,19,37471,6,0,B|359:15|387:38|390:66|390:66|355:89|346:152|387:181,1,204,4|0,1:2|0:0,0:0:0:0:
54,288,37787,6,0,B|92:296|92:296|126:262|170:265,1,119,8|0,0:0|0:0,0:0:0:0:
205,353,38418,6,6,B|147:319|153:275|153:275|177:286|177:286|152:250|152:250|196:268|196:268|153:225|153:225|219:256|219:256|194:207|194:207|229:168|296:127|296:127|133:190|157:86|35:291,1,807.499978437424,2|2,1:0|0:0,1:1:0:0:
94,74,38892,2,0,B|72:89|119:139|180:143,1,127.500004863739,2|0,0:0|0:0,0:0:0:0:
394,247,39050,6,0,B|370:273|384:309|384:309|432:295|442:230,1,170,8|0,0:0|0:0,0:0:0:0:
478,121,39524,1,0,0:0:0:0:
321,90,39681,6,0,B|388:101|432:76|523:1,4,187.000005706787,4|0|2|0|4,0:0|0:0|0:0|0:0|0:0,0:0:0:0:
174,274,40155,6,0,P|154:280|148:300,2,42.5,4|0|0,0:2|0:0|0:0,0:0:0:0:
284,283,40313,2,0,B|243:277|243:277|225:268|219:243|219:243|223:223|211:207,1,119,8|0,1:2|0:0,0:0:0:0:
244,374,40945,6,2,B|144:323|216:297|136:233|136:233|166:243|166:243|116:198|116:198|190:238|190:238|102:159|102:159|216:234|216:234|144:145|144:145|257:69|273:162|273:162|373:223|192:320,1,1070.99996731567,2|0,1:0|1:0,1:0:0:0:
355,18,41576,2,0,B|247:62|229:146|229:146|326:130|374:210,1,356.999989105225,8|0,0:0|0:0,0:0:0:0:
88,135,41892,5,4,3:2:0:0:
154,118,41971,1,0,3:0:0:0:
113,160,42050,1,0,3:0:0:0:
145,175,42129,1,0,3:0:0:0:
142,243,42208,5,0,3:0:0:0:
199,197,42287,1,0,3:0:0:0:
125,299,42366,1,0,3:0:0:0:
245,250,42445,1,0,3:0:0:0:
282,352,42524,6,0,B|219:345|237:297|161:305|161:305|216:261|175:226|214:174,1,255,0|0,1:0|0:0,0:0:0:0:
486,68,42839,6,0,B|447:42|401:82|420:130,1,102,8|0,0:0|0:0,0:0:0:0:
402,282,43471,6,0,B|474:216|409:232|445:164|445:164|411:178|382:166|382:166|397:148|397:148|367:160|367:160|403:120|403:120|348:153|348:153|393:102|393:102|349:57|274:70|242:117,1,594.999981842042,4|0,1:2|0:0,0:0:0:0:
119,84,43945,2,0,P|174:102|203:152,1,118.999996368408,0|0,3:0|3:0,3:0:0:0:
314,298,44102,6,0,B|283:302|283:302|274:312|274:312|243:316,1,68,8|0,1:2|0:0,0:0:0:0:
402,282,44576,1,0,0:0:0:0:
115,344,44734,6,0,L|91:318,1,34,4|0,0:0|0:0,0:0:0:0:
91,287,44971,2,0,B|76:247|76:247|88:225|79:180,1,85,2|0,0:0|0:0,0:0:0:0:
165,179,45208,5,0,3:0:0:0:
32,151,45287,1,0,3:0:0:0:
187,154,45366,2,0,P|176:73|97:64,2,135.99999584961,8|0|0,1:2|0:0|0:0,0:0:0:0:
26,45,45681,1,0,1:0:0:0:
384,0,45839,6,0,P|368:45|402:80,1,101.999996887207
500,83,45997,6,2,B|466:88|435:135|435:135|416:113|416:113|413:151|413:151|393:99|393:99|390:170|390:170|360:81|360:81|348:198|348:198|309:67|309:67|228:113|253:229|253:229|191:228|154:143,1,892.500034046174,6|0,1:2|1:0,1:0:0:0:
251,381,46629,2,0,B|258:341|319:314|319:314|229:225|125:255,1,305.999990661621,8|0,3:2|0:0,0:0:0:0:
30,97,46945,5,4,3:2:0:0:
92,77,47024,1,0,3:0:0:0:
58,130,47102,1,0,3:0:0:0:
100,147,47181,1,0,3:0:0:0:
63,209,47260,5,0,3:2:0:0:
130,203,47339,1,0,3:0:0:0:
90,281,47418,1,0,3:0:0:0:
189,231,47497,1,0,3:0:0:0:
220,321,47576,6,0,B|148:335|109:281|109:281|114:261|114:261|72:231|69:193,1,229.499992996216,0|0,1:0|0:0,0:0:0:0:
484,240,47892,6,0,P|436:235|461:277,1,119,8|0,0:2|0:0,0:0:0:0:
356,358,48524,6,2,B|410:341|425:249|350:259|375:185|375:185|301:268|301:268|344:195|344:195|294:238|294:238|319:198|319:198|297:208|297:208|302:180|236:226|273:155|97:112|181:193|266:162|362:129,1,807.499978437424,2|0,1:2|0:0,1:0:0:0:
364,34,48997,2,0,P|357:93|300:115,1,127.500004863739,4|0,0:0|0:0,0:0:0:0:
82,273,49155,6,0,B|47:220|47:220|66:179|66:179|77:216|109:232,1,170,8|0,0:0|0:0,0:0:0:0:
214,272,49629,1,0,0:0:0:0:
274,370,49787,6,0,B|225:315|287:229|368:269,4,187.000005706787,4|0|0|0|0,3:2|3:0|3:0|3:0|3:0,3:0:0:0:
412,40,50260,2,0,P|412:26|406:14,3,21.25,0|0|0|0,3:0|3:0|3:0|3:0,3:0:0:0:
407,165,50418,6,0,B|431:148|431:148|427:107|427:107|472:84,1,119,8|0,3:2|0:0,0:0:0:0:
512,195,51050,6,2,B|467:232|402:204|402:204|399:185|399:185|387:234|387:234|369:174|369:174|370:256|370:256|343:167|343:167|338:229|338:229|290:304|290:304|323:151|185:253|352:92|352:92|290:139|254:195|139:196,1,1070.99996731567,4|0,1:2|0:0,1:0:0:0:
84,64,51681,2,0,B|15:103|15:103|120:183|120:183|183:3,1,382.500014591218,8|0,0:2|0:0,0:0:0:0:
387,59,51997,5,4,3:2:0:0:
326,93,52076,1,0,3:0:0:0:
392,124,52155,1,0,3:0:0:0:
362,147,52234,1,0,3:0:0:0:
421,194,52313,5,0,3:2:0:0:
330,187,52392,1,0,3:0:0:0:
412,254,52471,1,0,3:0:0:0:
277,231,52550,1,0,3:0:0:0:
446,342,52629,2,0,B|355:381|424:315|333:318|288:360|288:360|273:306|316:286,1,255,0|0,1:0|0:0,0:0:0:0:
389,23,52945,6,0,P|405:78|458:52,1,119,8|0,0:0|0:0,0:0:0:0:
171,85,53576,6,0,L|178:135,1,51,2|0,0:0|0:0,0:0:0:0:
47,39,53892,2,0,L|54:100,1,42.5,0|0,3:0|3:0,3:0:0:0:
51,81,54050,2,0,L|58:142,1,42.5,0|0,3:0|3:0,3:0:0:0:
55,123,54208,2,0,L|62:184,1,42.5,0|0,3:0|3:0,3:0:0:0:
59,165,54366,2,0,L|66:226,1,42.5,0|0,3:0|3:0,3:0:0:0:
63,207,54524,6,0,L|67:245,1,38.2499988327027
72,287,54839,6,0,L|67:244,3,42.5,2|0|0|0,0:0|0:0|0:0|0:0,0:0:0:0:
166,278,55155,2,0,L|174:371,3,85
173,362,55471,1,2,0:0:0:0:
364,36,55629,5,0,3:0:0:0:
372,81,55708,1,0,3:0:0:0:
380,126,55787,1,0,3:0:0:0:
388,171,55866,1,0,3:0:0:0:
396,216,55945,1,0,3:0:0:0:
404,261,56024,1,0,3:0:0:0:
410,305,56102,6,0,P|328:352|274:218,1,272,4|2,1:2|0:0,0:0:0:0:
243,109,56576,1,0,0:0:0:0:
36,324,56734,1,8,0:0:0:0:
243,305,56892,1,0,0:0:0:0:
36,324,57050,1,2,0:0:0:0:
36,324,57366,5,4,0:0:0:0:
243,305,57524,1,0,0:0:0:0:
36,324,57682,1,2,0:0:0:0:
70,126,57839,2,0,L|65:87,2,34
85,219,57997,5,10,0:0:0:0:
342,163,58155,1,0,0:0:0:0:
170,163,58313,1,0,0:0:0:0:
255,219,58471,1,2,0:0:0:0:
494,59,58629,6,0,P|373:80|392:201,1,272,4|0,0:0|0:0,0:0:0:0:
224,96,59102,1,0,0:0:0:0:
445,273,59260,1,8,0:0:0:0:
240,248,59418,1,0,0:0:0:0:
454,137,59576,2,0,L|443:288,1,136
240,248,59892,5,4,0:0:0:0:
231,384,60050,2,0,L|242:233,1,136
322,27,60366,5,0,0:0:0:0:
366,30,60445,1,0,0:0:0:0:
410,33,60524,1,8,0:0:0:0:
224,122,60681,5,0,0:0:0:0:
281,125,60760,1,0,0:0:0:0:
338,129,60839,1,2,0:0:0:0:
395,133,60918,1,0,0:0:0:0:
452,137,60997,1,0,0:0:0:0:
0,90,61155,6,0,P|121:111|102:232,1,272,4|0,0:0|0:0,0:0:0:0:
257,72,61629,1,0,0:0:0:0:
470,295,61787,1,8,0:0:0:0:
263,276,61945,1,0,0:0:0:0:
470,295,62103,1,2,0:0:0:0:
470,295,62418,5,4,0:0:0:0:
263,276,62576,1,0,0:0:0:0:
470,295,62734,1,2,0:0:0:0:
436,97,62892,2,0,L|440:62,2,34
421,190,63049,5,10,0:0:0:0:
164,134,63207,1,0,0:0:0:0:
336,134,63365,1,0,0:0:0:0:
251,190,63523,1,2,0:0:0:0:
138,35,63681,6,0,P|69:147|152:239,1,272,4|0,0:0|0:0,0:0:0:0:
16,271,64155,1,0,0:0:0:0:
311,340,64313,1,8,0:0:0:0:
336,134,64471,1,0,0:0:0:0:
446,349,64629,2,0,L|295:338,1,136
336,134,64945,5,4,0:0:0:0:
200,124,65103,2,0,L|351:135,1,136
124,325,65418,5,0,0:0:0:0:
168,328,65497,1,0,0:0:0:0:
212,331,65576,1,8,0:0:0:0:
162,186,65734,6,0,L|27:176,1,136,4|0,1:2|0:0,0:0:0:0:
183,145,65971,2,0,L|84:137,1,85,4|0,0:0|0:0,0:0:0:0:
203,103,66208,1,4,1:0:0:0:
256,192,66366,12,0,68576,0:0:0:0:
409,342,68734,5,0,0:0:0:0:
310,283,68892,2,0,L|314:320,3,28.3333333333333,2|0|0|0,0:0|0:0|0:0|0:0,0:0:0:0:
391,119,69208,2,0,L|401:220,1,101.999996887207
284,62,69681,2,0,L|288:99,2,25.4999992218018,2|0|0,0:0|0:0|0:0,0:0:0:0:
43,345,69997,5,0,0:0:0:0:
113,333,70155,1,0,0:0:0:0:
183,321,70313,1,2,0:0:0:0:
253,309,70471,1,0,0:0:0:0:
253,309,70787,2,0,L|289:300,4,25.4999992218018,0|0|2|0|0,0:0|0:0|0:0|0:0|0:0,0:0:0:0:
6,151,71260,5,2,0:0:0:0:
54,48,71418,2,0,L|17:52,3,28.3333333333333
218,129,71734,2,0,L|116:139,1,101.999996887207,2|0,0:0|0:0,0:0:0:0:
390,115,72208,2,0,L|359:120,1,25.4999992218018
422,14,72366,2,0,L|321:32,1,101.999996887207
277,40,72734,2,0,L|255:44,2,16.9999994812012,0|0|2,0:0|0:0|0:0,0:0:0:0:
149,63,72997,1,2,0:0:0:0:
149,63,73313,2,0,L|98:69,2,50.9999984436036
270,176,73787,6,0,L|245:179,2,25.4999992218018,2|0|0,0:0|0:0|0:0,0:0:0:0:
367,155,74102,1,0,0:0:0:0:
483,236,74260,2,0,L|382:248,1,101.999996887207,2|0,0:0|0:0,0:0:0:0:
353,250,74629,2,0,L|328:253,2,16.9999994812012
237,267,74892,1,0,0:0:0:0:
18,171,75050,5,4,0:0:0:0:
18,171,75129,1,0,0:0:0:0:
18,171,75208,2,0,L|24:255,1,85
149,93,75366,5,4,0:0:0:0:
153,145,75445,1,0,0:0:0:0:
156,190,75524,2,0,L|162:274,1,85
285,309,75681,6,0,P|309:259|359:227,1,110.499994941712,4|0,0:0|0:0,0:0:0:0:
241,104,75839,2,0,P|272:150|274:209,1,110.499994941712,4|0,0:0|0:0,0:0:0:0:
413,378,75997,2,0,P|426:313|526:310,1,136,4|0,0:0|0:0,0:0:0:0:
412,90,76155,2,0,P|460:135|449:203,1,136,4|0,0:0|0:0,0:0:0:0:
11,323,76313,6,0,B|47:287|91:292|91:292|87:304|87:304|129:296|152:315,1,170,4|0,1:2|0:0,0:0:0:0:
239,362,76550,1,0,0:0:0:0:
254,247,76629,1,12,3:2:0:0:
67,68,76787,2,0,B|48:38|48:38|95:3|95:3|78:145,1,220.999989883423,0|4,0:0|0:0,0:0:0:0:
10,197,77102,1,0,0:0:0:0:
104,173,77181,1,0,0:0:0:0:
198,149,77260,1,12,0:0:0:0:
499,128,77418,6,0,P|410:107|440:193,1,220.999989883423,0|4,0:0|0:0,0:0:0:0:
287,306,77734,2,0,P|339:289|395:290,1,110.499994941712
164,381,77892,2,0,P|124:344|97:297,1,110.499994941712,12|0,0:0|0:0,0:0:0:0:
134,103,78050,2,0,P|240:114|304:200,1,220.999989883423,0|4,0:0|0:0,0:0:0:0:
0,286,78366,1,4,0:2:0:0:
54,290,78444,1,0,0:0:0:0:
107,278,78523,1,12,0:2:0:0:
154,250,78602,1,0,0:0:0:0:
190,207,78681,1,0,0:0:0:0:
448,90,78839,6,0,B|439:40|396:33|396:33|404:52|404:52|383:94|394:141|433:175,1,220.999989883423,4|0,0:0|0:0,0:0:0:0:
366,243,79076,1,0,0:0:0:0:
474,265,79155,1,12,0:0:0:0:
187,86,79313,2,0,P|244:105|177:210,1,220.999989883423,0|4,0:0|0:0,0:0:0:0:
65,65,79629,1,0,0:0:0:0:
86,203,79787,1,12,0:0:0:0:
62,109,79866,1,0,0:0:0:0:
38,15,79945,1,0,0:0:0:0:
139,325,80102,6,0,P|191:338|227:379,1,110.499994941712,4|0,0:0|0:0,0:0:0:0:
381,281,80260,2,0,P|358:330|369:384,1,110.499994941712
216,158,80418,2,0,P|230:208|286:266,1,110.499994941712,8|0,0:0|0:0,0:0:0:0:
462,60,80576,2,4,P|387:49|432:153,1,220.999989883423,0|4,0:0|0:0,0:0:0:0:
457,332,80892,1,4,0:2:0:0:
403,336,80970,1,0,0:0:0:0:
350,324,81049,1,12,0:2:0:0:
303,296,81128,1,0,0:0:0:0:
267,253,81207,1,0,0:0:0:0:
61,62,81366,6,0,B|117:30|117:30|123:64|110:111|85:126|85:126|77:182,1,220.999989883423,4|0,1:2|0:0,0:0:0:0:
37,265,81602,1,0,0:0:0:0:
155,232,81681,1,12,0:0:0:0:
53,384,81839,2,0,P|35:284|132:259,1,220.999989883423,0|4,0:0|0:0,0:0:0:0:
255,349,82155,1,0,0:0:0:0:
267,253,82234,1,0,0:0:0:0:
278,157,82313,1,12,0:0:0:0:
480,64,82471,6,0,P|385:75|423:162,1,220.999989883423,0|4,0:0|0:0,0:0:0:0:
189,42,82787,2,0,P|242:23|297:23,1,110.499994941712
267,253,82945,2,0,P|212:252|160:233,1,110.499994941712,12|0,0:0|0:0,0:0:0:0:
8,179,83102,2,0,P|103:212|73:308,1,220.999989883423,0|4,0:0|0:0,0:0:0:0:
408,263,83418,2,0,P|380:310|399:360,2,110.499994941712,0|0|12,3:0|3:0|0:0,3:0:0:0:
398,359,83734,1,0,3:0:0:0:
475,57,83892,6,0,L|408:74,1,68,4|8,1:2|0:0,0:0:0:0:
37,57,84366,2,0,L|95:72,1,51,4|0,1:2|0:0,0:0:0:0:
86,69,84681,5,4,0:0:0:0:
255,0,84839,2,0,L|255:27,1,17
263,356,84997,6,2,B|236:331|236:331|268:315|268:315|234:292|234:292|263:262,1,153,6|0,1:2|0:1,0:1:0:0:
263,171,85787,6,0,B|276:158|276:158|260:150|260:150|277:139|277:139|266:127,14,72.2500013780594,4|0|0|0|0|0|0|0|0|0|0|0|0|0|0,1:0|0:0|0:0|0:0|0:0|0:0|0:0|0:0|0:0|0:0|0:0|0:0|0:0|0:0|0:0,0:0:0:0:
261,263,86418,6,0,L|261:336,1,68,4|0,1:2|0:0,0:0:0:0:
261,331,86892,1,2,0:0:0:0:
33,249,87050,6,0,L|66:244,1,34,12|0,0:0|0:0,0:0:0:0:
438,211,87287,2,0,L|404:206,1,34
119,87,87524,2,0,L|135:84,1,17,4|0,0:0|0:0,0:0:0:0:
232,39,87681,5,4,0:0:0:0:
232,39,87839,1,0,0:0:0:0:
232,39,87997,2,0,L|292:35,1,51,2|0,0:0|0:0,0:0:0:0:
484,125,88313,6,0,L|450:121,1,34,12|0,0:0|0:0,0:0:0:0:
114,198,88550,2,0,L|147:194,1,34
429,310,88787,2,0,L|401:307,1,17
227,346,88945,6,0,L|300:332,1,68,4|2,0:0|0:0,0:0:0:0:
293,333,89418,1,2,0:0:0:0:
44,263,89576,6,0,L|77:267,1,34,12|0,0:0|0:0,0:0:0:0:
461,153,89813,2,0,L|427:157,1,34
104,36,90050,2,0,L|128:39,1,17
406,36,90208,6,0,L|382:39,2,17,6|0|0,0:0|0:0|0:0,0:0:0:0:
187,148,90445,6,0,L|210:151,2,17,2|0|0,0:0|0:0|0:0,0:0:0:0:
410,217,90681,6,0,L|386:220,2,17,2|0|12,0:0|0:0|0:0,0:0:0:0:
268,335,90918,6,0,L|291:338,2,17,2|0|0,0:0|0:0|0:0,0:0:0:0:
378,336,91155,5,0,0:0:0:0:
35,200,91313,6,0,L|51:197,1,17,2|0,0:0|0:0,0:0:0:0:
92,269,91471,6,0,L|104:191,1,68,4|0,1:2|0:0,0:0:0:0:
102,201,91945,1,2,0:0:0:0:
214,353,92102,6,0,L|208:319,1,34,8|0,0:0|0:0,0:0:0:0:
324,80,92339,2,0,L|318:113,1,34,2|0,0:0|0:0,0:0:0:0:
448,353,92576,2,0,L|445:336,1,17,14|0,0:0|0:0,0:0:0:0:
489,234,92734,5,4,0:0:0:0:
489,234,92892,1,0,0:0:0:0:
489,234,93050,2,0,L|496:175,1,51,2|0,0:0|0:0,0:0:0:0:
414,34,93366,6,0,L|418:67,1,34,10|0,0:0|0:0,0:0:0:0:
245,287,93602,2,0,L|249:253,1,34,2|0,0:0|0:0,0:0:0:0:
83,55,93839,2,0,L|85:71,1,17,2|0,0:0|0:0,0:0:0:0:
32,243,93997,6,0,L|18:170,1,68,4|0,0:0|0:0,0:0:0:0:
20,177,94471,1,0,0:0:0:0:
122,343,94629,6,0,L|128:309,1,34,12|0,0:0|0:0,0:0:0:0:
270,65,94866,2,0,L|276:98,1,34
401,323,95102,2,0,L|406:296,1,17
359,203,95260,6,0,P|403:177|454:179,5,85,4|0|0|0|0|0,1:2|0:0|0:0|0:0|0:0|0:0,0:0:0:0:
220,232,95497,2,0,P|257:251|282:284,1,85,4|0,0:0|0:0,0:0:0:0:
158,150,95655,1,4,0:0:0:0:
158,150,95734,2,0,P|193:127|235:122,1,85,2|0,0:0|0:0,0:0:0:0:
30,233,95892,6,0,L|21:291,1,42.5,12|0,0:0|0:0,0:0:0:0:
56,121,96050,2,0,L|49:79,1,42.5,4|0,0:0|0:0,0:0:0:0:
61,268,96208,1,4,0:0:0:0:
35,73,96366,2,4,L|29:115,1,42.5
158,328,96524,6,0,P|319:353|95:222,1,892.500034046174
492,345,97155,6,0,L|459:340,1,34,8|0,1:2|0:0,0:0:0:0:
135,223,97392,2,0,L|168:218,1,34
418,76,97629,2,0,L|402:73,1,17,8|0,0:0|0:0,0:0:0:0:
287,49,97787,5,4,0:0:0:0:
287,49,97945,1,4,0:0:0:0:
287,49,98102,2,0,L|235:56,1,51,2|0,0:0|0:0,0:0:0:0:
42,129,98418,6,0,L|77:134,1,34,14|0,0:0|0:0,0:0:0:0:
374,236,98655,2,0,L|340:241,1,34,0|0,0:0|0:0,0:0:0:0:
49,357,98892,2,0,L|67:359,1,17,6|0,0:0|0:0,0:0:0:0:
246,287,99050,6,0,L|179:294,1,68,6|0,0:0|0:0,0:0:0:0:
179,294,99524,1,0,0:0:0:0:
422,340,99681,6,0,L|389:336,1,34,14|0,0:0|0:0,0:0:0:0:
94,190,99918,2,0,L|128:186,1,34
433,72,100155,2,0,L|416:70,1,17,2|0,0:0|0:0,0:0:0:0:
33,74,100313,6,0,L|49:72,2,17,6|0|0,0:0|0:0|0:0,0:0:0:0:
250,163,100550,6,0,L|233:161,2,17,2|0|0,0:0|0:0|0:0,0:0:0:0:
76,253,100787,6,0,L|92:251,2,17,0|0|12,0:0|0:0|0:0,0:0:0:0:
195,346,101024,6,0,L|178:344,2,17
78,375,101260,5,0,0:0:0:0:
477,200,101418,6,0,L|461:197,1,17,2|0,0:0|0:0,0:0:0:0:
420,269,101576,6,0,L|408:191,1,68,4|0,1:2|0:0,0:0:0:0:
410,201,102050,1,2,0:0:0:0:
298,353,102208,6,0,L|303:319,1,34,8|0,0:0|0:0,0:0:0:0:
188,80,102444,2,0,L|194:113,1,34,2|0,0:0|0:0,0:0:0:0:
64,353,102681,2,0,L|67:336,1,17,14|0,0:0|0:0,0:0:0:0:
34,158,102839,5,4,0:0:0:0:
42,225,102997,2,0,L|33:152,1,68,2|0,0:0|0:0,0:0:0:0:
155,42,103471,6,0,L|149:76,1,34,8|0,0:0|0:0,0:0:0:0:
278,338,103708,2,0,L|272:305,1,34,2|0,0:0|0:0,0:0:0:0:
416,40,103945,2,0,L|413:57,1,17,14|0,0:0|0:0,0:0:0:0:
404,205,104102,6,2,P|438:179|485:179,7,85,4|2|2|2|2|2|2|2,1:2|2:1|2:1|2:1|2:1|2:1|2:1|2:1,2:1:0:0:
297,258,104418,6,0,P|336:274|358:310,1,85,12|0,0:0|0:0,0:0:0:0:
219,275,104576,2,0,P|261:275|294:301,1,85,4|0,0:0|0:0,0:0:0:0:
104,58,104734,6,0,P|149:37|199:48,1,101.999996887207,12|0,0:0|0:0,0:0:0:0:
31,134,104892,2,0,P|66:99|120:93,1,101.999996887207,4|0,0:0|0:0,0:0:0:0:
8,253,105050,5,14,0:0:0:0:
415,44,105208,2,0,L|409:98,1,42.5,2|0,0:0|0:0,0:0:0:0:
483,171,105366,6,4,L|461:167,2,17,4|4|4,1:2|0:0|0:0,0:0:0:0:
62,209,105602,6,4,L|84:205,2,17,4|12|4,0:0|0:0|0:0,0:0:0:0:
316,262,105839,6,4,L|294:258,2,17
184,366,106076,6,4,L|205:362,2,17
297,375,106313,5,0,0:0:0:0:
201,28,106471,1,2,0:0:0:0:
384,192,106629,5,0,0:0:0:0:
384,192,106787,1,0,0:0:0:0:
384,192,106945,1,0,0:0:0:0:
384,192,107102,1,0,0:0:0:0:
384,192,107260,1,2,0:0:0:0:
384,192,107418,1,0,0:0:0:0:
288,192,107576,5,0,0:0:0:0:
336,108,107734,1,0,0:0:0:0:
432,107,107892,1,0,0:0:0:0:
480,189,108050,1,0,0:0:0:0:
432,271,108208,1,2,0:0:0:0:
336,270,108366,1,0,0:0:0:0:
288,192,108524,1,0,0:0:0:0:
288,192,108681,1,0,0:0:0:0:
128,192,108839,5,0,0:0:0:0:
128,192,108997,1,0,0:0:0:0:
128,192,109155,1,0,0:0:0:0:
128,192,109312,1,0,0:0:0:0:
128,192,109470,1,2,0:0:0:0:
128,192,109628,1,0,0:0:0:0:
224,192,109786,5,0,0:0:0:0:
176,108,109944,1,0,0:0:0:0:
80,107,110102,1,0,0:0:0:0:
32,189,110260,1,0,0:0:0:0:
80,271,110418,1,2,0:0:0:0:
176,270,110576,1,0,0:0:0:0:
223,186,110734,1,0,0:0:0:0:
223,186,110892,1,0,0:0:0:0:
256,78,111050,5,0,0:0:0:0:
256,78,111208,1,0,0:0:0:0:
256,78,111366,1,0,0:0:0:0:
256,78,111524,1,2,0:0:0:0:
