osu file format v14

[General]
AudioFilename: audio.mp3
AudioLeadIn: 0
PreviewTime: -1
Countdown: 1
SampleSet: Soft
StackLeniency: 0.7
Mode: 1
LetterboxInBreaks: 0
WidescreenStoryboard: 0

[Editor]
DistanceSpacing: 0.5
BeatDivisor: 4
GridSize: 16
TimelineZoom: 2.899999

[Metadata]
Title:Resistance 2
TitleUnicode:Resistance 2
Artist:Pyongyang Hardcore Resistance
ArtistUnicode:Pyongyang Hardcore Resistance
Creator:Xay
Version:Northern Oni
Source:
Tags:speedcore breakcore gabber phr korea corea
BeatmapID:1613639
BeatmapSetID:767578

[Difficulty]
HPDrainRate:6.6
CircleSize:5
OverallDifficulty:6.6
ApproachRate:5
SliderMultiplier:1.4
SliderTickRate:1

[Events]
//Background and Video events
0,0,"nk.jpg",0,0
//Break Periods
//Storyboard Layer 0 (Background)
//Storyboard Layer 1 (Fail)
//Storyboard Layer 2 (Pass)
//Storyboard Layer 3 (Foreground)
//Storyboard Sound Samples

[TimingPoints]
55,240,4,2,0,85,1,0

[HitObjects]
288,160,55,5,0,0:0:0:0:
224,144,535,1,8,0:0:0:0:
256,176,1015,1,0,0:0:0:0:
336,208,1495,1,8,0:0:0:0:
336,224,1975,1,0,0:0:0:0:
416,96,2455,1,8,0:0:0:0:
288,192,2935,1,0,0:0:0:0:
272,112,3415,1,8,0:0:0:0:
400,224,3655,1,8,0:0:0:0:
368,96,3775,1,8,0:0:0:0:
96,192,3895,5,0,0:0:0:0:
256,160,4375,1,8,0:0:0:0:
192,192,4855,1,0,0:0:0:0:
336,160,5335,1,8,0:0:0:0:
144,160,5815,1,0,0:0:0:0:
384,144,6295,1,8,0:0:0:0:
208,192,6775,1,0,0:0:0:0:
320,224,7255,1,8,0:0:0:0:
336,112,7735,1,4,0:0:0:0:
208,112,8215,1,8,0:0:0:0:
208,192,8695,1,0,0:0:0:0:
368,192,9175,1,8,0:0:0:0:
192,176,9655,1,0,0:0:0:0:
304,192,10135,1,8,0:0:0:0:
176,144,10615,1,0,0:0:0:0:
288,144,11095,1,8,0:0:0:0:
128,96,11455,1,4,0:0:0:0:
208,208,11575,1,4,0:0:0:0:
320,128,12055,1,8,0:0:0:0:
320,224,12535,1,0,0:0:0:0:
128,160,13015,1,8,0:0:0:0:
272,224,13495,1,0,0:0:0:0:
144,112,13975,1,8,0:0:0:0:
256,192,14455,1,4,0:0:0:0:
208,112,14815,1,4,0:0:0:0:
304,96,15175,1,12,0:0:0:0:
336,192,15415,1,4,0:0:0:0:
176,144,15655,1,8,0:0:0:0:
240,224,15895,1,8,0:0:0:0:
304,112,16135,1,8,0:0:0:0:
224,96,16375,1,0,0:0:0:0:
144,112,16615,1,8,0:0:0:0:
272,192,16855,1,8,0:0:0:0:
160,176,17095,1,8,0:0:0:0:
304,272,17335,1,0,0:0:0:0:
288,144,17575,1,8,0:0:0:0:
208,128,17815,1,8,0:0:0:0:
176,208,18055,1,8,0:0:0:0:
240,240,18295,1,0,0:0:0:0:
368,224,18535,1,8,0:0:0:0:
368,160,18775,1,8,0:0:0:0:
336,224,19015,1,8,0:0:0:0:
192,80,19135,1,0,0:0:0:0:
272,96,19175,1,0,0:0:0:0:
288,112,19215,1,0,0:0:0:0:
240,176,19255,1,0,0:0:0:0:
192,160,19495,1,8,0:0:0:0:
128,96,19735,1,8,0:0:0:0:
288,96,19975,1,8,0:0:0:0:
240,64,20215,1,0,0:0:0:0:
208,176,20455,1,8,0:0:0:0:
400,224,20695,1,8,0:0:0:0:
304,176,20935,1,8,0:0:0:0:
240,208,21175,1,0,0:0:0:0:
176,144,21415,1,8,0:0:0:0:
240,96,21655,1,8,0:0:0:0:
240,112,21895,1,8,0:0:0:0:
336,176,22135,1,4,0:0:0:0:
176,112,22375,1,4,0:0:0:0:
192,160,22495,1,4,0:0:0:0:
272,64,22735,1,12,0:0:0:0:
336,112,22855,1,12,0:0:0:0:
288,160,22975,1,12,0:0:0:0:
304,256,23095,1,4,0:0:0:0:
112,112,23335,1,8,0:0:0:0:
176,176,23575,1,8,0:0:0:0:
272,240,23815,1,8,0:0:0:0:
416,128,24055,1,0,0:0:0:0:
224,112,24295,1,8,0:0:0:0:
144,96,24535,1,8,0:0:0:0:
160,192,24775,1,8,0:0:0:0:
240,240,25015,1,0,0:0:0:0:
192,128,25255,1,8,0:0:0:0:
288,112,25495,1,8,0:0:0:0:
352,128,25735,1,8,0:0:0:0:
352,272,25975,1,0,0:0:0:0:
192,96,26215,1,8,0:0:0:0:
272,208,26455,1,8,0:0:0:0:
192,192,26695,1,8,0:0:0:0:
272,80,26815,1,8,0:0:0:0:
96,64,26935,1,0,0:0:0:0:
400,144,27175,1,8,0:0:0:0:
352,192,27415,1,0,0:0:0:0:
192,128,27575,1,0,0:0:0:0:
240,128,27735,1,0,0:0:0:0:
256,208,27895,1,8,0:0:0:0:
304,112,28135,1,8,0:0:0:0:
160,192,28255,1,0,0:0:0:0:
368,224,28375,1,8,0:0:0:0:
400,144,28615,1,0,0:0:0:0:
144,80,28735,1,8,0:0:0:0:
240,240,28855,1,0,0:0:0:0:
240,128,28975,1,0,0:0:0:0:
96,208,29095,1,0,0:0:0:0:
176,176,29215,1,0,0:0:0:0:
96,144,29335,1,8,0:0:0:0:
352,336,29455,1,8,0:0:0:0:
192,64,29575,1,8,0:0:0:0:
336,144,29695,1,8,0:0:0:0:
240,224,29815,1,0,0:0:0:0:
256,96,29935,1,0,0:0:0:0:
128,160,30055,1,0,0:0:0:0:
208,160,30175,1,0,0:0:0:0:
112,80,30295,1,8,0:0:0:0:
176,96,30415,1,8,0:0:0:0:
112,240,30535,1,4,0:0:0:0:
304,96,30775,1,0,0:0:0:0:
320,176,30835,1,0,0:0:0:0:
208,144,30895,1,8,0:0:0:0:
80,160,30955,1,8,0:0:0:0:
224,48,31015,1,0,0:0:0:0:
288,272,31075,1,0,0:0:0:0:
80,64,31135,1,8,0:0:0:0:
304,96,31255,1,0,0:0:0:0:
320,176,31315,1,0,0:0:0:0:
208,144,31375,1,8,0:0:0:0:
160,237,31435,1,0,0:0:0:0:
224,48,31495,1,0,0:0:0:0:
103,216,31555,1,0,0:0:0:0:
80,64,31615,1,8,0:0:0:0:
304,96,31735,1,0,0:0:0:0:
208,144,31855,1,8,0:0:0:0:
176,238,31915,1,0,0:0:0:0:
224,48,31975,1,0,0:0:0:0:
141,118,32035,1,0,0:0:0:0:
80,64,32095,1,8,0:0:0:0:
304,96,32215,1,0,0:0:0:0:
320,176,32275,1,0,0:0:0:0:
208,144,32335,1,8,0:0:0:0:
224,48,32455,1,0,0:0:0:0:
216,227,32515,1,0,0:0:0:0:
80,64,32575,1,8,0:0:0:0:
304,96,32695,1,0,0:0:0:0:
320,176,32755,1,0,0:0:0:0:
51,232,32815,1,8,0:0:0:0:
208,144,32875,1,8,0:0:0:0:
224,48,32935,1,0,0:0:0:0:
80,144,32995,1,0,0:0:0:0:
80,64,33055,1,8,0:0:0:0:
304,96,33175,1,0,0:0:0:0:
394,240,33235,1,0,0:0:0:0:
208,144,33295,1,8,0:0:0:0:
224,48,33415,1,0,0:0:0:0:
168,69,33475,1,0,0:0:0:0:
80,64,33535,1,8,0:0:0:0:
304,96,33655,1,0,0:0:0:0:
320,176,33715,1,0,0:0:0:0:
208,144,33775,1,8,0:0:0:0:
224,272,33835,1,8,0:0:0:0:
224,48,33895,1,0,0:0:0:0:
144,272,33955,1,0,0:0:0:0:
80,64,34015,1,8,0:0:0:0:
336,336,34075,1,0,0:0:0:0:
304,96,34135,1,0,0:0:0:0:
320,176,34195,1,0,0:0:0:0:
208,144,34255,1,8,0:0:0:0:
192,208,34315,1,8,0:0:0:0:
224,48,34375,1,0,0:0:0:0:
176,144,34435,1,0,0:0:0:0:
80,64,34495,1,0,0:0:0:0:
384,256,34555,1,8,0:0:0:0:
272,176,34615,1,0,0:0:0:0:
112,160,34735,1,8,0:0:0:0:
304,96,34855,1,0,0:0:0:0:
320,176,34915,1,0,0:0:0:0:
208,144,34975,1,8,0:0:0:0:
128,240,35035,1,0,0:0:0:0:
224,48,35095,1,0,0:0:0:0:
156,87,35215,1,8,0:0:0:0:
304,96,35335,1,0,0:0:0:0:
320,176,35395,1,0,0:0:0:0:
208,144,35455,1,8,0:0:0:0:
192,160,35515,1,8,0:0:0:0:
224,48,35575,1,0,0:0:0:0:
80,64,35695,1,8,0:0:0:0:
249,236,35755,1,8,0:0:0:0:
304,96,35815,1,0,0:0:0:0:
320,176,35875,1,0,0:0:0:0:
208,144,35935,1,8,0:0:0:0:
224,48,36055,1,0,0:0:0:0:
80,64,36175,1,8,0:0:0:0:
169,242,36235,1,0,0:0:0:0:
304,96,36295,1,0,0:0:0:0:
320,176,36355,1,0,0:0:0:0:
208,144,36415,1,8,0:0:0:0:
277,274,36475,1,8,0:0:0:0:
224,48,36535,1,0,0:0:0:0:
80,64,36655,1,8,0:0:0:0:
304,96,36775,1,0,0:0:0:0:
320,176,36835,1,0,0:0:0:0:
208,144,36895,1,8,0:0:0:0:
96,144,36955,1,8,0:0:0:0:
224,48,37015,1,0,0:0:0:0:
16,176,37075,1,0,0:0:0:0:
80,64,37135,1,8,0:0:0:0:
304,96,37255,1,0,0:0:0:0:
192,192,37315,1,0,0:0:0:0:
208,144,37375,1,8,0:0:0:0:
224,48,37495,1,0,0:0:0:0:
128,256,37555,1,0,0:0:0:0:
80,64,37615,1,8,0:0:0:0:
256,272,37675,1,0,0:0:0:0:
304,96,37735,1,0,0:0:0:0:
320,176,37795,1,8,0:0:0:0:
208,144,37855,1,0,0:0:0:0:
368,288,37915,1,0,0:0:0:0:
224,48,37975,1,8,0:0:0:0:
408,273,38035,1,8,0:0:0:0:
430,204,38095,1,8,0:0:0:0:
64,128,38155,1,8,0:0:0:0:
80,64,38215,1,0,0:0:0:0:
320,112,38335,1,4,0:0:0:0:
272,224,38455,1,4,0:0:0:0:
176,144,38575,1,8,0:0:0:0:
160,96,38695,1,0,0:0:0:0:
224,96,38755,1,0,0:0:0:0:
304,144,38815,1,8,0:0:0:0:
304,160,38875,1,8,0:0:0:0:
240,192,38935,1,0,0:0:0:0:
320,208,39055,1,8,0:0:0:0:
256,288,39175,1,0,0:0:0:0:
80,176,39235,1,0,0:0:0:0:
64,64,39295,1,8,0:0:0:0:
153,35,39355,1,0,0:0:0:0:
208,288,39415,1,0,0:0:0:0:
160,96,39535,1,8,0:0:0:0:
304,208,39595,1,0,0:0:0:0:
240,96,39655,1,0,0:0:0:0:
208,128,39715,1,0,0:0:0:0:
256,144,39775,1,8,0:0:0:0:
352,256,39895,1,0,0:0:0:0:
48,144,40015,1,8,0:0:0:0:
399,258,40075,1,8,0:0:0:0:
144,208,40135,1,0,0:0:0:0:
176,176,40255,1,0,0:0:0:0:
208,80,40375,1,0,0:0:0:0:
336,192,40435,1,0,0:0:0:0:
128,80,40495,1,8,0:0:0:0:
448,176,40555,1,8,0:0:0:0:
336,144,40615,1,0,0:0:0:0:
256,144,40675,1,0,0:0:0:0:
320,224,40735,1,8,0:0:0:0:
240,288,40855,1,0,0:0:0:0:
272,64,40915,1,0,0:0:0:0:
192,192,40975,1,8,0:0:0:0:
401,252,41035,1,0,0:0:0:0:
112,160,41095,1,0,0:0:0:0:
160,96,41215,1,8,0:0:0:0:
112,80,41335,1,0,0:0:0:0:
192,128,41395,1,0,0:0:0:0:
272,128,41455,1,8,0:0:0:0:
224,64,41515,1,8,0:0:0:0:
160,48,41575,1,0,0:0:0:0:
64,48,41635,1,0,0:0:0:0:
48,112,41695,1,0,0:0:0:0:
144,208,41755,1,8,0:0:0:0:
80,192,41815,1,8,0:0:0:0:
160,176,41875,1,0,0:0:0:0:
192,176,41935,1,8,0:0:0:0:
208,160,41995,1,8,0:0:0:0:
240,192,42055,1,0,0:0:0:0:
384,160,42115,1,0,0:0:0:0:
352,96,42175,1,8,0:0:0:0:
368,64,42235,1,8,0:0:0:0:
320,256,42295,1,0,0:0:0:0:
181,83,42415,1,8,0:0:0:0:
291,131,42535,1,0,0:0:0:0:
233,91,42595,1,0,0:0:0:0:
219,88,42655,1,8,0:0:0:0:
301,252,42715,1,8,0:0:0:0:
124,107,42775,1,0,0:0:0:0:
181,83,42895,1,8,0:0:0:0:
291,131,43015,1,0,0:0:0:0:
233,91,43075,1,0,0:0:0:0:
219,88,43135,1,8,0:0:0:0:
89,162,43195,1,0,0:0:0:0:
124,107,43255,1,0,0:0:0:0:
181,83,43375,1,8,0:0:0:0:
358,227,43435,1,8,0:0:0:0:
223,242,43495,1,0,0:0:0:0:
233,91,43555,1,0,0:0:0:0:
219,88,43615,1,8,0:0:0:0:
124,107,43735,1,0,0:0:0:0:
181,83,43855,1,8,0:0:0:0:
368,144,43915,1,8,0:0:0:0:
291,131,43975,1,0,0:0:0:0:
304,192,44035,1,0,0:0:0:0:
219,88,44095,1,0,0:0:0:0:
124,107,44215,1,0,0:0:0:0:
181,83,44335,1,8,0:0:0:0:
240,224,44395,1,0,0:0:0:0:
291,131,44455,1,0,0:0:0:0:
233,91,44515,1,0,0:0:0:0:
219,88,44575,1,8,0:0:0:0:
124,107,44695,1,0,0:0:0:0:
181,83,44815,1,8,0:0:0:0:
416,240,44875,1,8,0:0:0:0:
291,131,44935,1,0,0:0:0:0:
233,91,44995,1,0,0:0:0:0:
219,88,45055,1,8,0:0:0:0:
124,107,45175,1,8,0:0:0:0:
368,77,45235,1,0,0:0:0:0:
112,192,45295,1,8,0:0:0:0:
45,73,45355,1,0,0:0:0:0:
336,176,45415,1,8,0:0:0:0:
74,112,45475,1,0,0:0:0:0:
288,112,45535,1,8,0:0:0:0:
327,178,45595,1,0,0:0:0:0:
272,256,45655,1,8,0:0:0:0:
240,192,45715,1,8,0:0:0:0:
190,98,45775,1,8,0:0:0:0:
112,64,45835,1,8,0:0:0:0:
151,39,45895,1,0,0:0:0:0:
183,52,45955,1,8,0:0:0:0:
66,145,46015,1,0,0:0:0:0:
134,150,46075,1,0,0:0:0:0:
171,189,46135,1,0,0:0:0:0:
251,118,46255,1,8,0:0:0:0:
321,102,46375,1,0,0:0:0:0:
259,65,46435,1,0,0:0:0:0:
245,62,46495,1,8,0:0:0:0:
244,231,46555,1,8,0:0:0:0:
184,130,46615,1,0,0:0:0:0:
251,118,46735,1,8,0:0:0:0:
321,102,46855,1,0,0:0:0:0:
259,65,46915,1,0,0:0:0:0:
245,62,46975,1,8,0:0:0:0:
299,248,47035,1,0,0:0:0:0:
184,130,47095,1,0,0:0:0:0:
251,118,47215,1,8,0:0:0:0:
321,102,47335,1,0,0:0:0:0:
259,65,47395,1,0,0:0:0:0:
245,62,47455,1,8,0:0:0:0:
272,176,47515,1,0,0:0:0:0:
184,130,47575,1,0,0:0:0:0:
251,118,47695,1,8,0:0:0:0:
400,256,47755,1,0,0:0:0:0:
259,65,47815,1,0,0:0:0:0:
352,208,47875,1,0,0:0:0:0:
245,62,47935,1,8,0:0:0:0:
144,64,47995,1,0,0:0:0:0:
192,160,48055,1,0,0:0:0:0:
251,118,48175,1,8,0:0:0:0:
144,144,48235,1,8,0:0:0:0:
321,102,48295,1,0,0:0:0:0:
259,65,48355,1,0,0:0:0:0:
245,62,48415,1,8,0:0:0:0:
184,130,48535,1,0,0:0:0:0:
251,118,48655,1,8,0:0:0:0:
304,240,48715,1,0,0:0:0:0:
321,102,48775,1,0,0:0:0:0:
259,65,48835,1,0,0:0:0:0:
245,62,48895,1,8,0:0:0:0:
184,130,49015,1,0,0:0:0:0:
176,176,49075,1,0,0:0:0:0:
251,118,49135,1,8,0:0:0:0:
321,102,49255,1,0,0:0:0:0:
259,65,49315,1,0,0:0:0:0:
245,62,49375,1,8,0:0:0:0:
160,80,49435,1,8,0:0:0:0:
184,130,49495,1,0,0:0:0:0:
128,64,49555,1,8,0:0:0:0:
251,118,49615,1,0,0:0:0:0:
192,64,49675,1,0,0:0:0:0:
321,102,49735,1,8,0:0:0:0:
352,256,49795,1,8,0:0:0:0:
259,65,49855,1,0,0:0:0:0:
288,208,49915,1,8,0:0:0:0:
192,192,49975,1,0,0:0:0:0:
400,192,50095,1,8,0:0:0:0:
288,160,50215,1,0,0:0:0:0:
32,144,50275,1,0,0:0:0:0:
144,144,50335,1,8,0:0:0:0:
176,144,50395,1,8,0:0:0:0:
128,96,50455,1,0,0:0:0:0:
160,64,50575,1,8,0:0:0:0:
288,128,50695,1,0,0:0:0:0:
352,240,50755,1,0,0:0:0:0:
240,224,50815,1,8,0:0:0:0:
160,208,50875,1,8,0:0:0:0:
176,288,50935,1,0,0:0:0:0:
240,96,51055,1,8,0:0:0:0:
144,64,51175,1,0,0:0:0:0:
224,48,51235,1,0,0:0:0:0:
192,32,51295,1,8,0:0:0:0:
128,16,51355,1,0,0:0:0:0:
176,112,51415,1,0,0:0:0:0:
320,80,51535,1,8,0:0:0:0:
368,128,51595,1,8,0:0:0:0:
224,176,51655,1,0,0:0:0:0:
160,128,51775,1,0,0:0:0:0:
304,160,51895,1,0,0:0:0:0:
416,256,51955,1,0,0:0:0:0:
240,160,52015,1,8,0:0:0:0:
224,80,52075,1,8,0:0:0:0:
128,80,52135,1,0,0:0:0:0:
128,80,52195,1,0,0:0:0:0:
112,128,52255,1,8,0:0:0:0:
272,256,52375,1,0,0:0:0:0:
176,160,52495,1,8,0:0:0:0:
160,112,52555,1,0,0:0:0:0:
160,64,52615,1,0,0:0:0:0:
176,48,52675,1,0,0:0:0:0:
240,48,52735,1,8,0:0:0:0:
304,112,52855,1,0,0:0:0:0:
288,128,52975,1,8,0:0:0:0:
320,160,53035,1,8,0:0:0:0:
256,160,53095,1,0,0:0:0:0:
240,160,53155,1,0,0:0:0:0:
240,160,53215,1,8,0:0:0:0:
240,160,53275,1,8,0:0:0:0:
240,160,53335,1,0,0:0:0:0:
192,64,53395,1,8,0:0:0:0:
112,112,53455,1,8,0:0:0:0:
176,128,53515,1,8,0:0:0:0:
112,64,53575,1,0,0:0:0:0:
112,64,53635,1,0,0:0:0:0:
192,128,53695,1,8,0:0:0:0:
214,171,53815,1,4,0:0:0:0:
272,48,53975,1,0,0:0:0:0:
336,144,54135,1,0,0:0:0:0:
192,80,54295,1,8,0:0:0:0:
128,128,54455,1,8,0:0:0:0:
256,176,54615,1,0,0:0:0:0:
208,224,54775,1,8,0:0:0:0:
288,64,54855,1,0,0:0:0:0:
144,48,54935,1,0,0:0:0:0:
256,128,55015,1,0,0:0:0:0:
304,128,55095,1,8,0:0:0:0:
352,144,55175,1,0,0:0:0:0:
336,208,55255,1,8,0:0:0:0:
176,96,55415,1,0,0:0:0:0:
208,160,55575,1,0,0:0:0:0:
240,224,55735,1,8,0:0:0:0:
112,80,55815,1,0,0:0:0:0:
192,96,55895,1,0,0:0:0:0:
192,96,55975,1,0,0:0:0:0:
288,160,56055,1,8,0:0:0:0:
352,192,56135,1,0,0:0:0:0:
256,96,56215,1,8,0:0:0:0:
144,96,56375,1,0,0:0:0:0:
176,144,56535,1,0,0:0:0:0:
192,192,56695,1,8,0:0:0:0:
384,80,56775,1,8,0:0:0:0:
320,96,56855,1,8,0:0:0:0:
272,192,56935,1,0,0:0:0:0:
320,192,57015,1,0,0:0:0:0:
256,144,57095,1,0,0:0:0:0:
192,80,57175,1,8,0:0:0:0:
144,64,57255,1,8,0:0:0:0:
112,128,57335,1,0,0:0:0:0:
192,160,57415,1,0,0:0:0:0:
192,160,57495,1,8,0:0:0:0:
144,160,57575,1,0,0:0:0:0:
240,208,57655,1,8,0:0:0:0:
96,64,57815,1,0,0:0:0:0:
176,144,57975,1,0,0:0:0:0:
240,176,58135,1,8,0:0:0:0:
240,96,58215,1,0,0:0:0:0:
240,80,58295,1,8,0:0:0:0:
368,96,58375,1,0,0:0:0:0:
336,128,58455,1,8,0:0:0:0:
320,160,58535,1,0,0:0:0:0:
192,128,58615,1,8,0:0:0:0:
240,224,58775,1,0,0:0:0:0:
288,224,58935,1,0,0:0:0:0:
416,96,59095,1,8,0:0:0:0:
224,48,59155,1,0,0:0:0:0:
288,48,59215,1,0,0:0:0:0:
288,48,59275,1,0,0:0:0:0:
288,80,59335,1,8,0:0:0:0:
112,208,59395,1,8,0:0:0:0:
48,160,59455,1,0,0:0:0:0:
128,192,59515,1,0,0:0:0:0:
288,80,59575,1,8,0:0:0:0:
160,128,59635,1,8,0:0:0:0:
240,112,59695,1,8,0:0:0:0:
176,80,59755,1,8,0:0:0:0:
320,176,59815,1,0,0:0:0:0:
352,208,59875,1,0,0:0:0:0:
384,272,59935,1,0,0:0:0:0:
288,224,59995,1,0,0:0:0:0:
240,176,60055,1,8,0:0:0:0:
80,64,60115,1,0,0:0:0:0:
64,64,60175,1,0,0:0:0:0:
128,96,60235,1,0,0:0:0:0:
144,144,60295,1,8,0:0:0:0:
240,208,60415,1,0,0:0:0:0:
384,288,60535,1,8,0:0:0:0:
272,112,60655,1,0,0:0:0:0:
192,80,60775,1,0,0:0:0:0:
384,128,60855,1,0,0:0:0:0:
272,80,60935,1,0,0:0:0:0:
192,176,61015,1,0,0:0:0:0:
64,144,61135,1,0,0:0:0:0:
256,256,61255,1,8,0:0:0:0:
288,192,61495,1,0,0:0:0:0:
160,96,61555,1,0,0:0:0:0:
208,64,61615,1,8,0:0:0:0:
304,144,61675,1,0,0:0:0:0:
352,112,61735,1,8,0:0:0:0:
320,80,61795,1,8,0:0:0:0:
208,144,61855,1,0,0:0:0:0:
80,176,61915,1,0,0:0:0:0:
400,208,61975,1,8,0:0:0:0:
80,96,62035,1,0,0:0:0:0:
208,240,62095,1,0,0:0:0:0:
144,256,62155,1,0,0:0:0:0:
224,272,62215,1,8,0:0:0:0:
272,288,62275,1,0,0:0:0:0:
304,304,62335,1,0,0:0:0:0:
336,304,62395,1,0,0:0:0:0:
288,192,62455,1,8,0:0:0:0:
160,96,62515,1,0,0:0:0:0:
208,64,62575,1,8,0:0:0:0:
304,144,62635,1,0,0:0:0:0:
352,112,62695,1,8,0:0:0:0:
320,80,62755,1,8,0:0:0:0:
208,144,62815,1,0,0:0:0:0:
80,176,62875,1,0,0:0:0:0:
400,208,62935,1,8,0:0:0:0:
240,256,62995,1,0,0:0:0:0:
176,192,63055,1,0,0:0:0:0:
144,176,63115,1,0,0:0:0:0:
128,144,63175,1,8,0:0:0:0:
128,128,63235,1,0,0:0:0:0:
128,128,63295,1,0,0:0:0:0:
128,128,63355,1,0,0:0:0:0:
288,192,63415,1,8,0:0:0:0:
160,96,63475,1,0,0:0:0:0:
208,64,63535,1,8,0:0:0:0:
304,144,63595,1,0,0:0:0:0:
352,112,63655,1,8,0:0:0:0:
320,80,63715,1,8,0:0:0:0:
208,144,63775,1,0,0:0:0:0:
80,176,63835,1,0,0:0:0:0:
400,208,63895,1,8,0:0:0:0:
224,224,63955,1,0,0:0:0:0:
144,176,64015,1,0,0:0:0:0:
144,176,64075,1,0,0:0:0:0:
144,176,64135,1,8,0:0:0:0:
144,176,64195,1,0,0:0:0:0:
144,176,64255,1,0,0:0:0:0:
144,176,64315,1,0,0:0:0:0:
224,96,64375,1,8,0:0:0:0:
96,64,64435,1,0,0:0:0:0:
320,128,64495,1,8,0:0:0:0:
272,224,64735,1,12,0:0:0:0:
384,256,64975,1,0,0:0:0:0:
384,192,65095,1,8,0:0:0:0:
368,80,65155,1,0,0:0:0:0:
288,192,65215,1,8,0:0:0:0:
160,96,65275,1,0,0:0:0:0:
288,192,65335,1,8,0:0:0:0:
160,96,65395,1,8,0:0:0:0:
208,64,65455,1,0,0:0:0:0:
304,144,65515,1,0,0:0:0:0:
352,112,65575,1,8,0:0:0:0:
320,80,65635,1,0,0:0:0:0:
208,144,65695,1,0,0:0:0:0:
80,176,65755,1,0,0:0:0:0:
400,208,65815,1,8,0:0:0:0:
48,112,65875,1,0,0:0:0:0:
224,224,65935,1,0,0:0:0:0:
144,224,65995,1,0,0:0:0:0:
144,224,66055,1,8,0:0:0:0:
208,256,66115,1,0,0:0:0:0:
208,256,66175,1,0,0:0:0:0:
208,256,66235,1,0,0:0:0:0:
288,192,66295,1,8,0:0:0:0:
160,96,66355,1,0,0:0:0:0:
208,64,66415,1,8,0:0:0:0:
304,144,66475,1,0,0:0:0:0:
352,112,66535,1,8,0:0:0:0:
320,80,66595,1,8,0:0:0:0:
208,144,66655,1,0,0:0:0:0:
80,176,66715,1,0,0:0:0:0:
400,208,66775,1,8,0:0:0:0:
176,224,66835,1,0,0:0:0:0:
304,256,66895,1,0,0:0:0:0:
288,224,66955,1,0,0:0:0:0:
288,208,67015,1,8,0:0:0:0:
256,192,67075,1,0,0:0:0:0:
256,192,67135,1,0,0:0:0:0:
256,192,67195,1,0,0:0:0:0:
288,192,67255,1,8,0:0:0:0:
160,96,67315,1,8,0:0:0:0:
208,64,67375,1,8,0:0:0:0:
304,144,67435,1,8,0:0:0:0:
352,112,67495,1,0,0:0:0:0:
320,80,67555,1,8,0:0:0:0:
208,144,67615,1,0,0:0:0:0:
80,176,67675,1,0,0:0:0:0:
400,208,67735,1,8,0:0:0:0:
272,208,67795,1,8,0:0:0:0:
256,176,67855,1,0,0:0:0:0:
256,176,67915,1,0,0:0:0:0:
208,176,67975,1,8,0:0:0:0:
208,176,68035,1,8,0:0:0:0:
208,176,68095,1,0,0:0:0:0:
208,176,68155,1,0,0:0:0:0:
288,192,68215,1,8,0:0:0:0:
160,96,68275,1,0,0:0:0:0:
208,64,68335,1,8,0:0:0:0:
304,144,68395,1,0,0:0:0:0:
352,112,68455,1,8,0:0:0:0:
320,80,68515,1,8,0:0:0:0:
208,144,68575,1,0,0:0:0:0:
80,176,68635,1,0,0:0:0:0:
400,208,68695,1,8,0:0:0:0:
240,208,68815,1,0,0:0:0:0:
256,160,68935,1,8,0:0:0:0:
240,80,69175,1,0,0:0:0:0:
112,96,69235,1,0,0:0:0:0:
144,80,69295,1,0,0:0:0:0:
160,80,69355,1,0,0:0:0:0:
240,144,69415,1,8,0:0:0:0:
304,128,69475,1,8,0:0:0:0:
320,160,69535,1,0,0:0:0:0:
192,192,69595,1,0,0:0:0:0:
128,160,69655,1,8,0:0:0:0:
176,128,69715,1,0,0:0:0:0:
272,192,69775,1,0,0:0:0:0:
336,256,69835,1,8,0:0:0:0:
192,240,69895,1,0,0:0:0:0:
256,272,69955,1,0,0:0:0:0:
384,208,70015,1,8,0:0:0:0:
400,176,70075,1,0,0:0:0:0:
320,96,70135,1,8,0:0:0:0:
240,80,70195,1,8,0:0:0:0:
176,80,70255,1,8,0:0:0:0:
240,128,70315,1,0,0:0:0:0:
240,128,70375,1,8,0:0:0:0:
208,160,70435,1,0,0:0:0:0:
80,144,70495,1,0,0:0:0:0:
128,224,70555,1,8,0:0:0:0:
272,224,70615,1,0,0:0:0:0:
208,208,70675,1,0,0:0:0:0:
208,208,70735,1,8,0:0:0:0:
208,176,70795,1,0,0:0:0:0:
112,80,70855,1,8,0:0:0:0:
112,64,70915,1,8,0:0:0:0:
144,48,70975,1,8,0:0:0:0:
192,48,71035,1,8,0:0:0:0:
288,144,71095,1,0,0:0:0:0:
336,96,71155,1,0,0:0:0:0:
288,96,71215,1,0,0:0:0:0:
224,96,71275,1,0,0:0:0:0:
256,160,71335,1,8,0:0:0:0:
368,192,71395,1,8,0:0:0:0:
400,160,71455,1,0,0:0:0:0:
400,96,71515,1,8,0:0:0:0:
368,64,71575,1,8,0:0:0:0:
336,80,71635,1,0,0:0:0:0:
144,160,71695,1,0,0:0:0:0:
224,192,71755,1,0,0:0:0:0:
240,224,71815,1,8,0:0:0:0:
192,48,71875,1,8,0:0:0:0:
272,96,71935,1,0,0:0:0:0:
352,144,71995,1,0,0:0:0:0:
224,96,72055,1,8,0:0:0:0:
144,80,72115,1,0,0:0:0:0:
320,192,72175,1,8,0:0:0:0:
320,256,72235,1,0,0:0:0:0:
416,272,72295,1,8,0:0:0:0:
64,96,72355,1,0,0:0:0:0:
96,64,72415,1,8,0:0:0:0:
224,80,72475,1,0,0:0:0:0:
208,160,72535,1,8,0:0:0:0:
128,176,72775,1,4,0:0:0:0:
240,112,73015,1,0,0:0:0:0:
288,144,73075,1,0,0:0:0:0:
336,64,73135,1,8,0:0:0:0:
352,128,73195,1,8,0:0:0:0:
160,192,73255,1,0,0:0:0:0:
288,224,73315,1,8,0:0:0:0:
352,192,73375,1,8,0:0:0:0:
192,192,73435,1,0,0:0:0:0:
416,272,73495,1,0,0:0:0:0:
112,112,73555,1,0,0:0:0:0:
448,192,73615,1,8,0:0:0:0:
192,112,73675,1,0,0:0:0:0:
176,64,73735,1,0,0:0:0:0:
240,64,73795,1,8,0:0:0:0:
256,96,73855,1,0,0:0:0:0:
240,128,73915,1,0,0:0:0:0:
272,224,73975,1,8,0:0:0:0:
320,96,74035,1,8,0:0:0:0:
320,48,74095,1,0,0:0:0:0:
352,144,74155,1,8,0:0:0:0:
80,176,74215,1,8,0:0:0:0:
144,208,74275,1,0,0:0:0:0:
176,224,74335,1,8,0:0:0:0:
272,288,74395,1,0,0:0:0:0:
368,288,74455,1,0,0:0:0:0:
352,272,74515,1,0,0:0:0:0:
96,80,74575,1,8,0:0:0:0:
176,80,74635,1,8,0:0:0:0:
208,192,74695,1,0,0:0:0:0:
240,128,74755,1,0,0:0:0:0:
288,128,74815,1,0,0:0:0:0:
288,128,74875,1,0,0:0:0:0:
320,208,74935,1,8,0:0:0:0:
384,160,74995,1,8,0:0:0:0:
368,112,75055,1,0,0:0:0:0:
336,64,75115,1,8,0:0:0:0:
272,64,75175,1,8,0:0:0:0:
144,192,75235,1,0,0:0:0:0:
80,160,75295,1,0,0:0:0:0:
80,144,75355,1,0,0:0:0:0:
160,144,75415,1,8,0:0:0:0:
128,80,75475,1,0,0:0:0:0:
160,96,75535,1,0,0:0:0:0:
144,80,75595,1,8,0:0:0:0:
224,112,75655,1,0,0:0:0:0:
256,144,75715,1,0,0:0:0:0:
288,160,75775,1,8,0:0:0:0:
288,160,75835,1,0,0:0:0:0:
288,160,75895,1,8,0:0:0:0:
320,112,75955,1,8,0:0:0:0:
240,48,76015,1,8,0:0:0:0:
240,48,76075,1,8,0:0:0:0:
208,48,76135,1,0,0:0:0:0:
192,48,76195,1,8,0:0:0:0:
112,48,76255,1,0,0:0:0:0:
128,176,76315,1,8,0:0:0:0:
320,320,76375,1,0,0:0:0:0:
224,192,76615,1,0,0:0:0:0:
368,240,76855,1,12,0:0:0:0:
272,144,77335,1,8,0:0:0:0:
272,240,77815,1,8,0:0:0:0:
384,208,78295,1,8,0:0:0:0:
272,160,78775,1,8,0:0:0:0:
320,256,79255,1,8,0:0:0:0:
192,160,79735,1,8,0:0:0:0:
304,208,80215,1,8,0:0:0:0:
304,128,80335,1,0,0:0:0:0:
256,64,80455,1,8,0:0:0:0:
112,128,80695,1,4,0:0:0:0:
416,160,81175,1,8,0:0:0:0:
256,192,81655,1,8,0:0:0:0:
176,128,82135,1,8,0:0:0:0:
272,160,82615,1,8,0:0:0:0:
368,224,83095,1,8,0:0:0:0:
224,160,83575,1,0,0:0:0:0:
128,128,83635,1,0,0:0:0:0:
256,240,83695,1,0,0:0:0:0:
144,80,83815,1,0,0:0:0:0:
240,80,83935,1,0,0:0:0:0:
176,48,84055,1,0,0:0:0:0:
368,224,84175,1,0,0:0:0:0:
96,208,84295,1,0,0:0:0:0:
320,176,84535,1,0,0:0:0:0:
272,176,84595,1,8,0:0:0:0:
192,176,84655,1,8,0:0:0:0:
144,112,84715,1,8,0:0:0:0:
240,128,84775,1,0,0:0:0:0:
320,176,84835,1,8,0:0:0:0:
272,176,84895,1,8,0:0:0:0:
192,176,84955,1,8,0:0:0:0:
144,112,85015,1,0,0:0:0:0:
240,128,85075,1,8,0:0:0:0:
320,176,85135,1,8,0:0:0:0:
272,176,85195,1,8,0:0:0:0:
192,176,85255,1,8,0:0:0:0:
144,112,85315,1,8,0:0:0:0:
240,128,85375,1,8,0:0:0:0:
320,176,85435,1,8,0:0:0:0:
272,176,85495,1,0,0:0:0:0:
192,176,85555,1,8,0:0:0:0:
144,112,85615,1,8,0:0:0:0:
240,128,85675,1,8,0:0:0:0:
320,176,85735,1,0,0:0:0:0:
272,176,85795,1,8,0:0:0:0:
192,176,85855,1,8,0:0:0:0:
144,112,85915,1,8,0:0:0:0:
240,128,85975,1,0,0:0:0:0:
320,176,86035,1,8,0:0:0:0:
272,176,86095,1,8,0:0:0:0:
192,176,86155,1,8,0:0:0:0:
144,112,86215,1,8,0:0:0:0:
240,128,86275,1,8,0:0:0:0:
320,176,86335,1,8,0:0:0:0:
272,176,86395,1,8,0:0:0:0:
192,176,86455,1,0,0:0:0:0:
144,112,86515,1,8,0:0:0:0:
240,128,86575,1,8,0:0:0:0:
320,176,86635,1,8,0:0:0:0:
272,176,86695,1,0,0:0:0:0:
192,176,86755,1,8,0:0:0:0:
304,144,86815,1,0,0:0:0:0:
240,128,86875,1,8,0:0:0:0:
320,176,86935,1,0,0:0:0:0:
272,176,86995,1,8,0:0:0:0:
192,176,87055,1,8,0:0:0:0:
144,112,87115,1,8,0:0:0:0:
240,128,87175,1,0,0:0:0:0:
320,176,87235,1,8,0:0:0:0:
272,176,87295,1,8,0:0:0:0:
192,176,87355,1,8,0:0:0:0:
144,112,87415,1,0,0:0:0:0:
272,96,87475,1,0,0:0:0:0:
208,80,87535,1,0,0:0:0:0:
144,64,87655,1,0,0:0:0:0:
144,224,87775,1,0,0:0:0:0:
256,256,87895,1,0,0:0:0:0:
272,240,88015,1,0,0:0:0:0:
352,240,88135,1,0,0:0:0:0:
272,176,88375,1,0,0:0:0:0:
96,112,88435,1,8,0:0:0:0:
192,112,88495,1,8,0:0:0:0:
288,96,88555,1,8,0:0:0:0:
240,80,88615,1,0,0:0:0:0:
272,176,88675,1,8,0:0:0:0:
96,112,88735,1,8,0:0:0:0:
192,112,88795,1,8,0:0:0:0:
288,96,88855,1,0,0:0:0:0:
240,80,88915,1,8,0:0:0:0:
272,176,88975,1,8,0:0:0:0:
96,112,89035,1,8,0:0:0:0:
192,112,89095,1,8,0:0:0:0:
288,96,89155,1,8,0:0:0:0:
240,80,89215,1,8,0:0:0:0:
272,176,89275,1,8,0:0:0:0:
96,112,89335,1,0,0:0:0:0:
192,112,89395,1,8,0:0:0:0:
288,96,89455,1,8,0:0:0:0:
240,80,89515,1,8,0:0:0:0:
272,176,89575,1,0,0:0:0:0:
96,112,89635,1,8,0:0:0:0:
192,112,89695,1,8,0:0:0:0:
288,96,89755,1,8,0:0:0:0:
240,80,89815,1,0,0:0:0:0:
272,176,89875,1,8,0:0:0:0:
96,112,89935,1,8,0:0:0:0:
192,112,89995,1,8,0:0:0:0:
288,96,90055,1,8,0:0:0:0:
240,80,90115,1,8,0:0:0:0:
272,176,90175,1,8,0:0:0:0:
96,112,90235,1,8,0:0:0:0:
192,112,90295,1,0,0:0:0:0:
288,96,90355,1,0,0:0:0:0:
240,80,90415,1,0,0:0:0:0:
272,176,90475,1,0,0:0:0:0:
96,112,90535,1,0,0:0:0:0:
192,112,90595,1,0,0:0:0:0:
288,96,90655,1,0,0:0:0:0:
240,80,90715,1,0,0:0:0:0:
272,176,90775,1,8,0:0:0:0:
96,112,90835,1,8,0:0:0:0:
192,112,90895,1,8,0:0:0:0:
288,96,90955,1,8,0:0:0:0:
240,80,91015,1,8,0:0:0:0:
272,176,91075,1,8,0:0:0:0:
96,112,91135,1,8,0:0:0:0:
192,112,91195,1,8,0:0:0:0:
288,96,91255,1,0,0:0:0:0:
240,80,91315,1,0,0:0:0:0:
272,176,91375,1,0,0:0:0:0:
96,112,91435,1,0,0:0:0:0:
192,112,91495,1,8,0:0:0:0:
288,96,91555,1,0,0:0:0:0:
240,80,91615,1,8,0:0:0:0:
272,176,91675,1,0,0:0:0:0:
96,112,91735,1,8,0:0:0:0:
192,112,91795,1,8,0:0:0:0:
288,96,91855,1,8,0:0:0:0:
240,80,91915,1,8,0:0:0:0:
272,176,91975,1,0,0:0:0:0:
96,112,92035,1,8,0:0:0:0:
192,112,92095,1,8,0:0:0:0:
288,96,92155,1,8,0:0:0:0:
240,80,92215,1,0,0:0:0:0:
384,192,92455,1,0,0:0:0:0:
320,272,92575,1,0,0:0:0:0:
208,224,92695,1,8,0:0:0:0:
288,192,92935,1,8,0:0:0:0:
160,96,93055,1,0,0:0:0:0:
144,144,93175,1,8,0:0:0:0:
368,128,93295,1,0,0:0:0:0:
240,96,93415,1,0,0:0:0:0:
224,176,93535,1,0,0:0:0:0:
224,240,93655,1,8,0:0:0:0:
336,224,93895,1,8,0:0:0:0:
304,176,94015,1,8,0:0:0:0:
400,208,94135,1,0,0:0:0:0:
32,176,94255,1,0,0:0:0:0:
192,144,94375,1,0,0:0:0:0:
256,256,94615,1,8,0:0:0:0:
368,224,94855,1,8,0:0:0:0:
304,112,94975,1,0,0:0:0:0:
240,64,95095,1,8,0:0:0:0:
192,144,95215,1,8,0:0:0:0:
112,128,95335,1,0,0:0:0:0:
144,192,95455,1,0,0:0:0:0:
288,304,95575,1,8,0:0:0:0:
352,224,95815,1,8,0:0:0:0:
304,176,95935,1,8,0:0:0:0:
240,224,96055,1,0,0:0:0:0:
160,272,96175,1,0,0:0:0:0:
144,144,96295,1,0,0:0:0:0:
288,176,96535,1,8,0:0:0:0:
368,224,96775,1,8,0:0:0:0:
336,112,96895,1,0,0:0:0:0:
224,112,97015,1,8,0:0:0:0:
160,176,97135,1,0,0:0:0:0:
112,64,97255,1,0,0:0:0:0:
208,64,97375,1,0,0:0:0:0:
256,176,97495,1,8,0:0:0:0:
368,192,97735,1,8,0:0:0:0:
336,144,97855,1,8,0:0:0:0:
160,160,97975,1,0,0:0:0:0:
304,240,98095,1,0,0:0:0:0:
224,240,98215,1,0,0:0:0:0:
112,176,98455,1,8,0:0:0:0:
400,208,98695,1,8,0:0:0:0:
384,128,98815,1,8,0:0:0:0:
288,208,98935,1,0,0:0:0:0:
176,112,98995,1,8,0:0:0:0:
288,128,99175,1,0,0:0:0:0:
272,128,99235,1,8,0:0:0:0:
240,112,99415,1,0,0:0:0:0:
240,112,99475,1,8,0:0:0:0:
112,112,99655,1,0,0:0:0:0:
96,176,99715,1,8,0:0:0:0:
224,208,99805,1,8,0:0:0:0:
336,224,99895,1,0,0:0:0:0:
336,176,100015,1,0,0:0:0:0:
304,80,100135,1,0,0:0:0:0:
192,112,100375,1,8,0:0:0:0:
416,160,100615,1,8,0:0:0:0:
240,176,100735,1,0,0:0:0:0:
336,224,100855,1,8,0:0:0:0:
128,208,100975,1,8,0:0:0:0:
192,224,101095,1,0,0:0:0:0:
256,256,101215,1,0,0:0:0:0:
352,256,101335,1,8,0:0:0:0:
336,128,101575,1,8,0:0:0:0:
224,96,101695,1,8,0:0:0:0:
128,96,101815,1,0,0:0:0:0:
224,208,101935,1,0,0:0:0:0:
144,192,102055,1,0,0:0:0:0:
176,128,102175,1,0,0:0:0:0:
128,224,102295,1,8,0:0:0:0:
304,128,102535,1,8,0:0:0:0:
64,80,102655,1,0,0:0:0:0:
256,208,102775,1,8,0:0:0:0:
208,144,102895,1,0,0:0:0:0:
416,192,103015,1,8,0:0:0:0:
160,208,103055,1,8,0:0:0:0:
176,32,103255,1,8,0:0:0:0:
112,112,103295,1,8,0:0:0:0:
400,96,103375,1,0,0:0:0:0:
352,208,103495,1,8,0:0:0:0:
288,256,103615,1,8,0:0:0:0:
208,144,103735,1,0,0:0:0:0:
176,192,103855,1,0,0:0:0:0:
304,160,103975,1,0,0:0:0:0:
416,288,104215,1,8,0:0:0:0:
384,144,104455,1,8,0:0:0:0:
208,80,104575,1,0,0:0:0:0:
224,208,104695,1,8,0:0:0:0:
176,176,104815,1,0,0:0:0:0:
288,176,104935,1,0,0:0:0:0:
352,240,105055,1,0,0:0:0:0:
272,272,105175,1,8,0:0:0:0:
368,160,105415,1,8,0:0:0:0:
224,96,105535,1,8,0:0:0:0:
160,128,105655,1,0,0:0:0:0:
176,208,105775,1,0,0:0:0:0:
96,176,105895,1,0,0:0:0:0:
288,224,106135,1,8,0:0:0:0:
416,256,106375,1,8,0:0:0:0:
384,160,106495,1,8,0:0:0:0:
256,192,106615,8,0,107455,0:0:0:0:
224,192,107575,5,0,0:0:0:0:
96,96,107695,1,0,0:0:0:0:
352,224,107815,1,8,0:0:0:0:
224,64,107935,1,0,0:0:0:0:
224,64,107995,1,0,0:0:0:0:
208,64,108055,1,0,0:0:0:0:
176,64,108115,1,0,0:0:0:0:
160,64,108175,1,0,0:0:0:0:
336,176,108295,1,8,0:0:0:0:
256,144,108415,1,0,0:0:0:0:
224,112,108535,1,0,0:0:0:0:
80,192,108655,1,0,0:0:0:0:
208,176,108775,1,8,0:0:0:0:
256,224,108895,1,0,0:0:0:0:
144,128,108955,1,0,0:0:0:0:
112,112,109015,1,0,0:0:0:0:
64,80,109075,1,0,0:0:0:0:
64,80,109135,1,0,0:0:0:0:
320,208,109255,1,8,0:0:0:0:
208,128,109375,1,0,0:0:0:0:
144,64,109495,1,0,0:0:0:0:
144,176,109615,1,0,0:0:0:0:
368,304,109735,1,8,0:0:0:0:
304,96,109855,1,0,0:0:0:0:
208,80,109915,1,0,0:0:0:0:
208,80,109975,1,0,0:0:0:0:
128,96,110035,1,0,0:0:0:0:
128,96,110095,1,0,0:0:0:0:
352,208,110215,1,8,0:0:0:0:
208,176,110335,1,0,0:0:0:0:
288,224,110455,1,0,0:0:0:0:
256,176,110515,1,0,0:0:0:0:
208,176,110575,1,0,0:0:0:0:
176,224,110695,1,8,0:0:0:0:
352,240,110815,1,0,0:0:0:0:
320,192,110875,1,0,0:0:0:0:
288,176,110935,1,8,0:0:0:0:
240,144,111055,1,0,0:0:0:0:
176,128,111175,1,8,0:0:0:0:
320,80,111235,1,8,0:0:0:0:
192,64,111295,1,8,0:0:0:0:
144,64,111355,1,8,0:0:0:0:
144,144,111415,1,0,0:0:0:0:
288,256,111535,1,0,0:0:0:0:
352,288,111655,1,8,0:0:0:0:
64,112,111775,1,0,0:0:0:0:
80,128,111835,1,0,0:0:0:0:
192,176,111895,1,0,0:0:0:0:
160,176,111955,1,0,0:0:0:0:
160,176,112015,1,0,0:0:0:0:
112,240,112135,1,8,0:0:0:0:
224,144,112255,1,0,0:0:0:0:
160,112,112375,1,0,0:0:0:0:
352,128,112495,1,0,0:0:0:0:
288,224,112615,1,8,0:0:0:0:
272,176,112735,1,0,0:0:0:0:
240,96,112795,1,0,0:0:0:0:
208,96,112855,1,0,0:0:0:0:
208,96,112915,1,0,0:0:0:0:
208,96,112975,1,0,0:0:0:0:
368,304,113095,1,8,0:0:0:0:
128,160,113215,1,0,0:0:0:0:
128,160,113335,1,0,0:0:0:0:
160,80,113395,1,0,0:0:0:0:
128,160,113455,1,0,0:0:0:0:
240,208,113575,1,8,0:0:0:0:
352,288,113695,1,0,0:0:0:0:
208,160,113755,1,0,0:0:0:0:
288,192,113815,1,0,0:0:0:0:
176,128,113935,1,0,0:0:0:0:
336,160,114055,1,8,0:0:0:0:
192,144,114175,1,0,0:0:0:0:
160,128,114295,1,0,0:0:0:0:
240,112,114375,1,0,0:0:0:0:
240,208,114455,1,0,0:0:0:0:
160,176,114535,1,8,0:0:0:0:
208,176,114615,1,8,0:0:0:0:
208,176,114695,1,8,0:0:0:0:
208,176,114775,1,0,0:0:0:0:
208,176,114855,1,8,0:0:0:0:
208,176,114935,1,8,0:0:0:0:
368,288,115015,1,0,0:0:0:0:
336,160,115095,1,8,0:0:0:0:
272,160,115175,1,8,0:0:0:0:
288,160,115255,1,0,0:0:0:0:
144,80,115375,1,0,0:0:0:0:
256,80,115495,1,8,0:0:0:0:
208,64,115615,1,0,0:0:0:0:
144,112,115675,1,0,0:0:0:0:
192,160,115735,1,0,0:0:0:0:
240,224,115855,1,0,0:0:0:0:
128,208,115975,1,8,0:0:0:0:
336,192,116095,1,0,0:0:0:0:
400,128,116215,1,0,0:0:0:0:
240,144,116275,1,0,0:0:0:0:
128,48,116335,1,0,0:0:0:0:
288,272,116455,1,8,0:0:0:0:
192,128,116575,1,8,0:0:0:0:
208,80,116635,1,8,0:0:0:0:
256,80,116695,1,0,0:0:0:0:
336,288,116815,1,8,0:0:0:0:
96,176,116875,1,0,0:0:0:0:
208,224,116935,1,8,0:0:0:0:
320,176,117055,1,8,0:0:0:0:
208,144,117175,1,0,0:0:0:0:
160,160,117235,1,0,0:0:0:0:
224,176,117295,1,0,0:0:0:0:
224,224,117415,1,8,0:0:0:0:
384,176,117535,1,0,0:0:0:0:
160,80,117595,1,0,0:0:0:0:
128,80,117655,1,8,0:0:0:0:
176,160,117775,1,8,0:0:0:0:
256,192,117835,1,8,0:0:0:0:
192,192,117895,1,0,0:0:0:0:
176,192,118015,1,8,0:0:0:0:
192,128,118135,1,0,0:0:0:0:
112,176,118195,1,0,0:0:0:0:
192,208,118255,1,0,0:0:0:0:
336,320,118375,1,8,0:0:0:0:
336,208,118495,1,0,0:0:0:0:
272,112,118555,1,0,0:0:0:0:
256,96,118615,1,8,0:0:0:0:
144,64,118735,1,0,0:0:0:0:
144,96,118795,1,8,0:0:0:0:
128,144,118855,1,0,0:0:0:0:
288,256,118975,1,8,0:0:0:0:
192,208,119095,1,0,0:0:0:0:
192,160,119215,1,0,0:0:0:0:
368,128,119335,1,8,0:0:0:0:
288,96,119455,1,0,0:0:0:0:
224,80,119515,1,0,0:0:0:0:
192,80,119575,1,0,0:0:0:0:
128,96,119695,1,0,0:0:0:0:
112,128,119815,1,8,0:0:0:0:
256,176,119935,1,0,0:0:0:0:
208,176,120055,1,0,0:0:0:0:
144,192,120115,1,0,0:0:0:0:
112,160,120175,1,0,0:0:0:0:
208,256,120295,1,8,0:0:0:0:
336,144,120415,1,0,0:0:0:0:
272,112,120475,1,0,0:0:0:0:
176,96,120535,1,0,0:0:0:0:
112,64,120655,1,8,0:0:0:0:
112,64,120715,1,0,0:0:0:0:
240,192,120775,1,8,0:0:0:0:
160,160,120895,1,0,0:0:0:0:
176,144,121015,1,0,0:0:0:0:
352,160,121135,1,0,0:0:0:0:
272,96,121195,1,0,0:0:0:0:
224,80,121255,1,8,0:0:0:0:
128,80,121375,1,0,0:0:0:0:
128,80,121435,1,0,0:0:0:0:
128,80,121495,1,0,0:0:0:0:
208,160,121615,1,8,0:0:0:0:
96,144,121675,1,8,0:0:0:0:
112,176,121735,1,0,0:0:0:0:
112,192,121855,1,8,0:0:0:0:
128,176,121975,1,0,0:0:0:0:
208,176,122055,1,0,0:0:0:0:
240,176,122135,1,0,0:0:0:0:
256,208,122215,1,0,0:0:0:0:
256,240,122295,1,0,0:0:0:0:
272,288,122375,1,0,0:0:0:0:
384,176,122455,1,8,0:0:0:0:
272,80,122535,1,8,0:0:0:0:
144,96,122615,1,8,0:0:0:0:
160,144,122695,1,0,0:0:0:0:
144,160,122775,1,8,0:0:0:0:
144,192,122855,1,8,0:0:0:0:
176,256,122935,1,0,0:0:0:0:
224,80,122995,1,0,0:0:0:0:
160,64,123055,1,0,0:0:0:0:
112,48,123115,1,0,0:0:0:0:
304,160,123175,1,8,0:0:0:0:
256,208,123235,1,0,0:0:0:0:
208,160,123295,1,0,0:0:0:0:
192,160,123355,1,0,0:0:0:0:
416,256,123415,1,8,0:0:0:0:
128,160,123475,1,0,0:0:0:0:
112,160,123535,1,0,0:0:0:0:
64,160,123595,1,0,0:0:0:0:
384,160,123655,1,8,0:0:0:0:
256,96,123715,1,8,0:0:0:0:
224,64,123775,1,8,0:0:0:0:
160,80,123835,1,8,0:0:0:0:
160,96,123895,1,0,0:0:0:0:
160,144,123955,1,0,0:0:0:0:
144,144,124015,1,0,0:0:0:0:
112,144,124075,1,0,0:0:0:0:
176,224,124135,1,8,0:0:0:0:
240,160,124195,1,0,0:0:0:0:
160,160,124255,1,0,0:0:0:0:
128,160,124315,1,0,0:0:0:0:
112,176,124375,1,8,0:0:0:0:
320,208,124435,1,0,0:0:0:0:
352,160,124495,1,0,0:0:0:0:
336,144,124555,1,0,0:0:0:0:
256,112,124615,1,8,0:0:0:0:
176,96,124675,1,8,0:0:0:0:
176,96,124735,1,8,0:0:0:0:
144,96,124795,1,8,0:0:0:0:
160,144,124855,1,0,0:0:0:0:
272,208,124915,1,0,0:0:0:0:
224,160,124975,1,0,0:0:0:0:
144,160,125035,1,0,0:0:0:0:
144,192,125095,1,8,0:0:0:0:
208,224,125155,1,0,0:0:0:0:
144,224,125215,1,0,0:0:0:0:
144,224,125275,1,0,0:0:0:0:
144,224,125335,1,8,0:0:0:0:
320,192,125395,1,0,0:0:0:0:
272,128,125455,1,0,0:0:0:0:
224,128,125515,1,0,0:0:0:0:
128,128,125575,1,8,0:0:0:0:
128,144,125635,1,8,0:0:0:0:
112,144,125695,1,8,0:0:0:0:
96,176,125755,1,8,0:0:0:0:
96,224,125815,1,0,0:0:0:0:
400,96,125935,1,8,0:0:0:0:
176,80,126175,1,4,0:0:0:0:
336,176,126415,1,8,0:0:0:0:
240,144,126475,1,0,0:0:0:0:
160,160,126535,1,8,0:0:0:0:
176,208,126655,1,8,0:0:0:0:
400,80,126775,1,8,0:0:0:0:
240,80,126835,1,0,0:0:0:0:
240,80,126895,1,0,0:0:0:0:
192,80,126955,1,0,0:0:0:0:
224,160,127015,1,8,0:0:0:0:
256,192,127075,1,8,0:0:0:0:
192,224,127135,1,0,0:0:0:0:
192,224,127195,1,0,0:0:0:0:
288,240,127255,1,8,0:0:0:0:
352,192,127315,1,0,0:0:0:0:
304,128,127375,1,0,0:0:0:0:
256,128,127435,1,0,0:0:0:0:
128,144,127495,1,8,0:0:0:0:
176,160,127555,1,8,0:0:0:0:
80,96,127615,1,0,0:0:0:0:
176,64,127675,1,8,0:0:0:0:
224,64,127735,1,8,0:0:0:0:
240,80,127795,1,8,0:0:0:0:
240,80,127855,1,0,0:0:0:0:
192,80,127915,1,0,0:0:0:0:
224,160,127975,1,8,0:0:0:0:
256,192,128035,1,8,0:0:0:0:
192,224,128095,1,0,0:0:0:0:
192,224,128155,1,0,0:0:0:0:
288,240,128215,1,8,0:0:0:0:
352,192,128275,1,0,0:0:0:0:
304,128,128335,1,0,0:0:0:0:
256,128,128395,1,0,0:0:0:0:
128,144,128455,1,8,0:0:0:0:
176,160,128515,1,8,0:0:0:0:
80,96,128575,1,0,0:0:0:0:
176,64,128635,1,8,0:0:0:0:
224,64,128695,1,8,0:0:0:0:
240,80,128755,1,8,0:0:0:0:
240,80,128815,1,0,0:0:0:0:
192,80,128875,1,0,0:0:0:0:
224,160,128935,1,8,0:0:0:0:
256,192,128995,1,8,0:0:0:0:
192,224,129055,1,0,0:0:0:0:
192,224,129115,1,0,0:0:0:0:
288,240,129175,1,8,0:0:0:0:
352,192,129235,1,0,0:0:0:0:
304,128,129295,1,0,0:0:0:0:
256,128,129355,1,0,0:0:0:0:
128,144,129415,1,8,0:0:0:0:
176,160,129475,1,8,0:0:0:0:
80,96,129535,1,0,0:0:0:0:
176,64,129595,1,8,0:0:0:0:
224,64,129655,1,8,0:0:0:0:
384,160,129715,1,8,0:0:0:0:
336,80,129775,1,8,0:0:0:0:
272,64,129835,1,8,0:0:0:0:
320,160,129895,1,0,0:0:0:0:
224,64,129955,1,8,0:0:0:0:
128,64,130015,1,8,0:0:0:0:
128,64,130075,1,8,0:0:0:0:
288,256,130135,1,0,0:0:0:0:
176,96,130195,1,8,0:0:0:0:
160,96,130255,1,8,0:0:0:0:
144,96,130315,1,8,0:0:0:0:
48,112,130375,1,0,0:0:0:0:
160,96,130435,1,8,0:0:0:0:
144,96,130495,1,8,0:0:0:0:
144,96,130555,1,8,0:0:0:0:
224,112,130615,1,0,0:0:0:0:
288,208,130735,1,8,0:0:0:0:
176,192,130795,1,8,0:0:0:0:
176,192,130855,1,0,0:0:0:0:
352,128,130975,1,8,0:0:0:0:
256,64,131035,1,8,0:0:0:0:
192,48,131095,1,0,0:0:0:0:
96,64,131215,1,8,0:0:0:0:
96,112,131275,1,8,0:0:0:0:
80,176,131335,1,0,0:0:0:0:
96,64,131455,1,8,0:0:0:0:
96,112,131515,1,8,0:0:0:0:
80,176,131575,1,0,0:0:0:0:
96,64,131695,1,8,0:0:0:0:
96,112,131755,1,8,0:0:0:0:
80,176,131815,1,0,0:0:0:0:
96,64,131935,1,8,0:0:0:0:
96,112,131995,1,8,0:0:0:0:
80,176,132055,1,0,0:0:0:0:
272,160,132115,1,0,0:0:0:0:
192,96,132175,1,0,0:0:0:0:
144,64,132295,1,0,0:0:0:0:
160,176,132415,1,0,0:0:0:0:
336,80,132535,1,0,0:0:0:0:
272,240,132655,1,8,0:0:0:0:
208,224,132715,1,8,0:0:0:0:
144,240,132775,1,0,0:0:0:0:
272,240,132895,1,8,0:0:0:0:
208,224,132955,1,8,0:0:0:0:
144,240,133015,1,0,0:0:0:0:
272,240,133135,1,8,0:0:0:0:
208,224,133195,1,8,0:0:0:0:
144,240,133255,1,0,0:0:0:0:
272,240,133375,1,8,0:0:0:0:
208,224,133435,1,8,0:0:0:0:
144,240,133495,1,0,0:0:0:0:
272,240,133615,1,8,0:0:0:0:
208,224,133675,1,8,0:0:0:0:
144,240,133735,1,0,0:0:0:0:
272,240,133855,1,8,0:0:0:0:
208,224,133915,1,8,0:0:0:0:
144,240,133975,1,0,0:0:0:0:
272,240,134095,1,8,0:0:0:0:
208,224,134155,1,8,0:0:0:0:
144,240,134215,1,0,0:0:0:0:
64,160,134335,1,0,0:0:0:0:
320,256,134455,1,8,0:0:0:0:
160,112,134515,1,8,0:0:0:0:
240,96,134575,1,8,0:0:0:0:
240,96,134635,1,8,0:0:0:0:
272,160,134695,1,0,0:0:0:0:
336,160,134755,1,0,0:0:0:0:
336,160,134815,1,0,0:0:0:0:
304,160,134875,1,0,0:0:0:0:
192,160,134935,1,8,0:0:0:0:
192,160,134995,1,8,0:0:0:0:
192,160,135055,1,8,0:0:0:0:
160,192,135115,1,8,0:0:0:0:
208,224,135175,1,0,0:0:0:0:
336,224,135235,1,0,0:0:0:0:
272,208,135295,1,0,0:0:0:0:
272,208,135355,1,0,0:0:0:0:
176,192,135415,1,8,0:0:0:0:
128,160,135475,1,8,0:0:0:0:
128,112,135535,1,0,0:0:0:0:
144,112,135595,1,0,0:0:0:0:
192,128,135655,1,8,0:0:0:0:
240,144,135715,1,8,0:0:0:0:
240,144,135775,1,0,0:0:0:0:
240,144,135835,1,0,0:0:0:0:
240,160,135895,1,8,0:0:0:0:
240,160,135955,1,8,0:0:0:0:
352,144,136015,1,0,0:0:0:0:
304,96,136075,1,0,0:0:0:0:
224,80,136135,1,0,0:0:0:0:
224,192,136195,1,0,0:0:0:0:
288,224,136255,1,0,0:0:0:0:
240,224,136315,1,0,0:0:0:0:
192,224,136375,1,0,0:0:0:0:
144,160,136615,1,8,0:0:0:0:
96,96,136655,1,8,0:0:0:0:
96,96,136695,1,8,0:0:0:0:
368,240,136735,1,0,0:0:0:0:
288,96,136975,1,8,0:0:0:0:
224,96,137015,1,8,0:0:0:0:
208,96,137055,1,8,0:0:0:0:
192,128,137095,1,0,0:0:0:0:
288,208,137335,1,4,0:0:0:0:
384,128,137575,1,8,0:0:0:0:
336,64,137635,1,0,0:0:0:0:
240,32,137695,1,8,0:0:0:0:
336,224,137755,1,0,0:0:0:0:
304,160,137815,1,8,0:0:0:0:
432,256,137875,1,0,0:0:0:0:
416,224,137935,1,0,0:0:0:0:
272,112,137995,1,0,0:0:0:0:
208,112,138055,1,8,0:0:0:0:
144,96,138115,1,8,0:0:0:0:
128,128,138175,1,8,0:0:0:0:
128,160,138235,1,8,0:0:0:0:
176,208,138295,1,0,0:0:0:0:
128,160,138355,1,8,0:0:0:0:
224,208,138415,1,0,0:0:0:0:
192,208,138475,1,8,0:0:0:0:
144,224,138535,1,0,0:0:0:0:
144,240,138595,1,8,0:0:0:0:
128,272,138655,1,0,0:0:0:0:
208,272,138715,1,8,0:0:0:0:
304,272,138775,1,0,0:0:0:0:
336,256,138835,1,8,0:0:0:0:
368,208,138895,1,0,0:0:0:0:
352,192,138955,1,8,0:0:0:0:
304,192,139015,1,0,0:0:0:0:
192,160,139075,1,8,0:0:0:0:
320,80,139135,1,0,0:0:0:0:
256,48,139195,1,8,0:0:0:0:
240,96,139255,1,0,0:0:0:0:
144,96,139315,1,0,0:0:0:0:
96,144,139375,1,8,0:0:0:0:
80,48,139435,1,0,0:0:0:0:
64,80,139495,1,8,0:0:0:0:
64,128,139555,1,0,0:0:0:0:
128,176,139615,1,8,0:0:0:0:
208,192,139675,1,0,0:0:0:0:
272,192,139735,1,8,0:0:0:0:
304,160,139795,1,0,0:0:0:0:
288,144,139855,1,8,0:0:0:0:
240,112,139915,1,0,0:0:0:0:
192,96,139975,1,8,0:0:0:0:
160,96,140035,1,0,0:0:0:0:
128,112,140095,1,8,0:0:0:0:
128,144,140155,1,0,0:0:0:0:
128,176,140215,1,8,0:0:0:0:
144,224,140275,1,0,0:0:0:0:
192,240,140335,1,8,0:0:0:0:
288,224,140395,1,0,0:0:0:0:
336,192,140455,1,8,0:0:0:0:
320,144,140515,1,0,0:0:0:0:
304,112,140575,1,8,0:0:0:0:
272,96,140635,1,0,0:0:0:0:
224,80,140695,1,8,0:0:0:0:
192,80,140755,1,0,0:0:0:0:
80,96,140815,1,8,0:0:0:0:
64,160,140875,1,0,0:0:0:0:
96,192,140935,1,8,0:0:0:0:
128,208,140995,1,0,0:0:0:0:
192,208,141055,1,8,0:0:0:0:
224,208,141115,1,0,0:0:0:0:
240,160,141175,1,8,0:0:0:0:
160,160,141235,1,8,0:0:0:0:
320,144,141295,1,0,0:0:0:0:
192,112,141355,1,8,0:0:0:0:
128,112,141415,1,0,0:0:0:0:
128,112,141475,1,8,0:0:0:0:
128,112,141535,1,0,0:0:0:0:
112,128,141595,1,8,0:0:0:0:
96,128,141655,1,0,0:0:0:0:
96,128,141715,1,8,0:0:0:0:
96,144,141775,1,0,0:0:0:0:
80,144,141835,1,8,0:0:0:0:
80,144,141895,1,0,0:0:0:0:
80,160,141955,1,8,0:0:0:0:
96,176,142015,1,0,0:0:0:0:
96,192,142075,1,8,0:0:0:0:
128,192,142135,1,0,0:0:0:0:
160,208,142195,1,8,0:0:0:0:
192,192,142255,1,0,0:0:0:0:
208,192,142315,1,8,0:0:0:0:
224,160,142375,1,0,0:0:0:0:
224,144,142435,1,8,0:0:0:0:
240,128,142495,1,0,0:0:0:0:
224,96,142555,1,8,0:0:0:0:
192,80,142615,1,0,0:0:0:0:
176,80,142675,1,8,0:0:0:0:
144,96,142735,1,0,0:0:0:0:
128,128,142795,1,8,0:0:0:0:
128,160,142855,1,0,0:0:0:0:
144,176,142915,1,8,0:0:0:0:
160,192,142975,1,0,0:0:0:0:
192,208,143035,1,8,0:0:0:0:
256,144,143095,1,0,0:0:0:0:
320,176,143155,1,0,0:0:0:0:
208,144,143215,1,8,0:0:0:0:
272,112,143275,1,0,0:0:0:0:
272,112,143335,1,8,0:0:0:0:
256,112,143395,1,0,0:0:0:0:
240,112,143455,1,8,0:0:0:0:
192,112,143515,1,0,0:0:0:0:
192,112,143575,1,8,0:0:0:0:
176,144,143635,1,0,0:0:0:0:
176,160,143695,1,8,0:0:0:0:
176,176,143755,1,0,0:0:0:0:
208,208,143815,1,8,0:0:0:0:
256,208,143875,1,0,0:0:0:0:
320,192,143935,1,8,0:0:0:0:
320,160,143995,1,0,0:0:0:0:
320,128,144055,1,8,0:0:0:0:
288,112,144115,1,0,0:0:0:0:
272,96,144175,1,8,0:0:0:0:
240,96,144235,1,0,0:0:0:0:
192,96,144295,1,8,0:0:0:0:
160,112,144355,1,0,0:0:0:0:
160,128,144415,1,8,0:0:0:0:
144,144,144475,1,0,0:0:0:0:
128,160,144535,1,8,0:0:0:0:
144,208,144595,1,0,0:0:0:0:
176,240,144655,1,8,0:0:0:0:
224,256,144715,1,0,0:0:0:0:
224,256,144775,1,8,0:0:0:0:
240,272,144835,1,0,0:0:0:0:
240,288,144895,1,8,0:0:0:0:
272,288,144955,1,0,0:0:0:0:
288,176,145015,1,8,0:0:0:0:
288,160,145075,1,8,0:0:0:0:
112,96,145135,1,0,0:0:0:0:
192,96,145195,1,8,0:0:0:0:
176,128,145255,1,0,0:0:0:0:
176,144,145315,1,8,0:0:0:0:
160,144,145375,1,0,0:0:0:0:
144,160,145435,1,8,0:0:0:0:
128,176,145495,1,0,0:0:0:0:
112,176,145555,1,8,0:0:0:0:
112,192,145615,1,0,0:0:0:0:
112,208,145675,1,8,0:0:0:0:
96,208,145735,1,0,0:0:0:0:
96,96,145795,1,8,0:0:0:0:
96,96,145855,1,0,0:0:0:0:
96,96,145915,1,8,0:0:0:0:
272,176,145975,1,0,0:0:0:0:
224,128,146215,1,0,0:0:0:0:
368,288,146455,1,0,0:0:0:0:
368,176,146695,1,0,0:0:0:0:
384,160,146935,1,8,0:0:0:0:
224,160,147175,1,0,0:0:0:0:
96,144,147415,1,0,0:0:0:0:
288,240,147655,1,0,0:0:0:0:
208,224,147895,1,0,0:0:0:0:
128,224,148135,1,0,0:0:0:0:
224,208,148375,1,0,0:0:0:0:
224,208,148615,1,0,0:0:0:0:
352,128,148855,1,8,0:0:0:0:
240,128,149015,1,0,0:0:0:0:
176,144,149175,1,0,0:0:0:0:
176,144,149335,1,0,0:0:0:0:
336,272,149495,1,0,0:0:0:0:
240,192,149655,1,0,0:0:0:0:
192,208,149815,1,0,0:0:0:0:
352,272,150295,1,0,0:0:0:0:
256,224,150775,1,8,0:0:0:0:
320,112,151255,1,0,0:0:0:0:
176,96,151735,1,0,0:0:0:0:
240,176,151815,1,0,0:0:0:0:
224,208,151895,1,0,0:0:0:0:
304,160,151975,1,0,0:0:0:0:
240,128,152055,1,0,0:0:0:0:
208,96,152135,1,0,0:0:0:0:
192,80,152215,1,8,0:0:0:0:
144,64,152295,1,8,0:0:0:0:
96,80,152375,1,8,0:0:0:0:
80,176,152455,1,8,0:0:0:0:
80,192,152535,1,8,0:0:0:0:
96,192,152615,1,8,0:0:0:0:
160,176,152695,1,0,0:0:0:0:
240,176,153655,1,4,0:0:0:0:
