osu file format v14

[General]
AudioFilename: audio.mp3
AudioLeadIn: 0
PreviewTime: 43559
Countdown: 1
SampleSet: None
StackLeniency: 0.7
Mode: 0
LetterboxInBreaks: 0
WidescreenStoryboard: 1

[Editor]
DistanceSpacing: 1.2
BeatDivisor: 4
GridSize: 4
TimelineZoom: 1.8

[Metadata]
Title:Pantsu Hero
TitleUnicode:パンツヒーロー
Artist:Pusu feat. Pusu
ArtistUnicode:じっぷす feat. じっぷす
Creator:Bukkake Blast
Version:Hard
Source:Phantasm Hero
Tags:Bukkake Blast Utaite Pusu Zips C89 Mardoka Ilsydragoncat Pantsu Hero
BeatmapID:958451
BeatmapSetID:446216

[Difficulty]
HPDrainRate:6
CircleSize:4
OverallDifficulty:6
ApproachRate:8
SliderMultiplier:1.4
SliderTickRate:1

[Events]
//Background and Video events
0,0,"OJbWh2g.jpg",0,0
//Break Periods
//Storyboard Layer 0 (Background)
//Storyboard Layer 1 (Fail)
//Storyboard Layer 2 (Pass)
//Storyboard Layer 3 (Foreground)
//Storyboard Sound Samples

[TimingPoints]
6226.91883004363,333.333333333333,4,3,0,62,1,0
27560,-90.9090909090909,4,3,0,62,0,0
34393,-100,4,3,0,62,0,0
42060,-100,4,3,0,62,0,0
43560,-100,4,3,0,62,0,1
62060,-100,4,3,0,62,0,0

[HitObjects]
128,208,893,5,0,0:0:0:0:
88,140,1060,2,0,P|120:128|156:136,1,70
128,208,1393,2,0,P|160:216|200:204,1,70
228,144,1726,6,0,L|288:196,2,70
304,108,2226,6,0,L|240:52,2,70
356,156,2726,2,0,P|384:184|388:236,1,70
320,216,3060,1,0,0:0:0:0:
320,216,3143,1,0,0:0:0:0:
320,216,3226,1,0,0:0:0:0:
248,172,3393,6,0,L|188:116,2,70
172,200,3893,1,0,0:0:0:0:
96,164,4060,1,0,0:0:0:0:
100,248,4226,1,0,0:0:0:0:
176,284,4393,2,0,L|204:324,2,35
172,200,4726,1,0,0:0:0:0:
156,116,4893,6,0,L|216:60,1,70
236,148,5226,1,0,0:0:0:0:
196,224,5393,1,0,0:0:0:0:
280,224,5560,1,0,0:0:0:0:
320,152,5726,1,0,0:0:0:0:
320,152,5810,1,0,0:0:0:0:
320,152,5893,2,0,L|380:88,1,70
212,132,6226,6,0,L|152:188,1,70,4|0,0:0|0:0,0:0:0:0:
180,256,6560,1,4,0:0:0:0:
240,208,6726,1,0,0:0:0:0:
280,272,6893,2,0,L|340:216,1,70,4|0,0:0|0:0,0:0:0:0:
364,292,7226,1,4,0:0:0:0:
408,228,7393,1,0,0:0:0:0:
332,224,7560,1,4,0:0:0:0:
271,192,7726,5,0,0:0:0:0:
356,124,7893,2,0,P|396:156|416:192,1,70,4|0,0:0|0:0,0:0:0:0:
332,224,8226,6,0,P|300:200|268:192,1,70,4|0,0:0|0:0,0:0:0:0:
332,228,8560,2,0,P|328:280|316:304,1,70,4|0,0:0|0:0,0:0:0:0:
256,264,8893,6,0,P|212:252|192:228,1,70,4|0,0:0|0:0,0:0:0:0:
120,248,9226,1,4,0:0:0:0:
156,180,9393,1,0,0:0:0:0:
80,184,9560,1,4,0:0:0:0:
72,108,9726,2,0,P|108:104|152:100,2,70,0|4|0,0:0|0:0|0:0,0:0:0:0:
0,128,10226,6,0,P|16:168|48:192,2,70,4|0|4,0:0|0:0|0:0,0:0:0:0:
76,116,10726,2,0,P|108:152|224:188,1,140
420,80,11560,6,0,L|328:100,1,70,4|0,0:0|0:0,0:0:0:0:
264,88,11893,2,0,L|296:152,1,70,4|0,0:0|0:0,0:0:0:0:
372,164,12226,2,0,L|336:228,1,70,4|0,0:0|0:0,0:0:0:0:
404,252,12560,2,0,L|364:316,1,70,4|0,0:0|0:0,0:0:0:0:
280,264,12893,6,0,P|224:304|136:284,1,140,4|4,0:0|0:0,0:0:0:0:
204,228,13393,1,0,0:0:0:0:
204,228,13560,1,4,0:0:0:0:
288,232,13726,2,0,P|352:224|403:144,1,140
312,148,14226,6,0,L|276:80,2,70,4|0|4,0:0|0:0|0:0,0:0:0:0:
236,152,14726,1,0,0:0:0:0:
212,88,14893,2,0,L|148:120,1,70,4|0,0:0|0:0,0:0:0:0:
80,152,15226,1,4,0:0:0:0:
80,152,15393,1,0,0:0:0:0:
140,232,15560,6,0,L|172:312,1,70,4|0,0:0|0:0,0:0:0:0:
228,240,15893,2,0,L|300:204,1,70,4|0,0:0|0:0,0:0:0:0:
248,136,16226,2,0,L|160:180,1,70,4|0,0:0|0:0,0:0:0:0:
144,92,16560,2,0,L|224:52,1,70,4|0,0:0|0:0,0:0:0:0:
280,60,16893,5,4,0:0:0:0:
336,112,17060,1,0,0:0:0:0:
272,156,17226,2,0,P|308:184|352:184,1,70,4|0,0:0|0:0,0:0:0:0:
332,108,17560,1,4,0:0:0:0:
392,60,17726,2,0,P|412:104|408:144,2,70,0|4|0,0:0|0:0|0:0,0:0:0:0:
324,112,18226,6,0,L|240:132,1,70,4|0,0:0|0:0,0:0:0:0:
196,216,18560,2,0,L|288:192,1,70,4|0,0:0|0:0,0:0:0:0:
392,216,18893,2,0,L|300:240,1,70,4|0,0:0|0:0,0:0:0:0:
244,324,19226,2,0,L|324:300,1,70,4|0,0:0|0:0,0:0:0:0:
388,340,19560,6,0,L|468:316,1,70,4|0,0:0|0:0,0:0:0:0:
484,240,19893,1,4,0:0:0:0:
428,176,20060,1,0,0:0:0:0:
376,224,20226,2,0,P|356:184|364:144,1,70,4|0,0:0|0:0,0:0:0:0:
332,172,20560,2,0,P|332:120|348:88,1,70,4|0,0:0|0:0,0:0:0:0:
400,152,20893,6,0,L|480:120,1,70,4|0,0:0|0:0,0:0:0:0:
464,204,21226,2,0,L|376:236,1,70,4|0,0:0|0:0,0:0:0:0:
316,204,21560,2,0,L|244:232,1,70,4|0,0:0|0:0,0:0:0:0:
260,312,21893,2,0,L|348:272,1,70,4|0,0:0|0:0,0:0:0:0:
316,204,22226,6,0,P|284:164|247:142,1,70,4|0,0:0|0:0,0:0:0:0:
198,159,22560,2,0,P|221:206|257:224,1,70,4|0,0:0|0:0,0:0:0:0:
269,153,22893,6,0,P|248:108|206:86,1,70,4|0,0:0|0:0,0:0:0:0:
198,159,23226,2,0,P|173:177|138:219,1,70,4|0,0:0|0:0,0:0:0:0:
96,148,23560,2,4,P|72:216|120:280,1,140
146,205,24060,1,0,0:0:0:0:
220,221,24226,2,0,P|200:259|156:281,2,70,4|0|4,0:0|0:0|0:0,0:0:0:0:
220,221,24893,6,0,L|288:290,1,70,4|0,0:0|0:0,0:0:0:0:
300,192,25226,2,0,L|382:226,1,70,4|0,0:0|0:0,0:0:0:0:
360,136,25560,2,0,L|453:135,1,70,4|0,0:0|0:0,0:0:0:0:
472,60,25893,1,4,0:0:0:0:
508,136,26060,1,0,0:0:0:0:
460,204,26226,2,0,L|461:249,2,35,4|0|0,0:0|0:0|0:0,0:0:0:0:
388,240,26560,2,0,P|404:284|449:311,1,70,4|0,0:0|0:0,0:0:0:0:
460,240,26893,1,0,0:0:0:0:
88,68,27560,6,0,P|136:84|164:104,2,77.0000023498536
88,160,28060,1,0,0:0:0:0:
88,160,28143,1,0,0:0:0:0:
88,160,28226,1,0,0:0:0:0:
116,240,28393,2,0,P|148:224|172:172,2,77.0000023498536
296,200,28893,6,0,P|272:236|224:248,2,77.0000023498536
216,164,29393,1,0,0:0:0:0:
216,164,29476,1,0,0:0:0:0:
216,164,29560,1,0,0:0:0:0:
228,80,29726,2,0,P|256:88|284:116,2,38.5000011749268
144,88,30060,1,0,0:0:0:0:
64,116,30226,6,0,P|84:152|144:168,1,77.0000023498536
39,203,30560,2,0,P|87:231|136:236,1,77.0000023498536
107,235,30810,1,0,0:0:0:0:
107,235,30893,1,0,0:0:0:0:
168,312,31060,2,0,L|212:284,2,35
256,176,31393,5,0,0:0:0:0:
240,108,31560,2,0,P|292:116|316:140,1,77.0000023498536
344,184,31893,1,0,0:0:0:0:
324,252,32060,2,0,L|296:300,2,38.5000011749268
380,292,32393,2,0,L|360:328,1,38.5000011749268
264,76,32893,5,0,0:0:0:0:
356,184,33393,1,0,0:0:0:0:
72,196,34393,5,0,0:0:0:0:
176,96,34726,2,0,L|216:136,4,35
160,236,35226,5,0,0:0:0:0:
160,236,35310,1,0,0:0:0:0:
160,236,35393,1,0,0:0:0:0:
160,236,35476,1,0,0:0:0:0:
160,236,35560,1,0,0:0:0:0:
320,120,36060,5,0,0:0:0:0:
56,164,37060,5,0,0:0:0:0:
152,112,37393,2,0,L|164:152,8,35
288,80,38226,5,0,0:0:0:0:
160,248,38726,1,0,0:0:0:0:
152,120,40226,5,0,0:0:0:0:
236,120,40393,1,0,0:0:0:0:
152,120,40560,1,0,0:0:0:0:
236,120,40726,1,0,0:0:0:0:
136,124,42060,5,0,0:0:0:0:
136,124,42143,1,0,0:0:0:0:
136,124,42226,2,0,P|188:136|208:160,1,70
140,212,42560,1,0,0:0:0:0:
56,208,42726,1,0,0:0:0:0:
92,284,42893,1,0,0:0:0:0:
176,288,43060,1,0,0:0:0:0:
252,276,43226,6,0,L|304:336,1,70
328,252,43560,2,0,B|380:208|380:208|384:104,1,140
382,136,44060,1,0,0:0:0:0:
308,128,44226,2,0,B|308:176|308:176|232:232,1,140
233,230,44726,1,0,0:0:0:0:
180,164,44893,6,0,L|212:92,1,70
280,56,45226,2,0,L|240:144,1,70
240,204,45560,2,0,L|276:128,1,70
336,92,45893,2,0,L|292:184,1,70
364,216,46226,6,0,P|316:284|240:328,1,140
269,315,46726,1,0,0:0:0:0:
208,260,46893,2,0,P|280:204|312:136,1,140
303,162,47393,1,0,0:0:0:0:
220,156,47560,5,0,0:0:0:0:
220,156,47643,1,0,0:0:0:0:
220,156,47726,1,0,0:0:0:0:
164,92,47893,2,0,L|100:40,1,70
100,132,48226,2,0,B|48:208|176:280|120:344,1,210
212,320,48893,6,0,P|208:276|192:228,2,70
284,272,49393,1,0,0:0:0:0:
324,344,49560,1,0,0:0:0:0:
364,272,49726,2,0,P|352:236|320:200,1,70
332,210,50060,1,0,0:0:0:0:
400,164,50226,6,0,P|420:128|416:84,1,70
344,108,50560,2,0,P|284:104|248:92,1,70
236,44,50893,2,0,P|208:80|212:128,2,70
76,96,51560,6,0,P|104:128|120:168,1,70
64,220,51893,1,0,0:0:0:0:
64,220,51976,1,0,0:0:0:0:
64,220,52060,1,0,0:0:0:0:
112,288,52226,5,0,0:0:0:0:
168,224,52393,1,0,0:0:0:0:
212,296,52560,1,0,0:0:0:0:
256,224,52726,1,0,0:0:0:0:
300,296,52893,1,0,0:0:0:0:
348,228,53060,6,0,L|364:176,2,35
432,224,53393,2,0,L|416:292,1,70
332,296,53726,2,0,L|320:352,2,35
248,292,54060,1,0,0:0:0:0:
172,256,54226,6,0,P|128:208|112:112,1,140
109,136,54726,1,0,0:0:0:0:
184,100,54893,2,0,P|192:160|256:216,1,140
247,212,55393,1,0,0:0:0:0:
272,132,55560,6,0,P|288:92|312:72,1,70
348,140,55893,2,0,P|332:184|296:200,1,70
340,260,56226,2,0,P|296:308|264:312,1,70
272,240,56560,2,0,P|224:260|200:264,1,70
176,200,56893,6,0,P|228:184|304:140,1,140
301,141,57393,1,0,0:0:0:0:
268,80,57560,2,0,P|216:112|136:136,1,140
104,68,58060,2,0,L|64:116,2,35
76,168,58393,6,0,P|108:208|152:224,1,70
192,208,58726,2,0,P|216:184|220:120,1,70
156,148,59060,1,0,0:0:0:0:
176,80,59226,1,0,0:0:0:0:
108,92,59393,1,0,0:0:0:0:
88,160,59560,2,0,P|96:204|128:244,1,70
164,168,59893,6,0,P|248:144|324:152,1,140
348,96,60393,2,0,B|376:72|376:72|428:52,1,70
406,60,60726,1,0,0:0:0:0:
448,124,60893,2,0,B|412:140|412:140|376:164,1,70
386,156,61143,1,0,0:0:0:0:
386,156,61226,1,0,0:0:0:0:
344,100,61393,6,0,P|316:132|320:184,1,70
324,180,61643,1,0,0:0:0:0:
332,204,61726,1,0,0:0:0:0:
344,224,61810,1,0,0:0:0:0:
360,244,61893,1,0,0:0:0:0:
380,260,61976,1,0,0:0:0:0:
400,276,62060,1,0,0:0:0:0:
