osu file format v14

[General]
AudioFilename: audio.mp3
AudioLeadIn: 0
PreviewTime: 145794
Countdown: 0
SampleSet: None
StackLeniency: 0.6
Mode: 0
LetterboxInBreaks: 1
WidescreenStoryboard: 1
SamplesMatchPlaybackRate: 1

[Editor]
Bookmarks: 15353,70647
DistanceSpacing: 0.2
BeatDivisor: 4
GridSize: 16
TimelineZoom: 2.799999

[Metadata]
Title:Clear ft. Mothica (Shawn Wasabi Remix)
TitleUnicode:Clear ft. Mothica (Shawn Wasabi Remix)
Artist:Pusher
ArtistUnicode:Pusher
Creator:Nahnee
Version:naahhnee. x invisible.
Source:
Tags:clear pusher mothica new laces shawn wasabi future bass nahnee naahnee's invisible toumei transparent
BeatmapID:1879155
BeatmapSetID:899625

[Difficulty]
HPDrainRate:5
CircleSize:4
OverallDifficulty:8
ApproachRate:9.3
SliderMultiplier:2.50999990463257
SliderTickRate:1

[Events]
//Background and Video events
0,0,"clear.jpg",0,0
//Break Periods
2,66141,70093
2,90700,145387
//Storyboard Layer 0 (Background)
//Storyboard Layer 1 (Fail)
//Storyboard Layer 2 (Pass)
//Storyboard Layer 3 (Foreground)
//Storyboard Sound Samples

[TimingPoints]
9471,588.235294117647,4,3,0,60,1,0
10353,-133.333333333333,4,3,0,60,0,0
10647,-83.3333333333333,4,3,0,60,0,0
13294,-285.714285714284,4,3,0,30,0,0
13441,-181.818181818181,4,3,0,60,0,0
13588,-133.333333333333,4,3,0,90,0,0
13735,-100,4,3,0,100,0,0
13882,-100,4,3,0,60,0,0
28294,-83.3333333333333,4,3,0,60,0,0
37706,-133.333333333333,4,2,0,60,0,0
41529,-66.6666666666667,4,2,0,60,0,0
42412,-133.333333333333,4,2,0,60,0,0
45941,-83.3333333333333,4,2,0,60,0,0
47118,-66.6666666666667,4,3,0,60,0,0
47559,-76.9230769230769,4,3,0,60,0,0
50941,-66.6666666666667,4,3,0,60,0,0
51235,-76.9230769230769,4,3,0,60,0,0
51823,-66.6666666666667,4,3,0,60,0,0
52118,-76.9230769230769,4,3,0,60,0,0
56529,-66.6666666666667,4,3,0,60,0,0
56823,-76.9230769230769,4,3,0,60,0,0
70647,-100,4,3,0,60,0,0
89470,-83.3333333333333,4,3,0,60,0,0
145941,-76.9230769230769,4,3,0,60,0,0
160647,-50,4,3,0,60,0,0

[HitObjects]
256,192,8294,12,0,9176,0:0:0:0:
79,303,9471,6,0,P|47:255|79:159,1,125.499995231628,2|0,0:0|0:0,0:0:0:0:
200,96,9912,2,0,P|138:88|86:121,1,125.499995231628,2|0,0:0|0:0,0:0:0:0:
120,240,10353,2,0,L|168:256,1,47.0625000071526,2|0,0:0|0:0,0:0:0:0:
272,328,10647,2,0,P|346:328|413:295,1,150.599989682007,2|0,0:0|0:0,0:0:0:0:
320,112,11088,2,0,P|384:80|432:80,2,75.2999948410036,2|0|0,0:0|0:0|0:0,0:0:0:0:
224,160,11529,5,2,0:0:0:0:
224,160,11676,1,0,0:0:0:0:
336,272,11823,2,0,P|416:256|464:176,1,150.599989682007,2|0,0:0|0:0,0:0:0:0:
128,232,12265,2,0,P|144:312|224:360,1,150.599989682007,2|0,0:0|0:0,0:0:0:0:
358,286,12706,2,0,P|355:244|346:206,1,75.2999948410036,2|0,0:0|0:0,0:0:0:0:
320,112,13000,6,0,P|248:112|200:192,1,150.599989682007,2|2,0:0|0:0,0:0:0:0:
194,307,13441,1,2,0:0:0:0:
102,155,13588,1,2,0:0:0:0:
78,286,13735,1,2,0:0:0:0:
210,170,13882,2,0,P|246:197|266:258,1,62.7499976158142,2|0,0:0|0:0,0:0:0:0:
310,320,14176,6,0,P|232:342|130:324,1,125.499995231628,2|0,0:0|0:0,0:0:0:0:
308,149,14618,2,0,P|386:127|488:145,1,125.499995231628,2|0,0:0|0:0,0:0:0:0:
336,256,15059,2,0,P|296:264|256:264,1,62.7499976158142,2|0,0:0|0:0,0:0:0:0:
96,312,15353,6,0,P|80:272|80:160,1,125.499995231628,2|0,0:0|0:0,0:0:0:0:
200,48,15794,2,0,P|216:88|216:200,1,125.499995231628,2|0,0:0|0:0,0:0:0:0:
192,320,16235,2,0,L|272:320,1,62.7499976158142
176,184,16529,2,0,B|120:184|120:184|96:192|96:192|8:192,1,125.499995231628,2|0,0:0|0:0,0:0:0:0:
232,80,16971,2,0,B|257:80|288:80|288:80|312:72|312:72|400:72,1,125.499995231628,2|0,0:0|0:0,0:0:0:0:
384,248,17412,1,2,0:0:0:0:
384,248,17559,1,0,0:0:0:0:
210,334,17706,6,0,P|164:322|85:229,1,125.499995231628,2|0,0:0|0:0,0:0:0:0:
85,107,18147,2,0,P|150:133|202:220,1,125.499995231628,2|0,0:0|0:0,0:0:0:0:
245,289,18588,2,0,P|293:295|347:278,1,62.7499976158142
317,150,18882,6,0,P|253:158|176:188,1,125.499995231628
179,338,19323,2,0,P|139:308|107:186,1,125.499995231628,2|0,0:0|0:0,0:0:0:0:
191,75,19765,2,0,P|217:128|203:171,1,62.7499976158142,2|0,0:0|0:0,0:0:0:0:
316,288,20059,2,0,P|359:247|356:158,1,125.499995231628,2|0,0:0|0:0,0:0:0:0:
197,178,20500,2,0,P|157:220|148:317,1,125.499995231628,2|0,0:0|0:0,0:0:0:0:
269,307,20941,1,2,0:0:0:0:
269,307,21088,1,0,0:0:0:0:
269,307,21235,6,0,P|312:293|431:317,1,125.499995231628,2|0,0:0|0:0,0:0:0:0:
217,104,21676,2,0,P|266:133|356:129,1,125.499995231628,2|0,0:0|0:0,0:0:0:0:
226,276,22118,2,0,P|181:258|142:259,1,62.7499976158142,2|0,0:0|0:0,0:0:0:0:
26,191,22412,2,0,P|68:151|158:155,1,125.499995231628,2|2,0:0|0:0,0:0:0:0:
234,111,22853,5,2,0:0:0:0:
195,304,23000,1,2,0:0:0:0:
317,176,23147,1,2,0:0:0:0:
114,244,23294,1,2,0:0:0:0:
314,280,23441,1,2,0:0:0:0:
101,149,23588,6,0,B|156:137|208:178|260:138,1,125.499995231628,2|0,0:0|0:0,0:0:0:0:
336,248,24029,2,0,B|281:236|229:277|177:237,1,125.499995231628,2|0,0:0|0:0,0:0:0:0:
104,320,24471,2,0,P|72:296|64:264,1,62.7499976158142,2|0,0:0|0:0,0:0:0:0:
104,112,24765,2,0,B|160:160|160:160|168:232,1,125.499995231628,2|0,0:0|0:0,0:0:0:0:
190,303,25206,2,0,P|246:322|321:302,1,125.499995231628,2|0,0:0|0:0,0:0:0:0:
356,184,25647,1,2,0:0:0:0:
356,184,25794,1,0,0:0:0:0:
224,64,25941,6,0,P|160:80|96:128,1,125.499995231628,2|0,0:0|0:0,0:0:0:0:
240,240,26382,2,0,P|304:224|368:176,1,125.499995231628,2|0,0:0|0:0,0:0:0:0:
416,304,26823,2,0,P|368:320|352:320,1,62.7499976158142,2|0,0:0|0:0,0:0:0:0:
160,304,27118,2,0,P|160:224|192:160,1,125.499995231628,2|0,0:0|0:0,0:0:0:0:
336,128,27559,2,0,P|352:192|320:272,1,125.499995231628,2|0,0:0|0:0,0:0:0:0:
224,320,28000,1,2,0:0:0:0:
224,320,28147,1,0,0:0:0:0:
48,176,28294,6,0,B|112:160|144:192|224:176,1,150.599989682007,4|0,0:0|0:0,0:0:0:0:
304,176,28882,1,8,0:0:0:0:
304,176,29765,5,4,0:0:0:0:
288,304,30059,2,0,P|224:304|144:240,1,150.599989682007,8|0,0:0|0:0,0:0:0:0:
192,128,30500,1,0,0:0:0:0:
64,192,30647,2,0,B|116:244|116:244|122:331,1,150.599989682007,4|0,0:0|0:0,0:0:0:0:
288,304,31088,5,0,0:0:0:0:
288,304,31235,2,0,B|320:240|320:240|336:224|336:224|368:144,1,150.599989682007,8|0,0:0|0:0,0:0:0:0:
366,84,31676,6,0,P|320:77|286:81,1,75.2999948410036,2|0,0:0|0:0,0:0:0:0:
256,240,31970,2,0,P|302:247|336:243,1,75.2999948410036,2|4,0:0|0:0,0:0:0:0:
368,82,32265,1,2,0:0:0:0:
240,144,32412,2,0,B|192:176|192:176|80:176,1,150.599989682007,8|2,0:0|0:0,0:0:0:0:
176,304,32853,1,2,0:0:0:0:
352,320,33000,6,0,P|384:272|352:160,1,150.599989682007,4|0,0:0|0:0,0:0:0:0:
320,112,33588,1,8,0:0:0:0:
320,112,34470,5,4,0:0:0:0:
272,272,34765,2,0,B|208:240|208:240|160:176,1,150.599989682007,8|0,0:0|0:0,0:0:0:0:
128,80,35206,5,0,0:0:0:0:
48,288,35353,2,0,B|112:272|144:304|224:272,1,150.599989682007
320,304,35794,5,0,0:0:0:0:
320,304,35941,2,0,P|400:288|432:224,1,150.599989682007
416,144,36382,2,0,P|384:144|336:96,1,75.2999948410036
320,256,36676,2,0,P|272:240|240:240,1,75.2999948410036
160,128,36970,5,0,0:0:0:0:
80,304,37118,2,0,B|128:272|192:320|240:288,1,150.599989682007
320,224,37559,1,0,0:0:0:0:
223,111,37706,6,0,P|152:142|141:165,1,94.1250000143052,4|0,0:0|0:0,0:0:0:0:
230,289,38147,1,8,0:0:0:0:
220,111,38294,2,0,L|279:101,1,47.0625000071526,8|0,0:0|0:0,0:0:0:0:
208,272,38588,2,0,L|96:288,1,94.1250000143052,2|0,0:0|0:0,0:0:0:0:
128,128,39029,5,8,0:0:0:0:
205,271,39176,2,0,L|259:243,1,47.0625000071526,8|0,0:0|0:0,0:0:0:0:
272,96,39470,2,0,L|218:124,1,47.0625000071526,2|0,0:0|0:0,0:0:0:0:
144,304,39765,2,0,L|198:276,1,47.0625000071526,2|0,0:0|0:0,0:0:0:0:
368,192,40059,6,0,L|320:288,1,94.1250000143052,4|0,0:0|0:0,0:0:0:0:
224,176,40500,1,8,0:0:0:0:
224,176,40647,6,8,P|176:208|128:224,1,94.1250000143052
50,126,41088,5,2,0:0:0:0:
148,333,41235,1,2,0:0:0:0:
200,129,41382,1,2,0:0:0:0:
57,277,41529,2,2,P|140:249|199:257,1,94.1250000143052,10|2,0:0|0:0,0:0:0:0:
263,289,41823,2,2,P|349:289|409:250,1,94.1250000143052,10|2,0:0|0:0,0:0:0:0:
381,156,42118,1,2,0:0:0:0:
381,156,42265,1,2,0:0:0:0:
186,98,42412,6,0,P|155:135|145:213,1,94.1250000143052,12|0,0:0|0:0,0:0:0:0:
215,289,42853,1,8,0:0:0:0:
215,289,43000,2,0,P|281:273|296:274,1,47.0625000071526,8|0,0:0|0:0,0:0:0:0:
364,142,43294,2,0,P|313:142|239:162,1,94.1250000143052,2|0,0:0|0:0,0:0:0:0:
152,266,43735,1,8,0:0:0:0:
152,266,43882,6,0,P|119:238|92:219,1,47.0625000071526,8|0,0:0|0:0,0:0:0:0:
183,89,44176,2,0,P|215:127|277:140,1,94.1250000143052,12|0,0:0|0:0,0:0:0:0:
361,86,44618,1,2,0:0:0:0:
256,192,44765,5,4,0:0:0:0:
256,192,44912,12,6,45941,0:0:0:0:
303,241,47118,6,0,B|333:173|283:127|283:127|296:184|279:188,1,188.25000002861,4|0,0:0|0:0,0:0:0:0:
270,320,47559,1,0,0:0:0:0:
114,169,47706,6,0,P|88:197|63:256,1,81.5749931663517,8|0,0:0|0:0,0:0:0:0:
279,50,48000,6,0,P|251:24|192:-1,1,81.5749931663517
398,215,48294,6,0,P|424:187|449:128,1,81.5749931663517
292,351,48588,1,0,0:0:0:0:
263,148,48735,1,0,0:0:0:0:
292,351,48882,2,0,B|252:304|212:318|149:252,1,163.149986332703,8|0,0:0|0:0,0:0:0:0:
143,144,49323,1,0,0:0:0:0:
317,309,49470,6,0,P|265:332|186:324,1,81.5749931663517,4|0,0:0|0:0,0:0:0:0:
373,131,49765,6,0,P|396:183|388:262,1,81.5749931663517
195,75,50059,6,0,P|247:52|326:60,1,81.5749931663517,8|0,0:0|0:0,0:0:0:0:
316,228,50353,1,0,0:0:0:0:
197,78,50500,1,0,0:0:0:0:
141,252,50647,6,0,P|197:229|272:227,1,81.5749931663517
352,132,50941,2,0,P|398:215|352:312,2,188.25000002861
200,267,51676,5,0,0:0:0:0:
64,208,51823,6,0,B|120:152|120:152|152:136|152:136|200:80,1,188.25000002861,4|0,0:0|0:0,0:0:0:0:
288,200,52265,1,0,0:0:0:0:
352,56,52412,6,0,B|392:80|392:80|392:152,1,81.5749931663517,8|0,0:0|0:0,0:0:0:0:
120,96,52706,2,0,B|144:56|144:56|216:56,1,81.5749931663517
160,328,53000,2,0,B|120:304|120:304|120:232,1,81.5749931663517
120,96,53294,1,4,0:0:0:0:
160,328,53441,1,0,0:0:0:0:
120,96,53588,2,0,B|180:112|180:112|182:130|182:130|265:150,1,163.149986332703,8|0,0:0|0:0,0:0:0:0:
294,129,54029,1,0,0:0:0:0:
112,115,54176,6,0,P|86:140|68:206,1,81.5749931663517,4|0,0:0|0:0,0:0:0:0:
184,224,54470,2,0,P|186:259|225:316,1,81.5749931663517
304,232,54765,2,0,P|333:253|401:259,1,81.5749931663517,8|0,0:0|0:0,0:0:0:0:
360,110,55059,2,0,P|318:93|263:100,1,81.5749931663517
370,338,55353,1,0,0:0:0:0:
421,206,55500,1,0,0:0:0:0:
370,338,55647,6,0,P|348:314|327:249,1,81.5749931663517,4|0,0:0|0:0,0:0:0:0:
303,121,55941,2,0,P|272:161|235:190,1,81.5749931663517,8|0,0:0|0:0,0:0:0:0:
155,278,56235,1,0,0:0:0:0:
155,278,56382,1,0,0:0:0:0:
77,142,56529,6,0,B|165:138|177:191|274:181,1,188.25000002861,4|0,0:0|0:0,0:0:0:0:
379,105,56970,1,0,0:0:0:0:
377,309,57118,6,0,L|303:268,1,81.5749931663517,8|0,0:0|0:0,0:0:0:0:
139,313,57412,2,0,L|180:239,1,81.5749931663517
135,75,57706,6,0,L|209:116,1,81.5749931663517
320,176,58000,1,4,0:0:0:0:
135,77,58147,1,0,0:0:0:0:
320,176,58294,2,0,P|336:224|223:289,1,163.149986332703,8|0,0:0|0:0,0:0:0:0:
177,206,58735,1,0,0:0:0:0:
32,352,58882,6,0,L|64:256,1,81.5749931663517,4|0,0:0|0:0,0:0:0:0:
224,288,59176,2,0,L|192:176,1,81.5749931663517
48,224,59470,2,0,L|80:128,1,81.5749931663517,8|0,0:0|0:0,0:0:0:0:
192,80,59765,2,0,L|224:160,1,81.5749931663517
314,72,60059,1,0,0:0:0:0:
272,256,60206,1,0,0:0:0:0:
272,256,60353,2,0,P|224:288|192:320,1,81.5749931663517,4|0,0:0|0:0,0:0:0:0:
80,256,60647,2,0,P|112:224|160:192,1,81.5749931663517,8|0,0:0|0:0,0:0:0:0:
272,160,60941,2,0,P|320:144|384:160,1,81.5749931663517
400,288,61235,6,0,P|320:320|208:304,1,163.149986332703,4|0,0:0|0:0,0:0:0:0:
273,160,61676,1,0,0:0:0:0:
156,52,61823,6,0,P|188:76|208:112,1,81.5749931663517,8|0,0:0|0:0,0:0:0:0:
243,316,62117,2,0,P|211:292|192:257,1,81.5749931663517
36,243,62412,2,0,P|60:211|96:192,1,81.5749931663517
304,144,62706,6,0,L|192:176,1,81.5749931663517,4|0,0:0|0:0,0:0:0:0:
128,320,63000,2,0,L|208:240,1,81.5749931663517,8|0,0:0|0:0,0:0:0:0:
400,256,63294,2,0,L|304:256,1,81.5749931663517
304,80,63588,2,0,P|256:144|160:144,1,163.149986332703,4|0,0:0|0:0,0:0:0:0:
192,272,64029,1,0,0:0:0:0:
192,272,64176,2,0,P|272:240|368:256,1,163.149986332703,8|0,0:0|0:0,0:0:0:0:
378,141,64618,5,0,0:0:0:0:
163,112,64765,1,0,0:0:0:0:
318,254,64912,1,0,0:0:0:0:
258,81,65059,2,0,P|200:108|157:180,1,81.5749931663517,4|0,0:0|0:0,0:0:0:0:
403,93,65353,1,8,0:0:0:0:
55,166,65500,1,0,0:0:0:0:
338,237,65647,2,0,L|238:230,1,81.5749931663517
144,224,65941,1,6,0:0:0:0:
97,200,70647,6,0,P|142:169|212:161,1,125.499995231628
194,275,71088,2,0,P|289:248|323:204,1,125.499995231628
334,137,71529,2,0,L|371:187,1,62.7499976158142
242,193,71823,6,0,L|320:303,1,125.499995231628
176,309,72265,2,0,L|98:199,1,125.499995231628
175,127,72706,1,0,0:0:0:0:
175,127,72853,1,0,0:0:0:0:
211,246,73000,6,0,P|264:215|335:221,1,125.499995231628
215,99,73441,2,0,P|261:131|332:106,1,125.499995231628
371,209,73882,2,0,P|400:196|431:191,1,62.7499976158142
367,322,74176,2,0,P|335:328|304:329,1,62.7499976158142
159,297,74470,5,0,0:0:0:0:
145,128,74618,1,0,0:0:0:0:
226,221,74765,1,0,0:0:0:0:
75,135,74912,1,0,0:0:0:0:
212,95,75059,2,0,P|283:106|299:101,1,62.7499976158142
401,104,75353,6,0,L|362:247,1,125.499995231628
228,318,75794,2,0,L|258:191,1,125.499995231628
136,120,76235,2,0,L|201:139,1,62.7499976158142
159,333,76529,6,0,P|196:281|261:287,1,125.499995231628
304,209,76970,6,0,P|365:208|399:159,1,125.499995231628
376,66,77412,1,0,0:0:0:0:
376,66,77559,1,0,0:0:0:0:
228,75,77706,6,0,P|183:109|223:114,1,125.499995231628
301,185,78147,2,0,P|339:218|289:227,1,125.499995231628
148,271,78588,2,0,P|177:241|182:217,1,62.7499976158142
101,141,78882,6,0,P|146:94|226:97,1,125.499995231628
201,190,79323,2,0,P|263:173|317:99,1,125.499995231628
421,55,79765,2,0,P|405:90|427:114,1,62.7499976158142
387,244,80059,6,0,P|334:195|275:206,1,125.499995231628
252,291,80500,2,0,P|288:325|364:329,1,125.499995231628
213,184,80941,1,0,0:0:0:0:
213,184,81088,1,0,0:0:0:0:
79,89,81235,6,0,P|139:66|210:78,1,125.499995231628
270,123,81676,2,0,P|345:137|414:119,1,125.499995231628
481,70,82118,2,0,L|473:157,1,62.7499976158142
431,299,82412,6,0,B|369:265|369:265|316:295,1,125.499995231628
195,187,82853,2,0,B|257:221|257:221|310:191,1,125.499995231628
299,74,83294,2,0,L|240:130,1,62.7499976158142
386,142,83588,2,0,L|305:200,1,62.7499976158142
259,221,83882,5,0,0:0:0:0:
161,326,84029,1,0,0:0:0:0:
214,142,84176,1,0,0:0:0:0:
277,317,84323,1,0,0:0:0:0:
119,192,84470,2,0,B|92:170|98:149|98:149|117:159|118:192,1,62.7499976158142
245,188,84765,6,0,P|319:208|390:173,1,125.499995231628
299,100,85206,2,0,P|235:77|161:104,1,125.499995231628
172,189,85647,2,0,L|240:201,1,62.7499976158142
183,301,85941,6,0,B|255:315|255:315|305:347|305:347,1,125.499995231628
406,242,86382,2,0,B|344:272|344:272|270:238|270:238,1,125.499995231628
342,130,86823,2,0,L|342:197,1,62.7499976158142
276,306,87118,6,0,P|249:255|178:317,1,125.499995231628
141,79,87559,2,0,P|168:130|239:68,1,125.499995231628
310,58,88000,1,0,0:0:0:0:
310,58,88147,1,0,0:0:0:0:
383,209,88294,6,0,P|317:198|234:208,1,125.499995231628
310,315,88735,2,0,P|245:320|166:302,1,125.499995231628
163,200,89176,1,0,0:0:0:0:
163,200,89323,1,0,0:0:0:0:
328,66,89470,6,0,B|365:138|330:136|360:221,1,150.599989682007
326,66,90059,1,0,0:0:0:0:
188,226,90500,1,0,0:0:0:0:
136,144,145941,6,0,P|99:163|142:286,1,163.149986332703,4|0,0:0|0:0,0:0:0:0:
320,160,146382,1,2,0:0:0:0:
432,304,146529,6,0,P|407:332|341:347,1,81.5749931663517,4|0,0:0|0:0,0:0:0:0:
112,336,146823,2,0,L|214:334,1,81.5749931663517,2|0,0:0|0:0,0:0:0:0:
144,176,147118,2,0,L|214:254,1,81.5749931663517,4|0,0:0|0:0,0:0:0:0:
332,80,147412,1,2,0:0:0:0:
148,172,147559,1,2,0:0:0:0:
332,80,147706,2,0,P|352:140|290:213,1,163.149986332703,4|0,0:0|0:0,0:0:0:0:
200,112,148147,1,2,0:0:0:0:
32,312,148294,6,0,L|136:280,1,81.5749931663517,4|0,0:0|0:0,0:0:0:0:
304,312,148588,2,0,L|208:336,1,81.5749931663517,2|0,0:0|0:0,0:0:0:0:
296,200,148882,2,0,L|408:176,1,81.5749931663517,4|0,0:0|0:0,0:0:0:0:
432,320,149176,1,2,0:0:0:0:
296,200,149323,1,2,0:0:0:0:
432,320,149470,2,0,P|360:344|248:328,1,163.149986332703,4|0,0:0|0:0,0:0:0:0:
216,192,149912,1,2,0:0:0:0:
80,328,150059,6,0,L|208:288,1,81.5749931663517,8|0,0:0|0:0,0:0:0:0:
336,208,150353,2,0,L|248:272,1,81.5749931663517
64,208,150647,6,0,P|64:144|168:88,1,163.149986332703,6|0,0:0|0:0,0:0:0:0:
208,240,151088,1,2,0:0:0:0:
368,64,151235,2,0,P|312:96|240:104,1,81.5749931663517,4|0,0:0|0:0,0:0:0:0:
408,312,151529,2,0,P|386:251|390:178,1,81.5749931663517,2|0,0:0|0:0,0:0:0:0:
160,328,151823,2,0,P|223:317|293:334,1,81.5749931663517,4|0,0:0|0:0,0:0:0:0:
352,133,152118,5,0,0:0:0:0:
131,234,152265,1,0,0:0:0:0:
382,231,152412,2,0,P|327:257|274:264,1,81.5749931663517,4|0,0:0|0:0,0:0:0:0:
143,151,152706,2,0,P|169:123|212:110,1,81.5749931663517
282,304,153000,6,0,P|242:314|168:309,1,81.5749931663517,4|0,0:0|0:0,0:0:0:0:
240,192,153294,2,0,P|200:201|159:203,1,81.5749931663517
160,64,153588,2,0,P|120:73|79:75,1,81.5749931663517,4|0,0:0|0:0,0:0:0:0:
240,144,153882,2,0,P|288:160|352:144,1,81.5749931663517
496,48,154176,1,2,0:0:0:0:
448,240,154323,1,2,0:0:0:0:
496,48,154470,2,0,P|480:128|432:160,1,81.5749931663517,4|0,0:0|0:0,0:0:0:0:
416,224,154765,2,0,P|368:272|288:288,1,81.5749931663517,8|0,0:0|0:0,0:0:0:0:
224,240,155059,2,0,P|144:240|144:305,1,81.5749931663517,2|0,0:0|0:0,0:0:0:0:
106,86,155353,6,0,P|162:106|276:80,1,163.149986332703
337,191,155794,1,0,0:0:0:0:
224,368,155941,2,0,P|184:343|159:257,1,81.5749931663517
48,112,156235,2,0,P|80:77|169:67,1,81.5749931663517
368,32,156529,2,0,P|397:70|391:159,1,81.5749931663517
372,278,156823,5,0,0:0:0:0:
306,51,156970,1,0,0:0:0:0:
372,278,157118,2,0,B|307:275|307:275|288:291|288:291|190:294,1,163.149986332703
165,147,157559,1,0,0:0:0:0:
375,107,157706,6,0,P|348:150|271:186,1,81.5749931663517
195,243,158000,1,0,0:0:0:0:
375,107,158147,1,0,0:0:0:0:
187,231,158294,1,0,0:0:0:0:
387,128,158441,1,0,0:0:0:0:
182,209,158588,2,0,P|119:228|81:306,1,81.5749931663517
244,342,158882,5,0,0:0:0:0:
288,240,159029,1,0,0:0:0:0:
288,240,159176,2,0,P|345:223|374:181,1,81.5749931663517
294,73,159470,2,0,P|234:84|203:138,1,81.5749931663517
189,195,159765,2,0,P|132:220|77:228,1,81.5749931663517
220,335,160059,6,0,B|274:320|274:320|305:337|305:337|457:291,1,163.149986332703
305,151,160500,1,0,0:0:0:0:
96,368,160647,6,0,P|160:320|208:192,1,125.499995231628
96,80,160941,6,0,P|132:151|249:220,1,125.499995231628
368,144,161235,6,0,P|291:167|202:271,1,125.499995231628
324,347,161529,1,2,0:0:0:0:
186,236,161676,1,2,0:0:0:0:
359,151,161823,1,2,0:0:0:0:
170,341,161970,1,2,0:0:0:0:
397,261,162118,1,2,0:0:0:0:
185,100,162265,1,2,0:0:0:0:
343,353,162412,5,6,0:0:0:0:
304,68,162559,1,0,0:0:0:0:
133,297,162706,1,0,0:0:0:0:
421,176,162853,1,0,0:0:0:0:
59,201,163000,1,0,0:0:0:0:
461,175,163147,1,0,0:0:0:0:
92,268,163294,2,0,P|173:275|233:253,1,125.499995231628
302,87,163588,5,0,0:0:0:0:
253,300,163735,1,0,0:0:0:0:
396,97,163882,1,0,0:0:0:0:
374,274,164029,2,0,P|407:266|490:223,1,125.499995231628
256,192,164323,1,0,0:0:0:0:
362,345,164470,2,0,P|260:295|249:224,1,125.499995231628
256,192,164765,5,0,0:0:0:0:
256,192,164838,12,0,166529,0:0:0:0:
