osu file format v14

[General]
AudioFilename: audio.mp3
AudioLeadIn: 0
PreviewTime: 37699
Countdown: 0
SampleSet: None
StackLeniency: 0.2
Mode: 0
LetterboxInBreaks: 0
WidescreenStoryboard: 0

[Editor]
Bookmarks: 9267,28385,47135
DistanceSpacing: 1.2
BeatDivisor: 4
GridSize: 8
TimelineZoom: 2.3

[Metadata]
Title:Clear ft. Mothica (Shawn Wasabi Remix)
TitleUnicode:Clear ft. Mothica (Shawn Wasabi Remix)
Artist:Pusher
ArtistUnicode:Pusher
Creator:Ancelysia
Version:Unstable Communication
Source:
Tags:for Aaron
BeatmapID:1827128
BeatmapSetID:874184

[Difficulty]
HPDrainRate:6
CircleSize:3
OverallDifficulty:8
ApproachRate:9
SliderMultiplier:2.1
SliderTickRate:1

[Events]
//Background and Video events
0,0,"BG.jpg",0,0
//Break Periods
2,37849,43079
//Storyboard Layer 0 (Background)
//Storyboard Layer 1 (Fail)
//Storyboard Layer 2 (Pass)
//Storyboard Layer 3 (Foreground)
//Storyboard Sound Samples

[TimingPoints]
150,588.235294117647,4,2,0,30,1,0
150,-80,4,2,0,30,0,0
2502,-500,4,2,0,30,0,0
4855,-80,4,2,0,30,0,0
7208,-500,4,2,0,30,0,0
9561,-250,4,2,1,70,0,0
13385,-250,4,2,0,70,0,0
14120,-250,4,2,1,70,0,0
22797,-250,4,2,0,70,0,0
28385,-66.6666666666667,4,2,0,100,0,0
46032,-100,4,2,0,5,0,0
47208,-25,4,1,1,100,0,1
47502,-25,4,1,0,100,0,1
47575,-25,4,1,1,100,0,1
48421,-25,4,1,1,5,0,1
48679,-25,4,1,1,100,0,1
48973,-33.3333333333333,4,1,1,100,0,1
51913,-25,4,1,1,100,0,1
52208,-25,4,1,0,100,0,1
52281,-25,4,1,1,100,0,1
53127,-25,4,1,1,5,0,1
53385,-33.3333333333333,4,1,1,100,0,1
56620,-25,4,1,1,100,0,1
56914,-25,4,1,0,100,0,1
56987,-25,4,1,1,100,0,1
57833,-25,4,1,1,5,0,1
58090,-25,4,1,1,100,0,1
58127,-25,4,1,1,5,0,1
58237,-25,4,1,1,100,0,1
58385,-33.3333333333333,4,1,1,100,0,1
59855,-125,4,1,1,100,0,1
60443,-33.3333333333333,4,1,1,100,0,1
61325,-50,4,1,1,100,0,1
61399,-50,4,1,0,100,0,1
62281,-50,4,1,1,5,0,1
62355,-50,4,1,1,100,0,1
62575,-50,4,1,1,5,0,1
62649,-50,4,1,1,100,0,1
62796,-33.3333333333333,4,1,1,100,0,1
63384,-66.6666666666667,4,1,1,100,0,1
63678,-66.6666666666667,4,1,0,100,0,1
65149,-100,4,1,0,100,0,1
66032,-100,4,1,0,100,0,0

[Colours]
Combo1 : 255,221,119
Combo2 : 149,255,149
Combo3 : 100,170,255
Combo4 : 255,158,62

[HitObjects]
56,56,150,6,0,B|192:24|240:152|240:152|276:256|140:328|68:228|80:108|165:93|248:80|296:160|332:248|332:248|392:208|448:232|448:232|420:232|388:248,1,918.75,2|0,0:0|0:0,0:0:0:0:
272,384,2502,2,0,P|280:328|268:296,1,84,2|2,0:0|0:0,0:0:0:0:
271,302,4561,1,0,0:0:0:0:
60,324,4855,6,0,B|140:336|216:284|184:212|184:212|108:128|16:192|16:192|88:276|188:228|272:200|272:200|232:132|172:100|148:92|148:92|212:112|276:84,1,918.75,2|2,0:0|0:0,0:0:0:0:
356,136,7208,2,0,P|348:80|360:48,1,84,2|2,0:0|0:0,0:0:0:0:
357,54,9267,1,0,0:0:0:0:
452,224,9561,5,2,0:0:0:0:
436,236,10002,1,2,0:0:0:0:
456,244,10444,1,2,0:0:0:0:
376,308,10738,5,2,0:0:0:0:
392,320,11179,1,2,0:0:0:0:
372,328,11621,1,2,0:0:0:0:
300,236,11914,6,0,L|308:160,2,63,2|2|2,0:0|0:0|0:0,0:0:0:0:
220,292,13091,2,0,L|228:368,2,63,2|2|2,0:0|0:0|1:2,0:0:0:0:
88,320,14267,5,2,0:0:0:0:
112,336,14708,1,2,0:0:0:0:
120,308,15149,1,2,0:0:0:0:
88,204,15444,5,2,0:0:0:0:
64,188,15885,1,2,0:0:0:0:
56,216,16326,1,2,0:0:0:0:
164,268,16620,6,0,L|232:256,2,63,2|2|2,0:0|0:0|0:0,0:0:0:0:
280,348,17797,2,0,L|212:336,2,63,2|2|4,0:0|0:0|1:2,0:0:0:0:
404,284,18973,5,2,0:0:0:0:
384,236,19414,1,2,0:0:0:0:
348,272,19855,1,2,0:0:0:0:
153,219,20149,5,2,0:0:0:0:
186,140,20590,1,2,0:0:0:0:
246,199,21031,1,2,0:0:0:0:
328,116,21326,6,0,L|320:44,2,63,2|2|2,0:0|0:0|0:0,0:0:0:0:
412,176,22502,2,0,L|420:104,2,63,2|2|2,0:0|0:0|1:2,0:0:0:0:
316,276,23679,5,2,0:0:0:0:
244,328,24120,1,2,0:0:0:0:
224,248,24561,1,2,0:0:0:0:
104,92,24855,5,2,0:0:0:0:
36,185,25296,1,2,0:0:0:0:
140,211,25737,1,2,0:0:0:0:
220,120,26032,6,0,L|236:48,2,63,2|2|2,0:0|0:0|0:0,0:0:0:0:
276,188,27208,2,0,L|292:260,1,63,2|2,0:0|0:0,0:0:0:0:
316,336,27944,1,2,0:0:0:0:
316,336,28091,1,2,0:0:0:0:
436,352,28385,6,0,P|420:292|432:244,1,78.7500030040742,4|0,3:0|0:0,0:0:0:0:
448,116,28679,2,0,P|456:180|440:220,1,78.7500030040742
324,144,28973,2,0,P|327:79|349:42,1,78.7500030040742,8|0,1:0|0:0,0:0:0:0:
332,67,29267,1,0,0:0:0:0:
332,67,29561,1,0,0:0:0:0:
332,67,29855,5,4,3:0:0:0:
376,244,30002,1,0,0:0:0:0:
200,188,30149,2,0,P|224:132|220:80,1,78.7500030040742,8|0,1:0|0:0,0:0:0:0:
88,184,30444,2,0,L|104:292,1,78.7500030040742,2|0,0:0|0:0,0:0:0:0:
24,316,30738,6,0,B|100:260|160:316|164:316|168:316|224:368|300:308,1,275.62501051426,4|0,1:0|0:0,0:0:0:0:
284,318,31326,1,8,1:0:0:0:
232,164,31620,6,0,L|224:276,1,78.7500030040742,2|0,0:0|1:0,0:0:0:0:
360,176,31914,2,0,L|352:64,1,78.7500030040742,2|0,0:0|1:0,0:0:0:0:
232,164,32208,1,4,3:0:0:0:
336,264,32429,5,0,3:0:0:0:
336,264,32502,2,0,L|448:256,1,78.7500030040742,10|0,1:2|0:0,0:0:0:0:
504,252,32796,1,4,3:0:0:0:
400,104,32943,1,8,3:0:0:0:
308,364,33090,6,0,B|340:288|292:248|292:244|292:240|256:192|312:116,1,236.250009012223,4|0,1:0|0:0,0:0:0:0:
298,138,33679,1,8,1:0:0:0:
408,216,33973,5,2,0:0:0:0:
408,216,34267,1,2,0:0:0:0:
408,216,34561,5,4,3:0:0:0:
352,292,34708,1,0,0:0:0:0:
368,104,34855,2,0,L|464:88,1,78.7500030040742,8|0,0:0|0:0,0:0:0:0:
304,168,35149,2,0,P|280:92|312:28,1,118.125004506111
296,40,35443,6,0,P|248:64|132:48,1,157.500006008148,4|2,3:0|0:0,0:0:0:0:
64,16,36032,1,8,0:0:0:0:
28,204,36326,6,0,L|116:192,1,78.7500030040742,0|0,0:0|1:0,0:0:0:0:
236,288,36620,2,0,L|148:276,1,78.7500030040742,0|0,0:0|1:0,0:0:0:0:
48,340,36914,5,0,0:0:0:0:
224,184,37135,1,0,3:0:0:0:
224,184,37208,2,0,L|212:72,1,78.7500030040742,10|0,1:2|0:0,0:0:0:0:
204,16,37502,5,8,3:0:0:0:
204,16,37649,1,8,3:0:0:0:
256,192,43679,12,0,46032,0:0:0:0:
160,184,47208,6,0,B|196:228|256:208|296:176|316:120|300:16|216:-20|56:-20|8:52|-36:160|0:288|76:356|228:356|311:298|352:232|352:232|396:316|396:316|364:192|416:136|416:136|404:176|416:240,1,1260,4|2,0:0|0:0,0:0:0:0:
412,217,48385,2,0,L|474:204,1,52.5,2|0,0:0|2:0,0:0:0:0:
306,340,48679,5,4,0:0:0:0:
424,312,48826,1,4,0:0:0:0:
324,244,48973,2,2,B|232:211|188:284|184:284|181:285|124:376|0:276,1,315,10|0,0:0|0:0,0:0:0:0:
100,68,49561,6,0,B|116:108|116:108|104:296,1,157.500006008148,6|0,0:0|2:0,0:0:0:0:
220,316,49855,2,0,B|204:276|204:276|216:88,1,157.500006008148,2|0,0:0|2:0,0:0:0:0:
264,84,50149,2,0,P|376:76|432:108,1,157.500006008148,10|0,0:0|2:0,0:0:0:0:
424,308,50443,5,0,0:0:0:0:
392,184,50590,1,0,0:0:0:0:
504,248,50737,2,2,B|424:192|352:248|348:248|348:248|344:248|260:316|160:216,1,315.000012016297,0|4,0:0|0:0,0:0:0:0:
100,168,51179,1,0,0:0:0:0:
222,95,51326,6,0,L|201:302,1,157.500006008148
68,356,51619,1,8,3:0:0:0:
116,256,51766,1,8,3:0:0:0:
182,339,51914,6,0,B|422:315|422:315|276:83|276:83|206:251|206:251|460:224|460:224|348:44|348:44|500:16,1,1260,4|2,0:0|0:0,0:0:0:0:
441,26,53090,2,0,L|358:45,1,52.5,2|0,0:0|2:0,0:0:0:0:
156,72,53385,5,4,0:0:0:0:
48,112,53532,1,4,0:0:0:0:
212,176,53679,2,0,B|296:228|356:160|360:160|364:160|424:100|528:164,1,315.000012016297,8|0,0:0|0:0,0:0:0:0:
464,328,54267,6,0,P|360:300|264:352,1,157.500006008148,6|0,0:0|2:0,0:0:0:0:
168,344,54561,2,0,P|256:282|278:175,1,157.500006008148,2|0,0:0|2:0,0:0:0:0:
296,116,54855,2,0,P|323:220|416:277,1,157.500006008148,10|0,0:0|2:0,0:3:0:0:
464,328,55149,5,0,0:0:0:0:
436,176,55296,1,0,0:0:0:0:
280,272,55443,5,0,2:0:0:0:
312,248,55590,1,0,2:0:0:0:
324,296,55737,2,2,B|251:228|172:288|168:287|168:287|164:287|81:357|-17:246,1,315.000012016297,4|8,0:0|0:0,0:0:0:0:
132,160,56179,1,0,0:0:0:0:
224,344,56326,5,8,3:0:0:0:
128,272,56473,1,8,3:0:0:0:
244,224,56620,6,0,B|348:200|468:200|468:348|468:348|340:356|316:232|348:136|408:36|408:36|340:96|261:42|261:42|248:64|248:64|168:28|83:77|83:77|180:48|280:100,1,1260,4|2,0:0|0:0,0:0:0:0:
269,94,57796,2,0,L|255:2,1,52.5,2|0,0:0|2:0,0:0:0:0:
152,188,58090,6,0,L|166:96,1,52.5,6|0,0:0|2:0,0:0:0:0:
176,40,58237,1,4,0:0:0:0:
0,216,58385,6,0,B|108:160|152:232|156:232|160:232|244:300|336:208,1,315,8|2,0:0|0:0,0:0:0:0:
372,320,58973,6,0,P|404:212|332:140,1,157.500006008148,6|0,0:0|2:0,0:0:0:0:
155,220,59267,2,0,P|262:253|335:183,1,157.500006008148,2|0,0:0|2:0,0:0:0:0:
400,32,59561,2,0,P|304:92|312:194,1,157.500006008148,10|0,0:0|2:0,0:0:0:0:
386,177,59855,6,0,L|444:168,1,42,0|2,0:0|2:0,0:0:0:0:
504,224,60149,5,0,0:0:0:0:
504,224,60296,1,0,0:0:0:0:
432,296,60443,2,0,B|348:360|288:304|284:304|280:304|212:240|88:336,1,315.000012016297,4|0,0:0|0:0,0:0:0:0:
36,352,60885,5,0,0:0:0:0:
256,176,61032,1,8,3:0:0:0:
72,136,61179,1,8,3:0:0:0:
200,256,61325,6,0,B|264:292|320:244|320:244|332:260|332:260|408:192|500:264,1,315,4|0,0:0|0:0,0:0:0:0:
483,251,61913,1,8,0:0:0:0:
408,368,62208,6,0,L|420:276,1,52.5,2|0,0:0|2:0,0:0:0:0:
284,188,62502,2,0,L|296:280,1,52.5,2|0,0:0|2:0,0:0:0:0:
304,324,62649,1,2,2:0:0:0:
408,180,62796,6,0,B|320:116|256:164|252:164|248:164|176:252|64:116,1,315.000012016297,4|8,0:0|0:0,0:0:0:0:
164,28,63384,2,0,P|184:76|180:128,1,78.7500030040742,2|0,0:0|2:0,0:0:0:0:
59,310,63678,6,0,B|111:264|112:161|112:161|140:263|197:289,1,315.000012016297,4|8,0:0|0:0,0:0:0:0:
368,336,64560,5,0,0:0:0:0:
312,232,64708,1,0,0:0:0:0:
256,364,64855,1,2,0:2:0:0:
256,364,65002,1,2,0:2:0:0:
408,240,65149,6,0,L|396:124,1,105,4|8,0:0|0:0,0:0:0:0:
448,44,65590,5,0,0:0:0:0:
397,135,65737,1,0,0:0:0:0:
460,340,66031,5,4,2:0:0:0:
