osu file format v14

[General]
AudioFilename: audio.mp3
AudioLeadIn: 0
PreviewTime: 55396
Countdown: 0
SampleSet: Soft
StackLeniency: 0.5
Mode: 0
LetterboxInBreaks: 0
EpilepsyWarning: 1
WidescreenStoryboard: 1

[Editor]
Bookmarks: 9453,28277,47100,70630,89453,108277
DistanceSpacing: 1.4
BeatDivisor: 4
GridSize: 4
TimelineZoom: 1

[Metadata]
Title:Clear feat. Mothica (Shawn Wasabi Remix) (Cut Ver.)
TitleUnicode:Clear feat. Mothica (Shawn Wasabi Remix) (Cut Ver.)
Artist:Pusher
ArtistUnicode:Pusher
Creator:Plaudible
Version:Normal
Source:
Tags:dance english electronic browiec sylas lokidoki mimari thekoala
BeatmapID:2977098
BeatmapSetID:1437681

[Difficulty]
HPDrainRate:3
CircleSize:3
OverallDifficulty:4
ApproachRate:5
SliderMultiplier:1.4
SliderTickRate:1

[Events]
//Background and Video events
0,0,"bg.jpg",0,0
//Break Periods
//Storyboard Layer 0 (Background)
//Storyboard Layer 1 (Fail)
//Storyboard Layer 2 (Pass)
//Storyboard Layer 3 (Foreground)
Sprite,Foreground,Centre,"sb\c.png",255,349 F,2,57160,57654,0.75,0 S,19,57185,57485,0,0.5
Sprite,Foreground,Centre,"sb\arrow.png",0,0 R,0,56960,,0.2 M,19,57060,57360,-245,269,155,329 S,0,57160,,0.5 C,0,57160,,252,62,146 F,2,57160,57654,0.9,0
Sprite,Foreground,Centre,"sb\c.png",386,252 F,2,57749,58243,0.75,0 S,19,57774,58074,0,0.5
Sprite,Foreground,Centre,"sb\arrow.png",0,0 R,0,57549,,1.7703 M,19,57649,57949,466,-248,406,152 S,0,57749,,0.5 C,0,57749,,160,236,227 F,2,57749,58243,0.9,0
Sprite,Foreground,Centre,"sb\c.png",255,157 F,2,58337,58537,0.75,0 S,19,58362,58662,0,0.5
Sprite,Foreground,Centre,"sb\arrow.png",0,0 R,0,58137,,3.3406 M,19,58237,58537,755,237,355,177 S,0,58337,,0.5 C,0,58337,,252,62,146 F,2,58337,58537,0.9,0
Sprite,Foreground,Centre,"sb\c.png",450,112 F,2,58925,59125,0.75,0 S,19,58950,59250,0,0.5
Sprite,Foreground,Centre,"sb\arrow.png",0,0 R,0,58725,,4.9109 M,19,58825,59125,370,612,432,212 S,0,58925,,0.5 C,0,58925,,160,236,227 F,2,58925,59125,0.9,0
Sprite,Foreground,Centre,"sb\c.png",525,177 F,2,59219,59419,0.75,0 S,19,59244,59544,0,0.5
Sprite,Foreground,Centre,"sb\arrow.png",0,0 R,0,59019,,6.4812 M,19,59119,59419,25,97,425,157 S,0,59219,,0.5 C,0,59219,,252,62,146 F,2,59219,59419,0.9,0
Sprite,Foreground,Centre,"sb\c.png",431,212 F,2,59513,60007,0.75,0 S,19,59538,59838,0,0.5
Sprite,Foreground,Centre,"sb\arrow.png",0,0 R,0,59313,,8.0515 M,19,59413,59713,511,-288,451,112 S,0,59513,,0.5 C,0,59513,,160,236,227 F,2,59513,60007,0.9,0
Sprite,Foreground,Centre,"sb\c.png",455,382 F,2,60101,60742,0.75,0 S,19,60126,60426,0,0.5
Sprite,Foreground,Centre,"sb\arrow.png",0,0 R,0,59901,,9.6218 M,19,60001,60301,955,462,555,402 S,0,60101,,0.5 C,0,60101,,252,62,146 F,2,60101,60742,0.9,0
Sprite,Foreground,Centre,"sb\c.png",304,332 F,2,60690,61184,0.75,0 S,19,60715,61015,0,0.5
Sprite,Foreground,Centre,"sb\arrow.png",0,0 R,0,60490,,11.1921 M,19,60590,60890,224,832,286,432 S,0,60690,,0.5 C,0,60690,,160,236,227 F,2,60690,61184,0.9,0
Sprite,Foreground,Centre,"sb\c.png",137,387 F,2,61278,61919,0.75,0 S,19,61303,61603,0,0.5
Sprite,Foreground,Centre,"sb\arrow.png",0,0 R,0,61078,,12.7624 M,19,61178,61478,-363,307,37,367 S,0,61278,,0.5 C,0,61278,,252,62,146 F,2,61278,61919,0.9,0
Sprite,Foreground,Centre,"sb\c.png",150,228 F,2,61866,62360,0.75,0 S,19,61891,62191,0,0.5
Sprite,Foreground,Centre,"sb\arrow.png",0,0 R,0,61666,,14.3327 M,19,61766,62066,230,-272,170,128 S,0,61866,,0.5 C,0,61866,,160,236,227 F,2,61866,62360,0.9,0
Sprite,Foreground,Centre,"sb\c.png",274,130 F,2,62454,62948,0.75,0 S,19,62479,62779,0,0.5
Sprite,Foreground,Centre,"sb\arrow.png",0,0 R,0,62254,,15.903 M,19,62354,62654,774,210,374,150 S,0,62454,,0.5 C,0,62454,,252,62,146 F,2,62454,62948,0.9,0
Sprite,Foreground,Centre,"sb\c.png",433,194 F,2,63043,63243,0.75,0 S,19,63068,63368,0,0.5
Sprite,Foreground,Centre,"sb\arrow.png",0,0 R,0,62843,,17.4733 M,19,62943,63243,353,694,415,294 S,0,63043,,0.5 C,0,63043,,160,236,227 F,2,63043,63243,0.9,0
Sprite,Foreground,Centre,"sb\c.png",280,323 F,2,63631,63831,0.75,0 S,19,63656,63956,0,0.5
Sprite,Foreground,Centre,"sb\arrow.png",0,0 R,0,63431,,19.0436 M,19,63531,63831,-220,243,180,303 S,0,63631,,0.5 C,0,63631,,252,62,146 F,2,63631,63831,0.9,0
Sprite,Foreground,Centre,"sb\c.png",203,387 F,2,63925,64125,0.75,0 S,19,63950,64250,0,0.5
Sprite,Foreground,Centre,"sb\arrow.png",0,0 R,0,63725,,20.6139 M,19,63825,64125,283,-113,223,287 S,0,63925,,0.5 C,0,63925,,160,236,227 F,2,63925,64125,0.9,0
Sprite,Foreground,Centre,"sb\c.png",111,347 F,2,64219,64713,0.75,0 S,19,64244,64544,0,0.5
Sprite,Foreground,Centre,"sb\arrow.png",0,0 R,0,64019,,22.1842 M,19,64119,64419,611,427,211,367 S,0,64219,,0.5 C,0,64219,,252,62,146 F,2,64219,64713,0.9,0
Sprite,Foreground,Centre,"sb\c.png",207,220 F,2,64807,65595,0.75,0 S,19,64832,65132,0,0.5
Sprite,Foreground,Centre,"sb\arrow.png",0,0 R,0,64607,,23.7545 M,19,64707,65007,127,720,189,320 S,0,64807,,0.5 C,0,64807,,160,236,227 F,2,64807,65595,0.9,0
Sprite,Foreground,Centre,"sb\c.png",313,389 F,2,65984,66625,0.75,0 S,19,66009,66309,0,0.5
Sprite,Foreground,Centre,"sb\arrow.png",0,0 R,0,65784,,25.3248 M,19,65884,66184,-187,309,213,369 S,0,65984,,0.5 C,0,65984,,252,62,146 F,2,65984,66625,0.9,0
Sprite,Foreground,Centre,"sb\c.png",473,416 F,2,66572,67066,0.75,0 S,19,66597,66897,0,0.5
Sprite,Foreground,Centre,"sb\arrow.png",0,0 R,0,66372,,26.8951 M,19,66472,66772,553,-84,493,316 S,0,66572,,0.5 C,0,66572,,160,236,227 F,2,66572,67066,0.9,0
Sprite,Foreground,Centre,"sb\c.png",371,298 F,2,67160,67654,0.75,0 S,19,67185,67485,0,0.5
Sprite,Foreground,Centre,"sb\arrow.png",0,0 R,0,66960,,28.4654 M,19,67060,67360,871,378,471,318 S,0,67160,,0.5 C,0,67160,,252,62,146 F,2,67160,67654,0.9,0
Sprite,Foreground,Centre,"sb\c.png",428,133 F,2,67749,67949,0.75,0 S,19,67774,68074,0,0.5
Sprite,Foreground,Centre,"sb\arrow.png",0,0 R,0,67549,,30.0357 M,19,67649,67949,348,633,410,233 S,0,67749,,0.5 C,0,67749,,160,236,227 F,2,67749,67949,0.9,0
Sprite,Foreground,Centre,"sb\c.png",231,96 F,2,68337,68537,0.75,0 S,19,68362,68662,0,0.5
Sprite,Foreground,Centre,"sb\arrow.png",0,0 R,0,68137,,31.606 M,19,68237,68537,-269,16,131,76 S,0,68337,,0.5 C,0,68337,,252,62,146 F,2,68337,68537,0.9,0
Sprite,Foreground,Centre,"sb\c.png",249,194 F,2,68631,68831,0.75,0 S,19,68656,68956,0,0.5
Sprite,Foreground,Centre,"sb\arrow.png",0,0 R,0,68431,,33.1763 M,19,68531,68831,329,-306,269,94 S,0,68631,,0.5 C,0,68631,,160,236,227 F,2,68631,68831,0.9,0
Sprite,Foreground,Centre,"sb\c.png",161,243 F,2,68925,69419,0.75,0 S,19,68950,69250,0,0.5
Sprite,Foreground,Centre,"sb\arrow.png",0,0 R,0,68725,,34.7466 M,19,68825,69125,661,323,261,263 S,0,68925,,0.5 C,0,68925,,252,62,146 F,2,68925,69419,0.9,0
Sprite,Foreground,Centre,"sb\c.png",244,380 F,2,69513,70154,0.75,0 S,19,69538,69838,0,0.5
Sprite,Foreground,Centre,"sb\arrow.png",0,0 R,0,69313,,36.3169 M,19,69413,69713,164,880,226,480 S,0,69513,,0.5 C,0,69513,,160,236,227 F,2,69513,70154,0.9,0
Sprite,Foreground,Centre,"sb\c.png",395,330 F,2,70102,70596,0.75,0 S,19,70127,70427,0,0.5
Sprite,Foreground,Centre,"sb\arrow.png",0,0 R,0,69902,,37.8872 M,19,70002,70302,-105,250,295,310 S,0,70102,,0.5 C,0,70102,,252,62,146 F,2,70102,70596,0.9,0
Sprite,Foreground,Centre,"sb\c.png",553,288 F,2,70690,71331,0.75,0 S,19,70715,71015,0,0.5
Sprite,Foreground,Centre,"sb\arrow.png",0,0 R,0,70490,,39.4575 M,19,70590,70890,633,-212,573,188 S,0,70690,,0.5 C,0,70690,,160,236,227 F,2,70690,71331,0.9,0
Sprite,Foreground,Centre,"sb\c.png",529,136 F,2,71278,72066,0.75,0 S,19,71303,71603,0,0.5
Sprite,Foreground,Centre,"sb\arrow.png",0,0 R,0,71078,,41.0278 M,19,71178,71478,1029,216,629,156 S,0,71278,,0.5 C,0,71278,,252,62,146 F,2,71278,72066,0.9,0
Sprite,Foreground,Centre,"sb\c.png",438,314 F,2,72454,72948,0.75,0 S,19,72479,72779,0,0.5
Sprite,Foreground,Centre,"sb\arrow.png",0,0 R,0,72254,,42.5981 M,19,72354,72654,358,814,420,414 S,0,72454,,0.5 C,0,72454,,160,236,227 F,2,72454,72948,0.9,0
Sprite,Foreground,Centre,"sb\c.png",289,253 F,2,73043,73684,0.75,0 S,19,73068,73368,0,0.5
Sprite,Foreground,Centre,"sb\arrow.png",0,0 R,0,72843,,44.1684 M,19,72943,73243,-211,173,189,233 S,0,73043,,0.5 C,0,73043,,252,62,146 F,2,73043,73684,0.9,0
Sprite,Foreground,Centre,"sb\c.png",147,291 F,2,73631,74125,0.75,0 S,19,73656,73956,0,0.5
Sprite,Foreground,Centre,"sb\arrow.png",0,0 R,0,73431,,45.7387 M,19,73531,73831,227,-209,167,191 S,0,73631,,0.5 C,0,73631,,160,236,227 F,2,73631,74125,0.9,0
Sprite,Foreground,Centre,"sb\c.png",235,422 F,2,74219,74713,0.75,0 S,19,74244,74544,0,0.5
Sprite,Foreground,Centre,"sb\arrow.png",0,0 R,0,74019,,47.309 M,19,74119,74419,735,502,335,442 S,0,74219,,0.5 C,0,74219,,252,62,146 F,2,74219,74713,0.9,0
Sprite,Foreground,Centre,"sb\c.png",369,330 F,2,74807,75301,0.75,0 S,19,74832,75132,0,0.5
Sprite,Foreground,Centre,"sb\arrow.png",0,0 R,0,74607,,48.8793 M,19,74707,75007,289,830,351,430 S,0,74807,,0.5 C,0,74807,,160,236,227 F,2,74807,75301,0.9,0
//Storyboard Layer 4 (Overlay)
//Storyboard Sound Samples

[TimingPoints]
102,588.235294117647,4,2,10,60,1,0
9513,-100,4,2,9,60,0,0
28337,-100,4,2,10,90,0,0
29219,-100,4,2,9,90,0,0
29807,-100,4,2,10,90,0,0
30396,-100,4,2,9,90,0,0
30690,-100,4,2,10,90,0,0
30984,-100,4,2,9,90,0,0
31278,-100,4,2,10,90,0,0
32896,-100,4,2,11,90,0,0
33043,-100,4,2,10,90,0,0
33925,-100,4,2,9,90,0,0
34513,-100,4,2,10,90,0,0
35102,-100,4,2,9,90,0,0
35396,-100,4,2,10,90,0,0
35690,-100,4,2,9,90,0,0
35984,-100,4,2,10,90,0,0
37602,-100,4,2,11,90,0,0
37749,-100,4,2,10,90,0,0
38631,-100,4,2,9,90,0,0
39219,-100,4,2,10,90,0,0
39808,-100,4,2,9,90,0,0
40102,-100,4,2,10,90,0,0
40396,-100,4,2,9,90,0,0
40690,-100,4,2,10,90,0,0
42308,-100,4,2,11,90,0,0
42454,-100,4,2,10,90,0,0
43336,-100,4,2,9,90,0,0
43924,-100,4,2,10,90,0,0
44513,-100,4,2,9,90,0,0
44807,-100,4,2,10,90,0,0
45101,-100,4,2,9,90,0,0
45395,-100,4,2,10,90,0,0
47013,-100,4,2,11,90,0,0
47160,-100,4,2,10,75,0,0
51131,-100,4,2,9,75,0,0
51278,-100,4,2,10,75,0,0
51425,-100,4,2,9,75,0,0
51866,-100,4,2,10,75,0,0
55396,-100,4,2,10,25,0,0
56572,-90.9090909090909,4,2,10,100,0,1
57454,-90.9090909090909,4,2,9,100,0,1
58042,-90.9090909090909,4,2,10,100,0,1
58410,-90.9090909090909,4,2,10,5,0,1
58483,-90.9090909090909,4,2,10,100,0,1
58631,-90.9090909090909,4,2,9,100,0,1
58925,-90.9090909090909,4,2,10,100,0,1
59219,-90.9090909090909,4,2,9,100,0,1
59513,-90.9090909090909,4,2,10,100,0,1
61131,-90.9090909090909,4,2,11,100,0,1
61278,-90.9090909090909,4,2,10,100,0,1
62160,-90.9090909090909,4,2,9,100,0,1
62748,-90.9090909090909,4,2,10,100,0,1
63337,-90.9090909090909,4,2,9,100,0,1
63631,-90.9090909090909,4,2,10,100,0,1
63925,-90.9090909090909,4,2,9,100,0,1
64219,-90.9090909090909,4,2,10,100,0,1
64807,-90.9090909090909,4,2,9,100,0,1
64954,-90.9090909090909,4,2,10,100,0,1
65249,-90.9090909090909,4,2,9,100,0,1
65396,-90.9090909090909,4,2,10,100,0,1
65837,-90.9090909090909,4,2,11,100,0,1
65984,-90.9090909090909,4,2,10,100,0,1
66866,-90.9090909090909,4,2,9,100,0,1
67454,-90.9090909090909,4,2,10,100,0,1
68043,-90.9090909090909,4,2,9,100,0,1
68337,-90.9090909090909,4,2,10,100,0,1
68631,-90.9090909090909,4,2,9,100,0,1
68925,-90.9090909090909,4,2,10,100,0,1
69513,-90.9090909090909,4,2,9,100,0,1
69660,-90.9090909090909,4,2,10,100,0,1
69954,-90.9090909090909,4,2,9,100,0,1
70101,-90.9090909090909,4,2,10,100,0,1
70543,-90.9090909090909,4,2,11,100,0,1
70690,-90.9090909090909,4,2,10,100,0,1
71572,-90.9090909090909,4,2,9,100,0,1
72160,-90.9090909090909,4,2,10,100,0,1
72749,-90.9090909090909,4,2,9,100,0,1
73043,-90.9090909090909,4,2,10,100,0,1
73337,-90.9090909090909,4,2,9,100,0,1
73631,-90.9090909090909,4,2,10,100,0,1
74219,-90.9090909090909,4,2,9,100,0,1
74366,-90.9090909090909,4,2,10,100,0,1
74660,-90.9090909090909,4,2,9,100,0,1
74807,-90.9090909090909,4,2,10,100,0,1
75249,-90.9090909090909,4,2,11,100,0,1
75396,-100,4,2,10,50,0,0

[Colours]
Combo1 : 255,151,151
Combo2 : 255,159,207
Combo3 : 136,255,255
Combo4 : 106,181,255

[HitObjects]
229,175,9807,5,0,0:0:0:0:
308,117,10101,2,0,B|345:112|345:112|378:131,1,70,0|2,0:0|0:3,0:0:0:0:
410,219,10690,2,0,B|458:212|458:212|471:205|471:205|524:198,2,105,2|2|2,0:3|0:3|0:3,0:0:0:0:
364,305,11866,1,2,0:3:0:0:
193,208,12454,1,0,0:0:0:0:
40,332,13043,2,0,P|22:291|27:257,1,70,2|0,0:3|0:0,0:0:0:0:
96,200,13631,2,0,P|89:139|67:115,1,70,0|2,0:0|0:3,0:0:0:0:
1,81,14219,5,2,0:3:0:0:
90,37,14513,1,0,0:0:0:0:
90,37,14807,2,0,L|161:47,1,70,0|2,0:0|0:3,0:0:0:0:
222,122,15396,2,0,L|341:105,2,105,2|2|2,0:3|0:3|0:3,0:0:0:0:
150,189,16572,1,2,0:3:0:0:
280,332,17160,1,0,0:0:0:0:
441,237,17749,2,0,P|465:222|499:140,2,105,2|2|2,0:3|0:3|0:3,0:0:0:0:
347,206,18925,5,2,0:3:0:0:
254,174,19219,2,0,L|240:104,2,70,0|0|2,0:0|0:0|0:3,0:0:0:0:
271,270,20101,2,0,B|209:265|209:265|197:270|197:270|112:263,1,140,2|0,0:3|0:0,0:0:0:0:
34,94,21278,2,0,P|72:73|148:73,2,105,2|2|2,0:3|0:3|0:3,0:0:0:0:
29,192,22454,2,0,L|127:206,1,70,2|0,0:3|0:0,0:0:0:0:
188,162,23043,2,0,L|286:176,1,70,0|2,0:0|0:3,0:0:0:0:
301,259,23631,5,2,0:3:0:0:
228,323,23925,1,0,0:0:0:0:
228,323,24219,2,0,L|157:313,1,70,0|2,0:0|0:3,0:0:0:0:
90,242,24807,2,0,B|78:190|78:190|109:134,2,105,2|2|2,0:3|0:3|0:3,0:0:0:0:
158,313,25984,5,2,0:3:0:0:
350,274,26572,2,0,B|357:241|357:241|362:236|362:236|372:193,1,70,0|2,0:0|0:3,0:0:0:0:
396,113,27160,2,0,L|526:98,2,105,2|2|2,0:2|0:3|0:3,0:0:0:0:
352,24,28337,6,0,P|292:3|236:15,1,105,6|0,0:0|0:0,0:0:0:0:
210,34,28925,2,0,L|191:108,1,70,8|2,0:0|0:3,0:0:0:0:
130,177,29513,2,0,L|145:270,2,70,0|2|8,0:0|0:0|0:0,0:0:0:0:
286,295,30690,1,2,0:0:0:0:
369,243,30984,2,0,P|400:258|446:261,2,70,2|8|8,0:3|0:0|0:3,0:0:0:0:
342,148,31866,2,0,P|357:116|382:92,1,70,0|2,0:0|0:0,0:0:0:0:
480,88,32454,1,8,0:0:0:0:
432,280,33043,6,0,B|380:270|380:270|376:274|376:274|313:263,1,105,6|0,0:0|0:0,0:0:0:0:
301,225,33631,2,0,P|255:229|231:245,1,70,8|2,0:0|0:3,0:0:0:0:
175,318,34219,2,0,P|129:314|105:298,2,70,0|2|8,0:0|0:0|0:0,0:0:0:0:
202,123,35396,1,2,0:0:0:0:
113,81,35690,1,2,0:3:0:0:
46,152,35984,2,0,P|42:187|57:225,1,70,8|8,0:0|0:3,0:0:0:0:
143,257,36572,2,0,B|182:242|214:264|214:264|247:286|282:279,1,140,0|8,0:0|0:0,0:0:0:0:
392,122,37749,5,6,0:0:0:0:
326,49,38043,2,0,P|301:87|295:118,1,70,0|8,0:0|0:0,0:0:0:0:
335,200,38631,1,2,0:3:0:0:
380,286,38925,2,0,L|462:273,2,70,0|2|8,0:0|0:0|0:0,0:0:0:0:
202,369,40101,2,0,B|176:320|176:320|191:244,1,105,2|0,0:0|0:0,0:0:0:0:
216,232,40690,2,0,L|195:159,1,70,8|8,0:0|0:3,0:0:0:0:
111,115,41278,2,0,L|90:188,1,70,0|2,0:0|0:0,0:0:0:0:
57,274,41866,1,8,0:0:0:0:
239,203,42454,5,6,0:0:0:0:
289,287,42749,2,0,P|341:287|369:274,1,70,0|8,0:0|0:0,0:0:0:0:
401,193,43337,1,2,0:3:0:0:
446,106,43631,2,0,L|437:33,2,70,0|2|8,0:0|0:0|0:0,0:0:0:0:
357,280,44807,2,0,B|304:273|304:273|300:270|300:270|242:262,1,105,2|0,0:0|0:0,0:0:0:0:
224,224,45396,2,0,L|152:234,1,70,8|8,0:0|0:3,0:0:0:0:
65,193,45984,2,0,P|54:155|60:119,1,70,0|2,0:0|0:0,0:0:0:0:
117,47,46572,1,8,0:0:0:0:
249,191,47160,6,0,P|307:193|357:169,1,105,8|8,0:3|0:3,0:0:0:0:
375,133,47749,2,0,L|360:57,1,70,8|8,0:3|0:3,0:0:0:0:
275,18,48337,1,0,0:0:0:0:
140,160,48925,1,8,0:3:0:0:
287,289,49513,6,0,B|318:309|318:309|400:298,1,105,8|8,0:3|0:3,0:0:0:0:
434,293,50101,2,0,L|445:215,1,70,8|8,0:3|0:3,0:0:0:0:
358,174,50690,2,0,L|347:96,1,70,0|8,0:0|0:3,0:0:0:0:
407,26,51278,1,8,0:3:0:0:
309,13,51572,1,2,0:3:0:0:
247,89,51866,6,0,P|195:102|142:74,1,105,8|8,0:3|0:3,0:0:0:0:
131,36,52454,2,0,P|75:44|56:58,1,70,8|8,0:3|0:3,0:0:0:0:
29,134,53043,2,0,L|48:231,1,70,0|8,0:0|0:3,0:0:0:0:
115,257,53631,1,8,0:3:0:0:
281,182,54219,6,0,B|306:167|333:172|333:172|353:200|393:207,1,105,8|8,0:3|0:3,0:0:0:0:
416,188,54807,2,0,L|424:112,1,70,8|8,0:3|0:3,0:0:0:0:
47,301,56572,6,0,B|68:322|68:322|125:332|125:332|153:320,1,115.50000352478,6|0,0:0|0:0,0:0:0:0:
191,293,57160,2,0,L|276:279,1,77.0000023498536,8|2,0:0|0:3,0:0:0:0:
322,196,57749,2,0,L|232:183,1,77.0000023498536,2|2,0:3|0:0,0:0:0:0:
191,101,58337,1,8,0:0:0:0:
386,56,58925,1,2,0:0:0:0:
461,121,59219,1,2,0:3:0:0:
367,156,59513,2,0,B|356:196|356:196|365:238,1,77.0000023498536,8|8,0:0|0:3,0:0:0:0:
391,326,60101,2,0,L|253:309,1,115.50000352478
240,276,60690,2,0,L|162:290,1,77.0000023498536,8|8,0:0|0:3,0:0:0:0:
73,331,61278,6,0,B|61:304|61:304|68:265|68:265|65:256|65:256|71:249|71:249|78:206,1,115.50000352478,6|0,0:0|0:0,0:0:0:0:
86,172,61866,2,0,L|170:162,1,77.0000023498536,8|2,0:0|0:3,0:0:0:0:
210,74,62454,2,0,L|294:84,1,77.0000023498536,2|2,0:3|0:0,0:0:0:0:
369,138,63043,1,8,0:0:0:0:
216,267,63631,1,2,0:0:0:0:
139,331,63925,1,2,0:3:0:0:
47,291,64219,2,0,B|44:247|44:247|63:208,1,77.0000023498536,8|8,0:0|0:3,0:0:0:0:
143,164,64807,2,0,B|157:134|157:134|154:90,2,77.0000023498536,2|2|8,0:3|0:0|0:0,0:0:0:0:
249,333,65984,6,0,B|272:341|272:341|300:342|300:342|307:346|307:346|315:344|315:344|341:353|341:353|372:352,1,115.50000352478,6|0,0:0|0:0,0:0:0:0:
409,360,66572,2,0,L|398:276,1,77.0000023498536,8|2,0:0|0:3,0:0:0:0:
307,242,67160,2,0,L|318:158,1,77.0000023498536,2|2,0:3|0:0,0:0:0:0:
364,77,67749,1,8,0:0:0:0:
167,40,68337,1,2,0:0:0:0:
185,138,68631,1,2,0:3:0:0:
97,187,68925,2,0,P|93:229|108:270,1,77.0000023498536,8|8,0:0|0:3,0:0:0:0:
180,324,69513,2,0,L|318:307,1,115.50000352478,2|2,0:3|0:3,0:0:0:0:
331,274,70102,2,0,L|409:288,1,77.0000023498536,8|8,0:0|0:3,0:0:0:0:
489,232,70690,6,0,B|509:194|509:194|499:156|499:156|496:154|496:154|481:107,1,115.50000352478,6|0,0:0|0:0,0:0:0:0:
465,80,71278,2,0,L|387:64,2,77.0000023498536,8|2|2,0:0|0:3|0:3,0:0:0:0:
374,258,72454,2,0,L|287:269,1,77.0000023498536,8|2,0:0|0:3,0:0:0:0:
225,197,73043,2,0,B|176:185|176:185|96:197,1,115.50000352478,2|0,0:0|0:0,0:0:0:0:
83,235,73631,2,0,P|79:277|91:313,1,77.0000023498536,8|8,0:0|0:3,0:0:0:0:
171,366,74219,2,0,L|249:356,1,77.0000023498536,2|2,0:3|0:0,0:0:0:0:
305,274,74807,2,0,L|383:284,1,77.0000023498536,8|8,0:0|0:3,0:0:0:0:
454,337,75396,5,0,0:0:0:0:
