osu file format v14

[General]
AudioFilename: audio.mp3
AudioLeadIn: 0
PreviewTime: 55396
Countdown: 0
SampleSet: Soft
StackLeniency: 0.5
Mode: 0
LetterboxInBreaks: 0
EpilepsyWarning: 1
WidescreenStoryboard: 1

[Editor]
Bookmarks: 9453,28277,47100,70630,89453,108277
DistanceSpacing: 0.4
BeatDivisor: 4
GridSize: 4
TimelineZoom: 1

[Metadata]
Title:Clear feat. Mothica (Shawn Wasabi Remix) (Cut Ver.)
TitleUnicode:Clear feat. Mothica (Shawn Wasabi Remix) (Cut Ver.)
Artist:Pusher
ArtistUnicode:Pusher
Creator:Plaudible
Version:Insane
Source:
Tags:dance english electronic browiec sylas lokidoki mimari thekoala
BeatmapID:2977097
BeatmapSetID:1437681

[Difficulty]
HPDrainRate:5
CircleSize:3.8
OverallDifficulty:8
ApproachRate:9
SliderMultiplier:2.5
SliderTickRate:1

[Events]
//Background and Video events
0,0,"bg.jpg",0,0
//Break Periods
//Storyboard Layer 0 (Background)
//Storyboard Layer 1 (Fail)
//Storyboard Layer 2 (Pass)
//Storyboard Layer 3 (Foreground)
Sprite,Foreground,Centre,"sb\c.png",251,285 F,2,57160,57433,0.75,0 S,19,57185,57485,0,0.5
Sprite,Foreground,Centre,"sb\arrow.png",0,0 R,0,56960,,0.2 M,19,57060,57360,-249,205,151,265 S,0,57160,,0.5 C,0,57160,,252,62,146 F,2,57160,57433,0.9,0
Sprite,Foreground,Centre,"sb\c.png",334,142 F,2,57454,57727,0.75,0 S,19,57479,57779,0,0.5
Sprite,Foreground,Centre,"sb\arrow.png",0,0 R,0,57254,,1.7703 M,19,57354,57654,414,-358,354,42 S,0,57454,,0.5 C,0,57454,,160,236,227 F,2,57454,57727,0.9,0
Sprite,Foreground,Centre,"sb\c.png",396,345 F,2,57749,58022,0.75,0 S,19,57774,58074,0,0.5
Sprite,Foreground,Centre,"sb\arrow.png",0,0 R,0,57549,,3.3406 M,19,57649,57949,896,425,496,365 S,0,57749,,0.5 C,0,57749,,252,62,146 F,2,57749,58022,0.9,0
Sprite,Foreground,Centre,"sb\c.png",477,118 F,2,58043,58316,0.75,0 S,19,58068,58368,0,0.5
Sprite,Foreground,Centre,"sb\arrow.png",0,0 R,0,57843,,4.9109 M,19,57943,58243,397,618,459,218 S,0,58043,,0.5 C,0,58043,,160,236,227 F,2,58043,58316,0.9,0
Sprite,Foreground,Centre,"sb\c.png",575,308 F,2,58337,58978,0.75,0 S,19,58362,58662,0,0.5
Sprite,Foreground,Centre,"sb\arrow.png",0,0 R,0,58137,,6.4812 M,19,58237,58537,75,228,475,288 S,0,58337,,0.5 C,0,58337,,252,62,146 F,2,58337,58978,0.9,0
Sprite,Foreground,Centre,"sb\c.png",486,376 F,2,58925,59198,0.75,0 S,19,58950,59250,0,0.5
Sprite,Foreground,Centre,"sb\arrow.png",0,0 R,0,58725,,8.0515 M,19,58825,59125,566,-124,506,276 S,0,58925,,0.5 C,0,58925,,160,236,227 F,2,58925,59198,0.9,0
Sprite,Foreground,Centre,"sb\c.png",370,235 F,2,59219,59492,0.75,0 S,19,59244,59544,0,0.5
Sprite,Foreground,Centre,"sb\arrow.png",0,0 R,0,59019,,9.6218 M,19,59119,59419,870,315,470,255 S,0,59219,,0.5 C,0,59219,,252,62,146 F,2,59219,59492,0.9,0
Sprite,Foreground,Centre,"sb\c.png",347,360 F,2,59513,59786,0.75,0 S,19,59538,59838,0,0.5
Sprite,Foreground,Centre,"sb\arrow.png",0,0 R,0,59313,,11.1921 M,19,59413,59713,267,860,329,460 S,0,59513,,0.5 C,0,59513,,160,236,227 F,2,59513,59786,0.9,0
Sprite,Foreground,Centre,"sb\c.png",141,269 F,2,59807,60154,0.75,0 S,19,59832,60132,0,0.5
Sprite,Foreground,Centre,"sb\arrow.png",0,0 R,0,59607,,12.7624 M,19,59707,60007,-359,189,41,249 S,0,59807,,0.5 C,0,59807,,252,62,146 F,2,59807,60154,0.9,0
Sprite,Foreground,Centre,"sb\c.png",202,137 F,2,60101,60448,0.75,0 S,19,60126,60426,0,0.5
Sprite,Foreground,Centre,"sb\arrow.png",0,0 R,0,59901,,14.3327 M,19,60001,60301,282,-363,222,37 S,0,60101,,0.5 C,0,60101,,160,236,227 F,2,60101,60448,0.9,0
Sprite,Foreground,Centre,"sb\c.png",232,253 F,2,60396,60743,0.75,0 S,19,60421,60721,0,0.5
Sprite,Foreground,Centre,"sb\arrow.png",0,0 R,0,60196,,15.903 M,19,60296,60596,732,333,332,273 S,0,60396,,0.5 C,0,60396,,252,62,146 F,2,60396,60743,0.9,0
Sprite,Foreground,Centre,"sb\c.png",113,256 F,2,60689,61036,0.75,0 S,19,60714,61014,0,0.5
Sprite,Foreground,Centre,"sb\arrow.png",0,0 R,0,60489,,17.4733 M,19,60589,60889,33,756,95,356 S,0,60689,,0.5 C,0,60689,,160,236,227 F,2,60689,61036,0.9,0
Sprite,Foreground,Centre,"sb\c.png",323,203 F,2,60983,61330,0.75,0 S,19,61008,61308,0,0.5
Sprite,Foreground,Centre,"sb\arrow.png",0,0 R,0,60783,,19.0436 M,19,60883,61183,-177,123,223,183 S,0,60983,,0.5 C,0,60983,,252,62,146 F,2,60983,61330,0.9,0
Sprite,Foreground,Centre,"sb\c.png",219,392 F,2,61278,61919,0.75,0 S,19,61303,61603,0,0.5
Sprite,Foreground,Centre,"sb\arrow.png",0,0 R,0,61078,,20.6139 M,19,61178,61478,299,-108,239,292 S,0,61278,,0.5 C,0,61278,,160,236,227 F,2,61278,61919,0.9,0
Sprite,Foreground,Centre,"sb\c.png",475,370 F,2,61866,62150,0.75,0 S,19,61891,62191,0,0.5
Sprite,Foreground,Centre,"sb\arrow.png",0,0 R,0,61666,,22.1842 M,19,61766,62066,975,450,575,390 S,0,61866,,0.5 C,0,61866,,252,62,146 F,2,61866,62150,0.9,0
Sprite,Foreground,Centre,"sb\c.png",290,302 F,2,62160,62433,0.75,0 S,19,62185,62485,0,0.5
Sprite,Foreground,Centre,"sb\arrow.png",0,0 R,0,61960,,23.7545 M,19,62060,62360,210,802,272,402 S,0,62160,,0.5 C,0,62160,,160,236,227 F,2,62160,62433,0.9,0
Sprite,Foreground,Centre,"sb\c.png",499,219 F,2,62454,62727,0.75,0 S,19,62479,62779,0,0.5
Sprite,Foreground,Centre,"sb\arrow.png",0,0 R,0,62254,,25.3248 M,19,62354,62654,-1,139,399,199 S,0,62454,,0.5 C,0,62454,,252,62,146 F,2,62454,62727,0.9,0
Sprite,Foreground,Centre,"sb\c.png",266,134 F,2,62749,63022,0.75,0 S,19,62774,63074,0,0.5
Sprite,Foreground,Centre,"sb\arrow.png",0,0 R,0,62549,,26.8951 M,19,62649,62949,346,-366,286,34 S,0,62749,,0.5 C,0,62749,,160,236,227 F,2,62749,63022,0.9,0
Sprite,Foreground,Centre,"sb\c.png",545,110 F,2,63043,63684,0.75,0 S,19,63068,63368,0,0.5
Sprite,Foreground,Centre,"sb\arrow.png",0,0 R,0,62843,,28.4654 M,19,62943,63243,1045,190,645,130 S,0,63043,,0.5 C,0,63043,,252,62,146 F,2,63043,63684,0.9,0
Sprite,Foreground,Centre,"sb\c.png",431,129 F,2,63631,63904,0.75,0 S,19,63656,63956,0,0.5
Sprite,Foreground,Centre,"sb\arrow.png",0,0 R,0,63431,,30.0357 M,19,63531,63831,351,629,413,229 S,0,63631,,0.5 C,0,63631,,160,236,227 F,2,63631,63904,0.9,0
Sprite,Foreground,Centre,"sb\c.png",332,242 F,2,63925,64198,0.75,0 S,19,63950,64250,0,0.5
Sprite,Foreground,Centre,"sb\arrow.png",0,0 R,0,63725,,31.606 M,19,63825,64125,-168,162,232,222 S,0,63925,,0.5 C,0,63925,,252,62,146 F,2,63925,64198,0.9,0
Sprite,Foreground,Centre,"sb\c.png",257,93 F,2,64219,64492,0.75,0 S,19,64244,64544,0,0.5
Sprite,Foreground,Centre,"sb\arrow.png",0,0 R,0,64019,,33.1763 M,19,64119,64419,337,-407,277,-7 S,0,64219,,0.5 C,0,64219,,160,236,227 F,2,64219,64492,0.9,0
Sprite,Foreground,Centre,"sb\c.png",158,287 F,2,64513,64860,0.75,0 S,19,64538,64838,0,0.5
Sprite,Foreground,Centre,"sb\arrow.png",0,0 R,0,64313,,34.7466 M,19,64413,64713,658,367,258,307 S,0,64513,,0.5 C,0,64513,,252,62,146 F,2,64513,64860,0.9,0
Sprite,Foreground,Centre,"sb\c.png",336,363 F,2,64807,65007,0.75,0 S,19,64832,65132,0,0.5
Sprite,Foreground,Centre,"sb\arrow.png",0,0 R,0,64607,,36.3169 M,19,64707,65007,256,863,318,463 S,0,64807,,0.5 C,0,64807,,160,236,227 F,2,64807,65007,0.9,0
Sprite,Foreground,Centre,"sb\c.png",227,394 F,2,64954,65154,0.75,0 S,19,64979,65279,0,0.5
Sprite,Foreground,Centre,"sb\arrow.png",0,0 R,0,64754,,37.8872 M,19,64854,65154,-273,314,127,374 S,0,64954,,0.5 C,0,64954,,252,62,146 F,2,64954,65154,0.9,0
Sprite,Foreground,Centre,"sb\c.png",332,242 F,2,65101,65448,0.75,0 S,19,65126,65426,0,0.5
Sprite,Foreground,Centre,"sb\arrow.png",0,0 R,0,64901,,39.4575 M,19,65001,65301,412,-258,352,142 S,0,65101,,0.5 C,0,65101,,160,236,227 F,2,65101,65448,0.9,0
Sprite,Foreground,Centre,"sb\c.png",257,153 F,2,65396,65743,0.75,0 S,19,65421,65721,0,0.5
Sprite,Foreground,Centre,"sb\arrow.png",0,0 R,0,65196,,41.0278 M,19,65296,65596,757,233,357,173 S,0,65396,,0.5 C,0,65396,,252,62,146 F,2,65396,65743,0.9,0
Sprite,Foreground,Centre,"sb\c.png",412,300 F,2,65690,66037,0.75,0 S,19,65715,66015,0,0.5
Sprite,Foreground,Centre,"sb\arrow.png",0,0 R,0,65490,,42.5981 M,19,65590,65890,332,800,394,400 S,0,65690,,0.5 C,0,65690,,160,236,227 F,2,65690,66037,0.9,0
Sprite,Foreground,Centre,"sb\c.png",243,300 F,2,65984,66625,0.75,0 S,19,66009,66309,0,0.5
Sprite,Foreground,Centre,"sb\arrow.png",0,0 R,0,65784,,44.1684 M,19,65884,66184,-257,220,143,280 S,0,65984,,0.5 C,0,65984,,252,62,146 F,2,65984,66625,0.9,0
Sprite,Foreground,Centre,"sb\c.png",234,191 F,2,66572,66845,0.75,0 S,19,66597,66897,0,0.5
Sprite,Foreground,Centre,"sb\arrow.png",0,0 R,0,66372,,45.7387 M,19,66472,66772,314,-309,254,91 S,0,66572,,0.5 C,0,66572,,160,236,227 F,2,66572,66845,0.9,0
Sprite,Foreground,Centre,"sb\c.png",332,241 F,2,66865,67138,0.75,0 S,19,66890,67190,0,0.5
Sprite,Foreground,Centre,"sb\arrow.png",0,0 R,0,66665,,47.309 M,19,66765,67065,832,321,432,261 S,0,66865,,0.5 C,0,66865,,252,62,146 F,2,66865,67138,0.9,0
Sprite,Foreground,Centre,"sb\c.png",277,340 F,2,67160,67433,0.75,0 S,19,67185,67485,0,0.5
Sprite,Foreground,Centre,"sb\arrow.png",0,0 R,0,66960,,48.8793 M,19,67060,67360,197,840,259,440 S,0,67160,,0.5 C,0,67160,,160,236,227 F,2,67160,67433,0.9,0
Sprite,Foreground,Centre,"sb\c.png",170,280 F,2,67454,67727,0.75,0 S,19,67479,67779,0,0.5
Sprite,Foreground,Centre,"sb\arrow.png",0,0 R,0,67254,,50.4496 M,19,67354,67654,-330,200,70,260 S,0,67454,,0.5 C,0,67454,,252,62,146 F,2,67454,67727,0.9,0
Sprite,Foreground,Centre,"sb\c.png",302,418 F,2,67749,68390,0.75,0 S,19,67774,68074,0,0.5
Sprite,Foreground,Centre,"sb\arrow.png",0,0 R,0,67549,,52.0199 M,19,67649,67949,382,-82,322,318 S,0,67749,,0.5 C,0,67749,,160,236,227 F,2,67749,68390,0.9,0
Sprite,Foreground,Centre,"sb\c.png",156,369 F,2,68337,68610,0.75,0 S,19,68362,68662,0,0.5
Sprite,Foreground,Centre,"sb\arrow.png",0,0 R,0,68137,,53.5902 M,19,68237,68537,656,449,256,389 S,0,68337,,0.5 C,0,68337,,252,62,146 F,2,68337,68610,0.9,0
Sprite,Foreground,Centre,"sb\c.png",285,280 F,2,68631,68904,0.75,0 S,19,68656,68956,0,0.5
Sprite,Foreground,Centre,"sb\arrow.png",0,0 R,0,68431,,55.1605 M,19,68531,68831,205,780,267,380 S,0,68631,,0.5 C,0,68631,,160,236,227 F,2,68631,68904,0.9,0
Sprite,Foreground,Centre,"sb\c.png",115,248 F,2,68925,69198,0.75,0 S,19,68950,69250,0,0.5
Sprite,Foreground,Centre,"sb\arrow.png",0,0 R,0,68725,,56.7308 M,19,68825,69125,-385,168,15,228 S,0,68925,,0.5 C,0,68925,,252,62,146 F,2,68925,69198,0.9,0
Sprite,Foreground,Centre,"sb\c.png",339,104 F,2,69219,69566,0.75,0 S,19,69244,69544,0,0.5
Sprite,Foreground,Centre,"sb\arrow.png",0,0 R,0,69019,,58.3011 M,19,69119,69419,419,-396,359,4 S,0,69219,,0.5 C,0,69219,,160,236,227 F,2,69219,69566,0.9,0
Sprite,Foreground,Centre,"sb\c.png",285,280 F,2,69513,69713,0.75,0 S,19,69538,69838,0,0.5
Sprite,Foreground,Centre,"sb\arrow.png",0,0 R,0,69313,,59.8714 M,19,69413,69713,785,360,385,300 S,0,69513,,0.5 C,0,69513,,252,62,146 F,2,69513,69713,0.9,0
Sprite,Foreground,Centre,"sb\c.png",240,163 F,2,69660,69860,0.75,0 S,19,69685,69985,0,0.5
Sprite,Foreground,Centre,"sb\arrow.png",0,0 R,0,69460,,61.4417 M,19,69560,69860,160,663,222,263 S,0,69660,,0.5 C,0,69660,,160,236,227 F,2,69660,69860,0.9,0
Sprite,Foreground,Centre,"sb\c.png",383,269 F,2,69807,70154,0.75,0 S,19,69832,70132,0,0.5
Sprite,Foreground,Centre,"sb\arrow.png",0,0 R,0,69607,,63.012 M,19,69707,70007,-117,189,283,249 S,0,69807,,0.5 C,0,69807,,252,62,146 F,2,69807,70154,0.9,0
Sprite,Foreground,Centre,"sb\c.png",508,271 F,2,70101,70448,0.75,0 S,19,70126,70426,0,0.5
Sprite,Foreground,Centre,"sb\arrow.png",0,0 R,0,69901,,64.5823 M,19,70001,70301,588,-229,528,171 S,0,70101,,0.5 C,0,70101,,160,236,227 F,2,70101,70448,0.9,0
Sprite,Foreground,Centre,"sb\c.png",314,360 F,2,70395,70742,0.75,0 S,19,70420,70720,0,0.5
Sprite,Foreground,Centre,"sb\arrow.png",0,0 R,0,70195,,66.1526 M,19,70295,70595,814,440,414,380 S,0,70395,,0.5 C,0,70395,,252,62,146 F,2,70395,70742,0.9,0
Sprite,Foreground,Centre,"sb\c.png",441,149 F,2,70690,71331,0.75,0 S,19,70715,71015,0,0.5
Sprite,Foreground,Centre,"sb\arrow.png",0,0 R,0,70490,,67.7229 M,19,70590,70890,361,649,423,249 S,0,70690,,0.5 C,0,70690,,160,236,227 F,2,70690,71331,0.9,0
Sprite,Foreground,Centre,"sb\c.png",413,264 F,2,71277,71550,0.75,0 S,19,71302,71602,0,0.5
Sprite,Foreground,Centre,"sb\arrow.png",0,0 R,0,71077,,69.2932 M,19,71177,71477,-87,184,313,244 S,0,71277,,0.5 C,0,71277,,252,62,146 F,2,71277,71550,0.9,0
Sprite,Foreground,Centre,"sb\c.png",195,325 F,2,71572,71845,0.75,0 S,19,71597,71897,0,0.5
Sprite,Foreground,Centre,"sb\arrow.png",0,0 R,0,71372,,70.8635 M,19,71472,71772,275,-175,215,225 S,0,71572,,0.5 C,0,71572,,160,236,227 F,2,71572,71845,0.9,0
Sprite,Foreground,Centre,"sb\c.png",397,425 F,2,71866,72213,0.75,0 S,19,71891,72191,0,0.5
Sprite,Foreground,Centre,"sb\arrow.png",0,0 R,0,71666,,72.4338 M,19,71766,72066,897,505,497,445 S,0,71866,,0.5 C,0,71866,,252,62,146 F,2,71866,72213,0.9,0
Sprite,Foreground,Centre,"sb\c.png",516,316 F,2,72160,72507,0.75,0 S,19,72185,72485,0,0.5
Sprite,Foreground,Centre,"sb\arrow.png",0,0 R,0,71960,,74.0041 M,19,72060,72360,436,816,498,416 S,0,72160,,0.5 C,0,72160,,160,236,227 F,2,72160,72507,0.9,0
Sprite,Foreground,Centre,"sb\c.png",314,380 F,2,72454,72801,0.75,0 S,19,72479,72779,0,0.5
Sprite,Foreground,Centre,"sb\arrow.png",0,0 R,0,72254,,75.5744 M,19,72354,72654,-186,300,214,360 S,0,72454,,0.5 C,0,72454,,252,62,146 F,2,72454,72801,0.9,0
Sprite,Foreground,Centre,"sb\c.png",178,286 F,2,72748,73095,0.75,0 S,19,72773,73073,0,0.5
Sprite,Foreground,Centre,"sb\arrow.png",0,0 R,0,72548,,77.1447 M,19,72648,72948,258,-214,198,186 S,0,72748,,0.5 C,0,72748,,160,236,227 F,2,72748,73095,0.9,0
Sprite,Foreground,Centre,"sb\c.png",454,265 F,2,73043,73684,0.75,0 S,19,73068,73368,0,0.5
Sprite,Foreground,Centre,"sb\arrow.png",0,0 R,0,72843,,78.715 M,19,72943,73243,954,345,554,285 S,0,73043,,0.5 C,0,73043,,252,62,146 F,2,73043,73684,0.9,0
Sprite,Foreground,Centre,"sb\c.png",545,341 F,2,73631,73978,0.75,0 S,19,73656,73956,0,0.5
Sprite,Foreground,Centre,"sb\arrow.png",0,0 R,0,73431,,80.2853 M,19,73531,73831,465,841,527,441 S,0,73631,,0.5 C,0,73631,,160,236,227 F,2,73631,73978,0.9,0
Sprite,Foreground,Centre,"sb\c.png",427,111 F,2,73925,74125,0.75,0 S,19,73950,74250,0,0.5
Sprite,Foreground,Centre,"sb\arrow.png",0,0 R,0,73725,,81.8556 M,19,73825,74125,-73,31,327,91 S,0,73925,,0.5 C,0,73925,,252,62,146 F,2,73925,74125,0.9,0
Sprite,Foreground,Centre,"sb\c.png",470,213 F,2,74072,74272,0.75,0 S,19,74097,74397,0,0.5
Sprite,Foreground,Centre,"sb\arrow.png",0,0 R,0,73872,,83.4259 M,19,73972,74272,550,-287,490,113 S,0,74072,,0.5 C,0,74072,,160,236,227 F,2,74072,74272,0.9,0
Sprite,Foreground,Centre,"sb\c.png",539,95 F,2,74219,74566,0.75,0 S,19,74244,74544,0,0.5
Sprite,Foreground,Centre,"sb\arrow.png",0,0 R,0,74019,,84.9962 M,19,74119,74419,1039,175,639,115 S,0,74219,,0.5 C,0,74219,,252,62,146 F,2,74219,74566,0.9,0
Sprite,Foreground,Centre,"sb\c.png",266,216 F,2,74513,74860,0.75,0 S,19,74538,74838,0,0.5
Sprite,Foreground,Centre,"sb\arrow.png",0,0 R,0,74313,,86.5665 M,19,74413,74713,186,716,248,316 S,0,74513,,0.5 C,0,74513,,160,236,227 F,2,74513,74860,0.9,0
Sprite,Foreground,Centre,"sb\c.png",530,223 F,2,74807,75154,0.75,0 S,19,74832,75132,0,0.5
Sprite,Foreground,Centre,"sb\arrow.png",0,0 R,0,74607,,88.1368 M,19,74707,75007,30,143,430,203 S,0,74807,,0.5 C,0,74807,,252,62,146 F,2,74807,75154,0.9,0
Sprite,Foreground,Centre,"sb\c.png",369,298 F,2,75101,75448,0.75,0 S,19,75126,75426,0,0.5
Sprite,Foreground,Centre,"sb\arrow.png",0,0 R,0,74901,,89.7071 M,19,75001,75301,449,-202,389,198 S,0,75101,,0.5 C,0,75101,,160,236,227 F,2,75101,75448,0.9,0
//Storyboard Layer 4 (Overlay)
//Storyboard Sound Samples

[TimingPoints]
102,588.235294117647,4,2,10,60,1,0
9513,-200,4,2,9,60,0,0
28337,-66.6666666666667,4,2,10,90,0,0
28631,-100,4,2,10,90,0,0
29219,-100,4,2,9,90,0,0
29807,-100,4,2,10,90,0,0
30396,-100,4,2,9,90,0,0
30690,-66.6666666666667,4,2,10,90,0,0
30984,-100,4,2,9,90,0,0
31278,-100,4,2,10,90,0,0
32160,-66.6666666666667,4,2,10,90,0,0
32307,-100,4,2,10,90,0,0
32896,-100,4,2,11,90,0,0
33043,-66.6666666666667,4,2,10,90,0,0
33337,-100,4,2,10,90,0,0
33925,-100,4,2,9,90,0,0
34513,-100,4,2,10,90,0,0
35102,-100,4,2,9,90,0,0
35396,-66.6666666666667,4,2,10,90,0,0
35690,-100,4,2,9,90,0,0
35984,-100,4,2,10,90,0,0
36866,-66.6666666666667,4,2,10,90,0,0
37013,-100,4,2,10,90,0,0
37602,-100,4,2,11,90,0,0
37749,-66.6666666666667,4,2,10,90,0,0
38043,-100,4,2,10,90,0,0
38631,-100,4,2,9,90,0,0
39219,-100,4,2,10,90,0,0
39808,-100,4,2,9,90,0,0
40102,-66.6666666666667,4,2,10,90,0,0
40396,-100,4,2,9,90,0,0
40690,-100,4,2,10,90,0,0
41572,-66.6666666666667,4,2,10,90,0,0
41719,-100,4,2,10,90,0,0
42308,-100,4,2,11,90,0,0
42455,-66.6666666666667,4,2,10,90,0,0
42749,-100,4,2,10,90,0,0
43336,-100,4,2,9,90,0,0
43925,-66.6666666666667,4,2,10,90,0,0
44219,-100,4,2,10,90,0,0
44513,-100,4,2,9,90,0,0
44807,-66.6666666666667,4,2,10,90,0,0
45101,-100,4,2,9,90,0,0
45395,-100,4,2,10,90,0,0
46278,-66.6666666666667,4,2,10,90,0,0
46572,-100,4,2,10,90,0,0
47013,-100,4,2,11,90,0,0
47160,-100,4,2,10,75,0,0
47454,-133.333333333333,4,2,10,75,0,0
49512,-100,4,2,10,75,0,0
49807,-133.333333333333,4,2,10,75,0,0
51131,-133.333333333333,4,2,9,75,0,0
51278,-133.333333333333,4,2,10,75,0,0
51425,-133.333333333333,4,2,9,75,0,0
51865,-100,4,2,10,75,0,0
52160,-133.333333333333,4,2,10,75,0,0
54218,-80,4,2,10,75,0,0
54807,-100,4,2,10,75,0,0
55396,-100,4,2,10,25,0,0
56572,-66.6666666666667,4,2,10,100,0,1
57161,-66.6666666666667,4,2,10,100,0,1
57234,-66.6666666666667,4,2,10,5,0,1
57454,-50,4,2,9,100,0,1
57528,-50,4,2,9,5,0,1
57749,-40,4,2,9,100,0,1
57822,-40,4,2,9,5,0,1
58043,-33.3333333333333,4,2,10,100,0,1
58116,-33.3333333333333,4,2,10,5,0,1
58337,-50,4,2,10,100,0,1
58410,-50,4,2,10,5,0,1
58483,-50,4,2,10,100,0,1
58631,-50,4,2,9,100,0,1
58925,-66.6666666666667,4,2,10,100,0,1
58998,-66.6666666666667,4,2,10,5,0,1
59219,-50,4,2,9,100,0,1
59292,-50,4,2,9,5,0,1
59513,-40,4,2,10,100,0,1
59586,-40,4,2,10,5,0,1
59807,-33.3333333333333,4,2,10,100,0,1
59881,-33.3333333333333,4,2,10,5,0,1
59955,-50,4,2,10,100,0,1
60445,-50,4,2,10,50,0,1
60592,-50,4,2,10,100,0,1
61131,-50,4,2,11,100,0,1
61278,-66.6666666666667,4,2,10,100,0,1
61867,-66.6666666666667,4,2,10,100,0,1
61940,-66.6666666666667,4,2,10,5,0,1
62160,-50,4,2,9,100,0,1
62234,-50,4,2,9,100,0,1
62258,-50,4,2,9,5,0,1
62454,-40,4,2,9,100,0,1
62528,-40,4,2,9,5,0,1
62749,-33.3333333333333,4,2,10,100,0,1
62822,-33.3333333333333,4,2,10,5,0,1
63043,-50,4,2,10,100,0,1
63337,-50,4,2,9,100,0,1
63631,-66.6666666666667,4,2,10,100,0,1
63704,-66.6666666666667,4,2,10,5,0,1
63925,-50,4,2,9,100,0,1
63998,-50,4,2,9,5,0,1
64219,-40,4,2,10,100,0,1
64292,-40,4,2,10,5,0,1
64513,-33.3333333333333,4,2,10,100,0,1
64587,-33.3333333333333,4,2,10,5,0,1
64661,-50,4,2,10,100,0,1
64807,-50,4,2,9,100,0,1
64954,-50,4,2,10,100,0,1
65151,-50,4,2,10,50,0,1
65249,-50,4,2,9,100,0,1
65396,-50,4,2,10,100,0,1
65837,-50,4,2,11,100,0,1
65984,-66.6666666666667,4,2,10,100,0,1
66572,-66.6666666666667,4,2,10,100,0,1
66646,-66.6666666666667,4,2,10,5,0,1
66866,-50,4,2,9,100,0,1
66940,-50,4,2,9,5,0,1
67160,-40,4,2,9,100,0,1
67234,-40,4,2,9,5,0,1
67454,-33.3333333333333,4,2,10,100,0,1
67528,-33.3333333333333,4,2,10,5,0,1
67749,-50,4,2,10,100,0,1
68043,-50,4,2,9,100,0,1
68337,-66.6666666666667,4,2,10,100,0,1
68410,-66.6666666666667,4,2,10,5,0,1
68631,-50,4,2,9,100,0,1
68704,-50,4,2,9,5,0,1
68925,-40,4,2,10,100,0,1
68998,-40,4,2,10,5,0,1
69219,-33.3333333333333,4,2,10,100,0,1
69292,-33.3333333333333,4,2,10,5,0,1
69367,-50,4,2,10,100,0,1
69513,-50,4,2,9,100,0,1
69660,-50,4,2,10,100,0,1
69856,-50,4,2,10,50,0,1
69954,-50,4,2,9,100,0,1
70101,-50,4,2,10,100,0,1
70543,-50,4,2,11,100,0,1
70690,-66.6666666666667,4,2,10,100,0,1
71279,-66.6666666666667,4,2,10,100,0,1
71352,-66.6666666666667,4,2,10,5,0,1
71572,-50,4,2,9,100,0,1
71646,-50,4,2,9,5,0,1
71866,-40,4,2,9,100,0,1
71940,-40,4,2,9,5,0,1
72013,-50,4,2,9,100,0,1
72160,-50,4,2,10,100,0,1
72455,-50,4,2,10,100,0,1
72503,-50,4,2,10,50,0,1
72650,-50,4,2,10,100,0,1
72749,-50,4,2,9,100,0,1
73043,-66.6666666666667,4,2,10,100,0,1
73337,-50,4,2,9,100,0,1
73631,-50,4,2,10,100,0,1
74219,-50,4,2,9,100,0,1
74366,-50,4,2,10,100,0,1
74660,-50,4,2,9,100,0,1
74807,-100,4,2,10,100,0,1
75249,-100,4,2,11,100,0,1
75396,-80,4,2,10,50,0,0

[Colours]
Combo1 : 255,151,151
Combo2 : 255,159,207
Combo3 : 136,255,255
Combo4 : 106,181,255

[HitObjects]
90,258,9513,5,2,0:3:0:0:
207,110,9807,2,0,L|199:153,1,31.25,0|2,0:0|0:3,0:0:0:0:
149,195,10101,2,0,P|196:189|240:211,1,93.75
261,288,10690,2,0,P|280:279|315:275,2,46.875,2|0|0,0:3|0:0|0:0,0:0:0:0:
165,362,11278,2,0,L|183:254,1,93.75
183,188,11866,6,0,P|150:193|121:212,1,62.5,2|0,0:3|0:0,0:0:0:0:
92,132,12307,1,2,0:3:0:0:
92,132,12454,2,0,L|27:120,1,62.5,0|2,0:0|0:3,0:0:0:0:
138,61,12896,1,0,0:0:0:0:
138,61,13043,2,0,P|171:99|175:118,1,62.5,2|0,0:3|0:0,0:0:0:0:
154,188,13484,1,2,0:3:0:0:
235,165,13631,1,0,0:0:0:0:
214,247,13778,1,0,0:0:0:0:
92,132,13925,1,2,0:3:0:0:
214,247,14219,5,2,0:3:0:0:
103,368,14513,2,0,L|95:324,1,31.25,0|2,0:0|0:3,0:0:0:0:
40,286,14807,2,0,P|87:290|128:268,1,93.75
155,189,15396,2,0,L|143:135,2,46.875,2|0|0,0:3|0:0|0:0,0:0:0:0:
207,314,15984,2,0,P|218:283|216:248,1,62.5,0|2,0:0|0:3,0:0:0:0:
248,103,16425,1,0,0:0:0:0:
248,103,16572,6,0,L|324:116,1,62.5,2|0,0:3|0:0,0:0:0:0:
269,252,17013,1,2,0:3:0:0:
269,252,17160,2,0,P|257:221|259:186,1,62.5,0|2,0:0|0:3,0:0:0:0:
393,167,17601,1,0,0:0:0:0:
393,167,17749,2,0,P|404:197|402:232,1,62.5,2|0,0:3|0:0,0:0:0:0:
357,356,18190,1,2,0:3:0:0:
357,356,18337,2,0,L|343:279,1,62.5,0|2,0:0|0:3,0:0:0:0:
316,120,18925,5,2,0:3:0:0:
73,171,19219,2,0,P|65:190|63:204,1,31.25,0|2,0:0|0:3,0:0:0:0:
179,205,19513,2,0,P|185:224|193:237,1,31.25
261,175,19807,2,0,P|276:188|289:195,1,31.25,2|0,0:3|0:0,0:0:0:0:
316,120,20101,2,0,L|326:58,1,62.5,2|0,0:3|0:0,0:0:0:0:
419,30,20543,1,2,0:3:0:0:
419,30,20690,2,0,P|419:66|408:91,1,62.5,0|2,0:0|0:3,0:0:0:0:
244,69,21132,1,0,0:0:0:0:
244,69,21278,6,0,P|244:33|255:8,1,62.5,2|0,0:3|0:0,0:0:0:0:
329,50,21720,1,2,0:3:0:0:
329,50,21866,2,0,L|319:112,1,62.5,0|2,0:0|0:3,0:0:0:0:
326,215,22307,1,0,0:0:0:0:
326,215,22454,2,0,B|298:199|298:199|261:201,1,62.5,2|0,0:3|0:0,0:0:0:0:
202,255,22896,1,2,0:3:0:0:
281,284,23043,1,0,0:0:0:0:
267,201,23190,1,0,0:0:0:0:
216,337,23337,1,2,0:3:0:0:
267,201,23631,5,2,0:3:0:0:
35,130,23925,2,0,P|37:145|43:159,1,31.25,0|2,0:0|0:3,0:0:0:0:
164,79,24219,2,0,P|153:90|146:104,1,31.25
261,121,24513,2,0,P|245:123|230:128,1,31.25,2|0,0:3|0:0,0:0:0:0:
267,201,24807,2,0,L|281:284,1,62.5,2|0,0:3|0:0,0:0:0:0:
294,355,25249,1,2,0:3:0:0:
294,355,25396,2,0,P|325:344|350:320,1,62.5,0|2,0:0|0:3,0:0:0:0:
414,374,25837,1,0,0:0:0:0:
414,374,25984,6,0,L|497:359,1,62.5,2|0,0:3|0:0,0:0:0:0:
349,316,26426,1,2,0:3:0:0:
349,316,26572,2,0,L|265:301,1,62.5,0|2,0:0|0:3,0:0:0:0:
210,258,27014,1,0,0:0:0:0:
210,258,27160,2,0,P|194:288|194:318,1,62.5,2|0,0:3|0:0,0:0:0:0:
291,345,27601,1,2,0:3:0:0:
416,217,27896,1,2,0:3:0:0:
416,217,28043,2,0,L|374:211,1,31.25,2|0,0:3|0:0,0:0:0:0:
288,349,28337,6,0,B|255:278|301:215|301:215|301:240|317:263,1,187.500007152558,6|0,0:0|0:0,0:0:0:0:
201,333,28778,1,0,0:0:0:0:
201,333,28852,1,0,0:0:0:0:
201,333,28925,2,0,P|196:274|220:218,1,62.5,8|0,0:0|0:0,0:0:0:0:
44,352,29220,2,0,P|97:377|133:425,1,62.5,2|0,0:3|0:0,0:0:0:0:
102,214,29514,2,0,P|53:247|-6:254,1,62.5
96,71,29807,1,2,0:0:0:0:
188,140,29954,1,0,0:0:0:0:
243,7,30102,2,0,L|175:18,1,62.5,8|0,0:0|0:0,0:0:0:0:
277,196,30396,2,0,P|315:168|330:138,1,62.5,2|0,0:3|0:0,0:0:0:0:
96,71,30690,6,0,B|64:98|71:143|71:143|92:260,1,187.500007152558,2|2,0:0|0:3,0:0:0:0:
181,283,31131,1,0,0:0:0:0:
181,283,31204,1,0,0:0:0:0:
181,283,31278,2,0,L|166:192,1,62.5,8|0,0:0|0:0,0:0:0:0:
313,159,31573,1,8,0:3:0:0:
124,108,31720,2,0,P|174:100|198:107,1,62.5,10|0,0:3|0:0,0:0:0:0:
313,159,32014,1,10,0:3:0:0:
106,97,32161,2,0,P|158:84|223:100,1,93.7500035762788,2|0,0:0|0:0,0:0:0:0:
295,263,32455,2,0,L|281:336,1,62.5,8|0,0:0|0:0,0:0:0:0:
313,159,32749,2,0,P|361:181|375:200,1,62.5,8|2,0:3|0:0,0:0:0:0:
105,327,33043,6,0,B|80:309|52:304|52:304|187:281,1,187.500007152558,6|0,0:0|0:0,0:0:0:0:
303,269,33484,1,0,0:0:0:0:
303,269,33558,1,0,0:0:0:0:
303,269,33631,2,0,P|315:302|311:338,1,62.5,8|0,0:0|0:0,0:0:0:0:
166,184,33925,2,0,P|188:157|221:142,1,62.5,2|0,0:3|0:0,0:0:0:0:
162,348,34220,2,0,P|127:341|98:320,1,62.5
294,173,34513,1,2,0:0:0:0:
205,264,34660,1,0,0:0:0:0:
149,99,34808,2,0,L|220:111,1,62.5,8|0,0:0|0:0,0:0:0:0:
96,238,35102,2,0,P|81:210|78:179,1,62.5,2|0,0:3|0:0,0:0:0:0:
234,36,35396,6,0,B|191:57|142:51|142:51|188:67|221:126,1,187.500007152558,2|2,0:0|0:3,0:0:0:0:
296,145,35837,1,0,0:0:0:0:
296,145,35911,1,0,0:0:0:0:
296,145,35984,2,0,P|273:177|248:195,1,62.5,8|0,0:0|0:0,0:0:0:0:
54,138,36278,1,8,0:3:0:0:
160,227,36425,2,0,B|169:208|169:208|161:149,1,62.5,10|0,0:3|0:0,0:0:0:0:
54,138,36719,1,10,0:3:0:0:
166,243,36866,2,0,B|183:219|183:219|170:144,1,93.7500035762788,2|0,0:0|0:0,0:0:0:0:
0,9,37161,2,0,L|14:87,1,62.5,8|0,0:0|0:0,0:0:0:0:
185,53,37455,2,0,P|144:54|118:67,1,62.5,8|2,0:3|0:0,0:0:0:0:
89,305,37749,6,0,B|74:279|46:267|46:267|105:212|191:253,1,187.500007152558,6|0,0:0|0:0,0:0:0:0:
300,206,38190,1,0,0:0:0:0:
300,206,38264,1,0,0:0:0:0:
300,206,38337,2,0,P|312:173|308:137,1,62.5,8|0,0:0|0:0,0:0:0:0:
118,203,38631,2,0,P|140:229|173:244,1,62.5,2|0,0:3|0:0,0:0:0:0:
214,56,38925,2,0,P|178:58|147:77,1,62.5
310,146,39219,1,2,0:0:0:0:
319,37,39366,1,0,0:0:0:0:
210,158,39514,2,0,L|227:223,1,62.5,8|0,0:0|0:0,0:0:0:0:
380,360,39808,2,0,L|391:299,1,62.5,2|0,0:3|0:0,0:0:0:0:
359,179,40102,6,0,B|417:197|465:156|465:156|419:140|379:159,1,187.500007152558,2|2,0:0|0:3,0:0:0:0:
324,251,40543,1,0,0:0:0:0:
324,251,40617,1,0,0:0:0:0:
324,251,40690,2,0,P|357:263|396:266,1,62.5,8|0,0:0|0:0,0:0:0:0:
272,87,40984,1,8,0:3:0:0:
160,174,41131,2,0,L|172:244,1,62.5,10|0,0:3|0:0,0:0:0:0:
272,87,41425,1,10,0:3:0:0:
136,162,41573,2,0,L|153:259,1,93.7500035762788,2|0,0:0|0:0,0:0:0:0:
359,179,41867,2,0,L|348:117,1,62.5,8|0,0:0|0:0,0:0:0:0:
241,31,42161,2,0,L|228:101,1,62.5,8|2,0:3|0:0,0:0:0:0:
152,254,42455,6,0,B|206:249|240:293|240:293|279:336|328:322,1,187.500007152558,6|0,0:0|0:0,0:0:0:0:
318,180,42896,1,0,0:0:0:0:
318,180,42970,1,0,0:0:0:0:
318,180,43043,2,0,L|302:266,1,62.5,8|0,0:0|0:0,0:0:0:0:
135,354,43337,2,0,P|123:321|90:291,1,62.5,2|0,0:3|0:0,0:0:0:0:
324,321,43631,2,0,P|295:340|275:379,1,62.5
126,230,43925,1,2,0:0:0:0:
248,258,44072,1,0,0:0:0:0:
135,354,44220,2,0,P|99:350|63:331,1,62.5,8|0,0:0|0:0,0:0:0:0:
182,147,44514,2,0,P|212:147|239:163,1,62.5,2|0,0:3|0:0,0:0:0:0:
418,170,44808,6,0,P|417:134|347:186,1,187.500007152558,2|2,0:0|0:3,0:0:0:0:
497,221,45249,1,0,0:0:0:0:
497,221,45323,1,0,0:0:0:0:
497,221,45396,2,0,P|509:188|512:149,1,62.5,8|0,0:0|0:0,0:0:0:0:
422,294,45690,1,8,0:3:0:0:
309,261,45837,2,0,P|280:240|255:210,1,62.5,10|0,0:3|0:0,0:0:0:0:
422,294,46131,1,10,0:3:0:0:
316,279,46278,2,0,P|264:248|238:214,1,93.7500035762788,2|0,0:0|0:0,0:0:0:0:
372,109,46573,2,0,P|371:147|352:181,1,62.5,8|0,0:0|0:0,0:0:0:0:
203,136,46867,2,0,L|277:122,1,62.5,8|2,0:3|0:0,0:0:0:0:
225,13,47160,6,0,L|202:139,1,125,8|0,0:3|0:0,0:0:0:0:
86,281,47601,1,8,0:3:0:0:
59,189,47749,2,0,B|109:184|109:184|152:210,1,93.7500035762788,8|8,0:3|0:3,0:0:0:0:
146,206,48337,1,0,0:0:0:0:
146,206,48484,1,8,0:3:0:0:
134,110,48631,1,8,0:3:0:0:
134,110,48778,1,0,0:0:0:0:
232,62,48925,6,0,L|241:114,1,46.8750017881394,8|0,0:3|0:0,0:0:0:0:
315,11,49219,2,0,L|325:64,1,46.8750017881394
146,206,49512,6,0,B|83:218|83:218|31:185,1,125,8|0,0:3|0:0,0:0:0:0:
1,59,49954,1,8,0:3:0:0:
1,59,50101,2,0,L|11:7,1,46.8750017881394,8|0,0:3|0:0,0:0:0:0:
94,109,50395,2,0,L|102:63,1,46.8750017881394,8|0,0:3|0:0,0:0:0:0:
226,37,50689,2,0,P|207:64|194:76,1,46.8750017881394,0|8,0:0|0:3,0:0:0:0:
94,109,50983,1,8,0:3:0:0:
94,109,51130,1,2,0:3:0:0:
10,151,51278,2,0,L|-4:91,1,46.8750017881394,8|0,0:3|0:0,0:0:0:0:
151,181,51571,1,2,0:3:0:0:
151,181,51865,6,0,P|211:207|287:200,1,125,8|0,0:3|0:0,0:0:0:0:
277,85,52307,1,8,0:3:0:0:
277,85,52454,2,0,P|232:66|175:70,1,93.7500035762788,8|8,0:3|0:3,0:0:0:0:
49,254,53042,1,0,0:0:0:0:
49,254,53189,1,8,0:3:0:0:
149,283,53336,1,8,0:3:0:0:
149,283,53483,1,0,0:0:0:0:
208,194,53630,6,0,L|152:185,1,46.8750017881394,8|0,0:3|0:0,0:0:0:0:
91,84,53925,2,0,L|147:75,1,46.8750017881394
354,115,54218,6,0,B|334:86|335:39|335:39|325:84|280:121,1,156.25,8|0,0:3|0:0,0:0:0:0:
314,253,54660,1,8,0:3:0:0:
314,253,54807,2,0,P|348:251|384:241,1,62.5,8|0,0:3|0:0,0:0:0:0:
165,150,55101,2,0,P|149:180|140:216,1,62.5,8|0,0:3|0:0,0:0:0:0:
19,247,56572,6,0,B|70:179|54:94|54:94|65:159|118:200,1,281.250010728836,6|0,0:0|0:0,0:0:0:0:
187,229,57160,6,0,B|189:217|189:217|195:206|195:206|194:193|194:193|199:162,1,46.8750017881394,8|0,0:0|0:0,0:0:0:0:
270,86,57454,6,0,B|274:109|274:109|280:120|280:120|278:132|278:132|282:159,1,62.5,2|0,0:3|0:0,0:0:0:0:
332,289,57749,6,0,B|337:262|337:262|343:251|343:251|341:238|341:238|347:207,1,78.125,2|0,0:3|0:0,0:0:0:0:
413,62,58043,6,0,B|419:98|419:98|425:109|425:109|423:121|423:121|429:154,1,93.7500035762788,2|0,0:0|0:0,0:0:0:0:
511,252,58337,6,0,B|517:217|517:217|515:203|515:203|521:193|521:193|525:168|525:168|534:117|460:104|451:155|451:155|446:178|446:178|440:191|440:191|442:203|442:203|421:325,1,375,8|0,0:0|0:0,0:0:0:0:
422,320,58925,6,0,B|410:318|410:318|399:312|399:312|386:313|386:313|355:308,1,46.8750017881394,2|0,0:0|0:0,0:0:0:0:
306,179,59219,6,0,B|326:175|326:175|337:169|337:169|348:171|348:171|367:168,1,62.5,2|0,0:3|0:0,0:0:0:0:
283,304,59513,6,0,B|255:299|255:299|244:294|244:294|231:296|231:296|200:291,1,78.125,8|0,0:0|0:0,0:0:0:0:
77,213,59807,6,0,B|113:207|113:207|124:201|124:201|136:203|136:203|169:197,2,93.7500035762788,8|0|10,0:3|0:0|0:3,0:0:0:0:
138,81,60101,2,0,B|199:73|199:73|256:114,1,125,0|10,0:0|0:3,0:0:0:0:
168,197,60396,2,0,L|134:193,4,31.25,2|0|0|0|0,0:0|0:0|0:0|0:0|0:0,0:0:0:0:
49,200,60689,2,0,B|-7:167|-7:167|60:157,1,125,8|0,0:0|0:0,0:0:0:0:
259,147,60983,2,0,B|277:204|277:204|244:261,1,125,8|2,0:3|0:0,0:0:0:0:
155,336,61278,6,0,B|95:325|95:325|170:318|170:318|211:362|211:362|261:354|261:354|316:364,1,281.250010728836,6|0,0:0|0:0,0:0:0:0:
409,315,61866,6,0,B|390:312|390:312|375:301|375:301|356:298,1,46.8750017881394,8|0,0:0|0:0,0:0:0:0:
226,246,62160,6,0,B|249:240|249:240|266:246|266:246|286:243,1,62.5,2|0,0:3|0:0,0:0:0:0:
435,163,62454,6,0,B|406:155|406:155|384:164|384:164|322:152,1,78.125,2|0,0:3|0:0,0:0:0:0:
202,78,62749,6,0,B|236:70|236:70|258:79|258:79|292:73,1,93.7500035762788,2|0,0:0|0:0,0:0:0:0:
481,54,63043,6,0,B|487:92|487:92|502:110|502:110|510:151|510:151|515:178|515:178|520:186|520:186|517:194|517:194|522:222|522:222|531:273|456:286|447:235|447:235|442:207|442:207|437:200|437:200|440:192|440:192|434:160|434:160,1,375,8|0,0:0|0:0,0:0:0:0:
367,73,63631,6,0,B|347:76|347:76|332:87|332:87|313:90,1,46.8750017881394,2|0,0:0|0:0,0:0:0:0:
268,186,63925,6,0,B|244:182|244:182|230:171|230:171|210:167,1,62.5,2|0,0:3|0:0,0:0:0:0:
193,37,64219,6,0,B|165:41|165:41|147:57|147:57|120:62,1,78.125,8|0,0:0|0:0,0:0:0:0:
94,231,64513,6,0,B|59:225|59:225|41:209|41:209|8:203,2,93.7500035762788,8|0|10,0:3|0:0|0:3,0:0:0:0:
272,307,64807,1,2,0:3:0:0:
163,338,64954,1,10,0:3:0:0:
268,186,65101,2,0,L|271:155,4,31.25,2|0|0|0|2,0:0|0:0|0:0|0:0|0:3,0:0:0:0:
193,97,65396,2,0,B|157:80|157:80|179:172,1,125,8|0,0:0|0:0,0:0:0:0:
348,244,65690,2,0,B|377:185|377:185|357:90,1,125,8|2,0:3|0:0,0:0:0:0:
179,244,65984,6,0,B|162:323|162:323|246:295|246:295|268:186,1,281.250010728836,6|0,0:0|0:0,0:0:0:0:
170,135,66572,6,0,B|145:125|145:125|110:130,1,46.8750017881394,8|0,0:0|0:0,0:0:0:0:
268,185,66866,6,0,B|282:155|282:155|277:126,1,62.5,2|0,0:3|0:0,0:0:0:0:
213,284,67160,6,0,B|251:302|251:302|293:293,1,78.125,2|0,0:3|0:0,0:0:0:0:
106,224,67454,6,0,B|86:270|86:270|93:318,1,93.7500035762788,2|0,0:0|0:0,0:0:0:0:
238,362,67749,6,0,B|282:381|282:381|327:369|327:369|344:370|344:370|395:375|402:299|350:294|350:294|330:292|330:292|290:301|290:301|246:286|246:286|201:282,1,375,8|0,0:0|0:0,0:0:0:0:
92,313,68337,6,0,B|88:293|88:293|98:268,1,46.8750017881394,2|0,0:0|0:0,0:0:0:0:
221,224,68631,6,0,B|225:253|225:253|212:283,1,62.5,2|0,0:3|0:0,0:0:0:0:
51,192,68925,6,0,B|44:156|44:156|62:118,1,78.125,8|0,0:0|0:0,0:0:0:0:
275,48,69219,6,0,B|283:94|283:94|263:136,2,93.7500035762788,8|0|10,0:3|0:0|0:3,0:0:0:0:
221,224,69513,1,2,0:3:0:0:
176,107,69660,1,10,0:3:0:0:
319,213,69807,2,0,L|359:207,4,31.25,2|0|0|0|2,0:0|0:0|0:0|0:0|0:3,0:0:0:0:
444,215,70101,2,0,B|493:173|493:173|422:166,1,125,8|0,0:0|0:0,0:0:0:0:
250,304,70395,2,0,B|302:332|302:332|382:317,1,125,8|2,0:3|0:0,0:0:0:0:
377,93,70690,6,0,B|390:38|390:38|317:-10|317:-10|264:55|264:55|306:132,1,281.250010728836,6|0,0:0|0:0,0:0:0:0:
349,208,71277,6,0,B|336:205|336:205|325:199|325:199|312:200|312:200|281:195,1,46.8750017881394,8|0,0:0|0:0,0:0:0:0:
131,269,71572,6,0,B|151:265|151:265|162:259|162:259|173:261|173:261|191:259,1,62.5,2|0,0:3|0:0,0:0:0:0:
333,369,71866,6,0,B|305:363|305:363|294:357|294:357|281:359|281:359|251:353,2,78.125,2|0|0,0:3|0:0|0:0,0:0:0:0:
452,260,72160,2,0,P|433:232|338:210,1,125,2|0,0:0|0:0,0:0:0:0:
250,324,72454,2,0,L|260:364,4,31.25,8|0|0|0|0,0:0|0:0|0:0|0:0|0:0,0:0:0:0:
114,230,72748,2,0,B|177:236|177:236|183:232|183:232|270:242,1,125,2|0,0:3|0:0,0:0:0:0:
390,209,73043,6,0,B|318:169|318:169|340:261|340:261|335:274|335:274|358:379|358:379,1,281.250010728836,2|0,0:0|0:0,0:0:0:0:
481,285,73631,2,0,B|492:222|492:222|489:216|489:216|506:130,1,125,8|0,0:0|0:0,0:0:0:0:
363,55,73925,1,8,0:3:0:0:
406,157,74072,1,10,0:3:0:0:
475,39,74219,2,0,B|428:30|428:30|413:19|413:19|397:24|397:24|355:17,1,125,2|10,0:3|0:3,0:0:0:0:
202,160,74513,2,0,B|210:207|210:207|205:224|205:224|215:238|215:238|222:279,1,125,2|2,0:0|0:3,0:0:0:0:
466,167,74807,6,0,B|445:164|445:164|438:159|438:159|429:161|429:161|406:157,1,62.5,8|0,0:0|0:0,0:0:0:0:
305,242,75101,2,0,B|308:262|308:262|305:270|305:270|310:278|310:278|314:301,1,62.5,8|0,0:3|0:0,0:0:0:0:
456,322,75395,5,0,0:0:0:0:
