osu file format v14

[General]
AudioFilename: audio.ogg
AudioLeadIn: 0
PreviewTime: 121807
Countdown: 0
SampleSet: Drum
StackLeniency: 0.7
Mode: 3
LetterboxInBreaks: 0
SpecialStyle: 0
WidescreenStoryboard: 1

[Editor]
Bookmarks: 13872,37872,61872,65229,85872,97854,109872,135372,151479,163872,175872,199872,213372
DistanceSpacing: 0.8
BeatDivisor: 4
GridSize: 32
TimelineZoom: 2.700002

[Metadata]
Title:Luster
TitleUnicode:Luster
Artist:Purukichi
ArtistUnicode:Purukichi
Creator:samuelhklumpers
Version:Shimmer
Source:
Tags:TEXTILE future tech electronic instrumental 電脳.wav Dennou.wav dnwv
BeatmapID:3199169
BeatmapSetID:1566829

[Difficulty]
HPDrainRate:9
CircleSize:4
OverallDifficulty:7
ApproachRate:5
SliderMultiplier:1.4
SliderTickRate:1

[Events]
//Background and Video events
0,0,"textile.jpg",0,0
//Break Periods
//Storyboard Layer 0 (Background)
//Storyboard Layer 1 (Fail)
//Storyboard Layer 2 (Pass)
//Storyboard Layer 3 (Foreground)
//Storyboard Layer 4 (Overlay)
//Storyboard Sound Samples

[TimingPoints]
1847,375,4,3,1,50,1,0
1847,-100,4,3,1,25,0,0
12347,-100,4,3,1,30,0,0
12722,-100,4,3,1,35,0,0
37847,-100,4,3,1,40,0,0
61284,-100,4,3,1,50,0,0
84347,-100,4,3,1,45,0,0
84628,-100,4,3,1,40,0,0
84909,-100,4,3,1,35,0,0
85190,-100,4,3,1,30,0,0
85472,-100,4,3,1,25,0,0
91847,-100,4,3,1,30,0,0
97847,-100,4,3,1,40,0,0
108534,-100,4,3,1,50,0,0
109847,-100,4,3,1,50,0,1
121659,-100,4,3,1,50,0,0
121847,-100,4,3,1,50,0,1
132347,-100,4,3,1,50,0,0
132956,-100,4,3,1,35,0,0
133518,-100,4,3,1,25,0,0
134597,-100,4,3,1,40,0,0
135347,-100,4,3,1,25,0,0
136284,-100,4,3,1,40,0,0
163284,-100,4,3,1,50,0,0
174347,-100,4,3,1,45,0,0
174628,-100,4,3,1,40,0,0
174909,-100,4,3,1,35,0,0
175190,-100,4,3,1,30,0,0
175472,-100,4,3,1,25,0,0
181847,-100,4,3,1,30,0,0
187847,-100,4,3,1,40,0,0
198534,-100,4,3,1,50,0,0
213347,-100,4,3,1,50,0,1
225159,-100,4,3,1,50,0,0
225347,-100,4,3,1,50,0,1
235847,-100,4,3,1,50,0,0
236456,-100,4,3,1,35,0,0
237018,-100,4,3,1,25,0,0
238097,-100,4,3,1,40,0,0
238565,-100,4,3,1,25,0,0
249018,-100,4,3,1,30,0,0
249722,-100,4,3,1,35,0,0

[HitObjects]
64,192,1847,5,0,0:0:0:0:
448,192,1847,1,0,0:0:0:0:
320,192,2034,1,0,0:0:0:0:
192,192,2128,1,0,0:0:0:0:
64,192,2222,1,0,0:0:0:0:
448,192,2222,1,0,0:0:0:0:
192,192,2315,1,0,0:0:0:0:
320,192,2409,1,0,0:0:0:0:
448,192,2503,1,0,0:0:0:0:
64,192,2597,1,0,0:0:0:0:
320,192,2597,1,0,0:0:0:0:
192,192,2690,1,0,0:0:0:0:
448,192,2784,1,0,0:0:0:0:
64,192,2878,1,0,0:0:0:0:
320,192,2972,1,0,0:0:0:0:
192,192,2972,1,0,0:0:0:0:
64,192,3065,1,0,0:0:0:0:
448,192,3159,1,0,0:0:0:0:
192,192,3253,1,0,0:0:0:0:
64,192,3347,5,0,0:0:0:0:
448,192,3347,1,0,0:0:0:0:
320,192,3534,1,0,0:0:0:0:
192,192,3628,1,0,0:0:0:0:
64,192,3722,1,0,0:0:0:0:
448,192,3722,1,0,0:0:0:0:
192,192,3815,1,0,0:0:0:0:
320,192,3909,1,0,0:0:0:0:
448,192,4003,1,0,0:0:0:0:
64,192,4097,1,0,0:0:0:0:
320,192,4097,1,0,0:0:0:0:
192,192,4190,1,0,0:0:0:0:
448,192,4284,1,0,0:0:0:0:
64,192,4378,1,0,0:0:0:0:
320,192,4472,1,0,0:0:0:0:
192,192,4472,1,0,0:0:0:0:
64,192,4565,1,0,0:0:0:0:
448,192,4659,1,0,0:0:0:0:
192,192,4753,1,0,0:0:0:0:
64,192,4847,5,0,0:0:0:0:
448,192,4847,1,0,0:0:0:0:
320,192,5034,1,0,0:0:0:0:
192,192,5128,1,0,0:0:0:0:
448,192,5222,1,0,0:0:0:0:
64,192,5222,1,0,0:0:0:0:
192,192,5315,1,0,0:0:0:0:
320,192,5409,1,0,0:0:0:0:
448,192,5503,1,0,0:0:0:0:
320,192,5597,1,0,0:0:0:0:
64,192,5597,1,0,0:0:0:0:
192,192,5690,1,0,0:0:0:0:
448,192,5784,1,0,0:0:0:0:
64,192,5878,1,0,0:0:0:0:
192,192,5972,1,0,0:0:0:0:
320,192,5972,1,0,0:0:0:0:
64,192,6065,1,0,0:0:0:0:
448,192,6159,1,0,0:0:0:0:
192,192,6253,1,0,0:0:0:0:
64,192,6347,5,0,0:0:0:0:
448,192,6347,1,0,0:0:0:0:
320,192,6534,1,0,0:0:0:0:
192,192,6628,1,0,0:0:0:0:
64,192,6722,1,0,0:0:0:0:
448,192,6722,1,0,0:0:0:0:
192,192,6815,1,0,0:0:0:0:
320,192,6909,1,0,0:0:0:0:
448,192,7003,1,0,0:0:0:0:
64,192,7097,1,0,0:0:0:0:
320,192,7097,1,0,0:0:0:0:
192,192,7190,1,0,0:0:0:0:
448,192,7284,1,0,0:0:0:0:
64,192,7378,1,0,0:0:0:0:
320,192,7472,1,0,0:0:0:0:
192,192,7472,1,0,0:0:0:0:
64,192,7565,1,0,0:0:0:0:
448,192,7659,1,0,0:0:0:0:
192,192,7753,1,0,0:0:0:0:
64,192,7847,5,0,0:0:0:0:
448,192,7847,1,0,0:0:0:0:
320,192,8034,1,0,0:0:0:0:
192,192,8128,1,0,0:0:0:0:
448,192,8222,1,0,0:0:0:0:
64,192,8222,1,0,0:0:0:0:
192,192,8315,1,0,0:0:0:0:
448,192,8409,1,0,0:0:0:0:
192,192,8503,1,0,0:0:0:0:
320,192,8597,1,0,0:0:0:0:
64,192,8597,1,0,0:0:0:0:
448,192,8690,1,0,0:0:0:0:
192,192,8784,1,0,0:0:0:0:
320,192,8878,1,0,0:0:0:0:
192,192,8972,1,0,0:0:0:0:
448,192,8972,1,0,0:0:0:0:
64,192,9065,1,0,0:0:0:0:
320,192,9159,1,0,0:0:0:0:
192,192,9253,1,0,0:0:0:0:
64,192,9347,5,0,0:0:0:0:
448,192,9347,1,0,0:0:0:0:
320,192,9534,1,0,0:0:0:0:
192,192,9628,1,0,0:0:0:0:
64,192,9722,1,0,0:0:0:0:
448,192,9722,1,0,0:0:0:0:
192,192,9815,1,0,0:0:0:0:
448,192,9909,1,0,0:0:0:0:
192,192,10003,1,0,0:0:0:0:
64,192,10097,1,0,0:0:0:0:
320,192,10097,1,0,0:0:0:0:
448,192,10190,1,0,0:0:0:0:
192,192,10284,1,0,0:0:0:0:
320,192,10378,1,0,0:0:0:0:
448,192,10472,1,0,0:0:0:0:
192,192,10472,1,0,0:0:0:0:
320,192,10565,1,0,0:0:0:0:
192,192,10659,1,0,0:0:0:0:
320,192,10753,1,0,0:0:0:0:
64,192,10847,5,0,0:0:0:0:
448,192,10847,1,0,0:0:0:0:
320,192,11034,1,0,0:0:0:0:
192,192,11128,1,0,0:0:0:0:
320,192,11222,1,0,0:0:0:0:
64,192,11222,1,0,0:0:0:0:
192,192,11315,1,0,0:0:0:0:
448,192,11409,1,0,0:0:0:0:
64,192,11503,1,0,0:0:0:0:
448,192,11597,1,0,0:0:0:0:
192,192,11597,1,0,0:0:0:0:
64,192,11690,1,0,0:0:0:0:
448,192,11784,1,0,0:0:0:0:
64,192,11878,1,0,0:0:0:0:
192,192,11972,1,0,0:0:0:0:
320,192,11972,1,0,0:0:0:0:
64,192,12065,1,0,0:0:0:0:
448,192,12159,1,0,0:0:0:0:
320,192,12253,1,0,0:0:0:0:
192,192,12347,1,0,0:0:0:0:
192,192,12472,1,0,0:0:0:0:
192,192,12597,1,0,0:0:0:0:
320,192,12722,1,0,0:0:0:0:
320,192,12847,1,0,0:0:0:0:
64,192,12847,1,0,0:0:0:0:
320,192,12972,1,0,0:0:0:0:
64,192,12972,1,0,0:0:0:0:
448,192,13097,1,0,0:0:0:0:
192,192,13097,1,0,0:0:0:0:
448,192,13472,128,0,13784:0:0:0:0:
320,192,13534,128,0,13722:0:0:0:0:
192,192,13597,128,0,13784:0:0:0:0:
64,192,13659,128,0,13722:0:0:0:0:
64,192,13847,5,0,0:0:0:0:
320,192,13847,1,0,0:0:0:0:
192,192,14034,1,0,0:0:0:0:
192,192,14128,1,0,0:0:0:0:
448,192,14222,1,0,0:0:0:0:
320,192,14222,1,0,0:0:0:0:
64,192,14315,1,0,0:0:0:0:
64,192,14409,1,0,0:0:0:0:
320,192,14597,1,0,0:0:0:0:
192,192,14597,1,0,0:0:0:0:
448,192,14784,1,0,0:0:0:0:
448,192,14878,1,0,0:0:0:0:
64,192,14972,1,0,0:0:0:0:
192,192,14972,1,0,0:0:0:0:
320,192,15065,1,0,0:0:0:0:
320,192,15159,1,0,0:0:0:0:
192,192,15206,1,0,0:0:0:0:
64,192,15253,1,0,0:0:0:0:
448,192,15300,1,0,0:0:0:0:
192,192,15347,1,0,0:0:0:0:
320,192,15347,128,0,15378:0:0:0:0:
192,192,15534,1,0,0:0:0:0:
192,192,15628,1,0,0:0:0:0:
64,192,15722,1,0,0:0:0:0:
320,192,15722,1,0,0:0:0:0:
448,192,15815,1,0,0:0:0:0:
448,192,15909,1,0,0:0:0:0:
320,192,16097,1,0,0:0:0:0:
192,192,16097,1,0,0:0:0:0:
64,192,16190,1,0,0:0:0:0:
64,192,16284,1,0,0:0:0:0:
448,192,16378,1,0,0:0:0:0:
448,192,16472,1,0,0:0:0:0:
192,192,16472,1,0,0:0:0:0:
64,192,16472,1,0,0:0:0:0:
448,192,16847,5,0,0:0:0:0:
192,192,16847,128,0,16878:0:0:0:0:
320,192,17034,1,0,0:0:0:0:
320,192,17128,1,0,0:0:0:0:
64,192,17222,1,0,0:0:0:0:
192,192,17222,1,0,0:0:0:0:
448,192,17315,1,0,0:0:0:0:
448,192,17409,1,0,0:0:0:0:
192,192,17597,1,0,0:0:0:0:
320,192,17597,1,0,0:0:0:0:
64,192,17784,1,0,0:0:0:0:
64,192,17878,1,0,0:0:0:0:
448,192,17972,1,0,0:0:0:0:
320,192,17972,1,0,0:0:0:0:
192,192,18065,1,0,0:0:0:0:
192,192,18159,1,0,0:0:0:0:
64,192,18347,5,0,0:0:0:0:
192,192,18347,1,0,0:0:0:0:
320,192,18534,1,0,0:0:0:0:
320,192,18628,1,0,0:0:0:0:
448,192,18722,1,0,0:0:0:0:
192,192,18722,1,0,0:0:0:0:
64,192,18815,1,0,0:0:0:0:
64,192,18909,1,0,0:0:0:0:
320,192,19097,1,0,0:0:0:0:
192,192,19097,128,0,19128:0:0:0:0:
448,192,19190,1,0,0:0:0:0:
448,192,19284,1,0,0:0:0:0:
192,192,19472,1,0,0:0:0:0:
64,192,19472,1,0,0:0:0:0:
448,192,19472,1,0,0:0:0:0:
192,192,19659,1,0,0:0:0:0:
448,192,19847,5,0,0:0:0:0:
64,192,19847,128,0,19878:0:0:0:0:
320,192,20034,1,0,0:0:0:0:
320,192,20128,1,0,0:0:0:0:
64,192,20222,1,0,0:0:0:0:
192,192,20222,1,0,0:0:0:0:
448,192,20315,1,0,0:0:0:0:
448,192,20409,1,0,0:0:0:0:
192,192,20597,1,0,0:0:0:0:
320,192,20597,1,0,0:0:0:0:
64,192,20784,1,0,0:0:0:0:
64,192,20878,1,0,0:0:0:0:
448,192,20972,1,0,0:0:0:0:
320,192,20972,1,0,0:0:0:0:
192,192,21065,1,0,0:0:0:0:
192,192,21159,1,0,0:0:0:0:
64,192,21347,5,0,0:0:0:0:
192,192,21347,1,0,0:0:0:0:
320,192,21534,1,0,0:0:0:0:
320,192,21628,1,0,0:0:0:0:
448,192,21722,1,0,0:0:0:0:
192,192,21722,1,0,0:0:0:0:
64,192,21815,1,0,0:0:0:0:
64,192,21909,1,0,0:0:0:0:
192,192,22097,1,0,0:0:0:0:
320,192,22097,1,0,0:0:0:0:
448,192,22190,1,0,0:0:0:0:
448,192,22284,1,0,0:0:0:0:
64,192,22378,1,0,0:0:0:0:
64,192,22472,1,0,0:0:0:0:
320,192,22472,1,0,0:0:0:0:
448,192,22472,1,0,0:0:0:0:
64,192,22847,5,0,0:0:0:0:
320,192,22847,1,0,0:0:0:0:
192,192,23034,1,0,0:0:0:0:
192,192,23128,1,0,0:0:0:0:
448,192,23222,1,0,0:0:0:0:
320,192,23222,1,0,0:0:0:0:
64,192,23315,1,0,0:0:0:0:
64,192,23409,1,0,0:0:0:0:
320,192,23597,1,0,0:0:0:0:
192,192,23597,1,0,0:0:0:0:
320,192,23690,1,0,0:0:0:0:
64,192,23784,1,0,0:0:0:0:
64,192,23878,1,0,0:0:0:0:
192,192,23972,1,0,0:0:0:0:
448,192,23972,1,0,0:0:0:0:
320,192,24065,1,0,0:0:0:0:
320,192,24159,1,0,0:0:0:0:
64,192,24253,1,0,0:0:0:0:
448,192,24347,5,0,0:0:0:0:
320,192,24347,1,0,0:0:0:0:
64,192,24347,1,0,0:0:0:0:
64,192,25097,128,0,25284:0:0:0:0:
320,192,25097,128,0,25284:0:0:0:0:
192,192,25472,128,0,25659:0:0:0:0:
320,192,25472,128,0,25659:0:0:0:0:
64,192,25847,5,0,0:0:0:0:
320,192,25847,128,0,26034:0:0:0:0:
448,192,25847,128,0,26034:0:0:0:0:
192,192,26034,1,0,0:0:0:0:
192,192,26128,1,0,0:0:0:0:
448,192,26222,1,0,0:0:0:0:
320,192,26222,1,0,0:0:0:0:
64,192,26315,1,0,0:0:0:0:
64,192,26409,1,0,0:0:0:0:
320,192,26597,1,0,0:0:0:0:
192,192,26597,1,0,0:0:0:0:
448,192,26784,1,0,0:0:0:0:
448,192,26878,1,0,0:0:0:0:
64,192,26972,1,0,0:0:0:0:
192,192,26972,1,0,0:0:0:0:
320,192,27065,1,0,0:0:0:0:
320,192,27159,128,0,27206:0:0:0:0:
448,192,27206,128,0,27253:0:0:0:0:
192,192,27253,128,0,27300:0:0:0:0:
64,192,27300,128,0,27347:0:0:0:0:
448,192,27347,5,0,0:0:0:0:
320,192,27347,128,0,27393:0:0:0:0:
192,192,27534,1,0,0:0:0:0:
192,192,27628,1,0,0:0:0:0:
64,192,27722,1,0,0:0:0:0:
320,192,27722,1,0,0:0:0:0:
448,192,27815,1,0,0:0:0:0:
448,192,27909,1,0,0:0:0:0:
320,192,28097,1,0,0:0:0:0:
192,192,28097,1,0,0:0:0:0:
64,192,28190,1,0,0:0:0:0:
64,192,28284,1,0,0:0:0:0:
448,192,28378,1,0,0:0:0:0:
448,192,28472,1,0,0:0:0:0:
192,192,28472,1,0,0:0:0:0:
64,192,28472,1,0,0:0:0:0:
192,192,28847,1,0,0:0:0:0:
448,192,28847,128,0,28893:0:0:0:0:
320,192,29034,1,0,0:0:0:0:
320,192,29128,1,0,0:0:0:0:
64,192,29222,1,0,0:0:0:0:
192,192,29222,1,0,0:0:0:0:
448,192,29315,1,0,0:0:0:0:
448,192,29409,1,0,0:0:0:0:
192,192,29597,1,0,0:0:0:0:
320,192,29597,1,0,0:0:0:0:
64,192,29784,1,0,0:0:0:0:
64,192,29878,1,0,0:0:0:0:
448,192,29972,1,0,0:0:0:0:
320,192,29972,1,0,0:0:0:0:
192,192,30065,1,0,0:0:0:0:
192,192,30159,1,0,0:0:0:0:
64,192,30347,5,0,0:0:0:0:
192,192,30347,1,0,0:0:0:0:
320,192,30534,1,0,0:0:0:0:
320,192,30628,1,0,0:0:0:0:
448,192,30722,1,0,0:0:0:0:
192,192,30722,1,0,0:0:0:0:
64,192,30815,1,0,0:0:0:0:
64,192,30909,1,0,0:0:0:0:
320,192,31097,1,0,0:0:0:0:
192,192,31097,128,0,31143:0:0:0:0:
448,192,31190,1,0,0:0:0:0:
448,192,31284,1,0,0:0:0:0:
320,192,31472,1,0,0:0:0:0:
64,192,31472,1,0,0:0:0:0:
448,192,31472,1,0,0:0:0:0:
192,192,31659,1,0,0:0:0:0:
192,192,31753,1,0,0:0:0:0:
448,192,31847,5,0,0:0:0:0:
64,192,31847,128,0,31893:0:0:0:0:
320,192,32034,1,0,0:0:0:0:
320,192,32128,1,0,0:0:0:0:
64,192,32222,1,0,0:0:0:0:
192,192,32222,1,0,0:0:0:0:
448,192,32315,1,0,0:0:0:0:
448,192,32409,1,0,0:0:0:0:
192,192,32597,1,0,0:0:0:0:
320,192,32597,1,0,0:0:0:0:
64,192,32784,1,0,0:0:0:0:
64,192,32878,1,0,0:0:0:0:
448,192,32972,1,0,0:0:0:0:
320,192,32972,1,0,0:0:0:0:
192,192,33065,1,0,0:0:0:0:
192,192,33159,1,0,0:0:0:0:
64,192,33347,5,0,0:0:0:0:
192,192,33347,1,0,0:0:0:0:
320,192,33534,1,0,0:0:0:0:
320,192,33628,1,0,0:0:0:0:
448,192,33722,1,0,0:0:0:0:
192,192,33722,1,0,0:0:0:0:
64,192,33815,1,0,0:0:0:0:
64,192,33909,1,0,0:0:0:0:
192,192,34097,1,0,0:0:0:0:
320,192,34097,1,0,0:0:0:0:
448,192,34284,1,0,0:0:0:0:
448,192,34378,1,0,0:0:0:0:
192,192,34472,1,0,0:0:0:0:
64,192,34472,1,0,0:0:0:0:
320,192,34565,1,0,0:0:0:0:
320,192,34659,1,0,0:0:0:0:
64,192,34847,5,0,0:0:0:0:
448,192,34847,1,0,0:0:0:0:
192,192,34972,1,0,0:0:0:0:
320,192,35097,1,0,0:0:0:0:
192,192,35222,1,0,0:0:0:0:
448,192,35347,1,0,0:0:0:0:
64,192,35472,1,0,0:0:0:0:
448,192,35597,1,0,0:0:0:0:
192,192,35722,1,0,0:0:0:0:
64,192,35847,1,0,0:0:0:0:
64,192,35972,1,0,0:0:0:0:
448,192,36097,1,0,0:0:0:0:
448,192,36222,1,0,0:0:0:0:
192,192,36347,1,0,0:0:0:0:
192,192,36472,1,0,0:0:0:0:
192,192,36597,1,0,0:0:0:0:
320,192,36722,1,0,0:0:0:0:
320,192,36847,1,0,0:0:0:0:
64,192,36847,1,0,0:0:0:0:
320,192,36972,1,0,0:0:0:0:
64,192,36972,1,0,0:0:0:0:
448,192,37097,1,0,0:0:0:0:
192,192,37097,1,0,0:0:0:0:
64,192,37847,128,0,37878:0:0:0:0:
320,192,37847,128,0,37878:0:0:0:0:
448,192,37847,128,0,37878:0:0:0:0:
192,192,38034,128,0,38081:0:0:0:0:
192,192,38128,1,0,0:0:0:0:
320,192,38315,128,0,38362:0:0:0:0:
64,192,38315,128,0,38347:0:0:0:0:
320,192,38409,1,0,0:0:0:0:
448,192,38597,128,0,38643:0:0:0:0:
64,192,38597,128,0,38628:0:0:0:0:
320,192,38597,128,0,38628:0:0:0:0:
448,192,38690,1,0,0:0:0:0:
192,192,38878,128,0,38925:0:0:0:0:
448,192,39065,128,0,39112:0:0:0:0:
64,192,39065,128,0,39097:0:0:0:0:
448,192,39159,1,0,0:0:0:0:
448,192,39347,128,0,39378:0:0:0:0:
320,192,39347,128,0,39378:0:0:0:0:
64,192,39347,128,0,39378:0:0:0:0:
192,192,39534,128,0,39581:0:0:0:0:
192,192,39628,1,0,0:0:0:0:
64,192,39815,128,0,39847:0:0:0:0:
320,192,39815,128,0,39862:0:0:0:0:
320,192,39909,1,0,0:0:0:0:
64,192,40097,128,0,40128:0:0:0:0:
448,192,40097,128,0,40143:0:0:0:0:
320,192,40097,128,0,40128:0:0:0:0:
448,192,40190,1,0,0:0:0:0:
192,192,40378,128,0,40425:0:0:0:0:
64,192,40565,128,0,40597:0:0:0:0:
448,192,40565,128,0,40612:0:0:0:0:
448,192,40659,1,0,0:0:0:0:
320,192,40847,128,0,40878:0:0:0:0:
64,192,40847,128,0,40878:0:0:0:0:
448,192,40847,128,0,40878:0:0:0:0:
192,192,41034,128,0,41081:0:0:0:0:
192,192,41128,1,0,0:0:0:0:
192,192,41315,128,0,41362:0:0:0:0:
64,192,41315,128,0,41347:0:0:0:0:
192,192,41409,1,0,0:0:0:0:
64,192,41597,128,0,41628:0:0:0:0:
448,192,41597,128,0,41628:0:0:0:0:
192,192,41597,128,0,41628:0:0:0:0:
320,192,41784,128,0,41831:0:0:0:0:
320,192,41878,1,0,0:0:0:0:
64,192,42065,128,0,42097:0:0:0:0:
320,192,42065,128,0,42112:0:0:0:0:
320,192,42159,1,0,0:0:0:0:
192,192,42347,128,0,42378:0:0:0:0:
64,192,42347,128,0,42378:0:0:0:0:
320,192,42347,128,0,42378:0:0:0:0:
448,192,42534,128,0,42581:0:0:0:0:
448,192,42628,1,0,0:0:0:0:
448,192,42815,128,0,42862:0:0:0:0:
64,192,42815,128,0,42847:0:0:0:0:
448,192,42909,1,0,0:0:0:0:
320,192,43097,128,0,43128:0:0:0:0:
64,192,43097,128,0,43128:0:0:0:0:
192,192,43097,128,0,43128:0:0:0:0:
320,192,43284,128,0,43331:0:0:0:0:
320,192,43378,1,0,0:0:0:0:
64,192,43565,128,0,43597:0:0:0:0:
320,192,43565,128,0,43612:0:0:0:0:
320,192,43659,1,0,0:0:0:0:
448,192,43847,128,0,43878:0:0:0:0:
320,192,43847,128,0,43878:0:0:0:0:
64,192,43847,128,0,43878:0:0:0:0:
192,192,44034,128,0,44081:0:0:0:0:
192,192,44128,1,0,0:0:0:0:
64,192,44315,128,0,44347:0:0:0:0:
320,192,44315,128,0,44362:0:0:0:0:
320,192,44409,1,0,0:0:0:0:
320,192,44597,128,0,44628:0:0:0:0:
64,192,44597,128,0,44628:0:0:0:0:
448,192,44597,128,0,44643:0:0:0:0:
448,192,44690,1,0,0:0:0:0:
192,192,44878,128,0,44925:0:0:0:0:
64,192,45065,128,0,45097:0:0:0:0:
448,192,45065,128,0,45112:0:0:0:0:
448,192,45159,1,0,0:0:0:0:
64,192,45347,128,0,45378:0:0:0:0:
320,192,45347,128,0,45378:0:0:0:0:
448,192,45347,128,0,45378:0:0:0:0:
192,192,45534,128,0,45581:0:0:0:0:
192,192,45628,1,0,0:0:0:0:
320,192,45815,128,0,45862:0:0:0:0:
64,192,45815,128,0,45847:0:0:0:0:
320,192,45909,1,0,0:0:0:0:
64,192,46097,128,0,46128:0:0:0:0:
448,192,46097,128,0,46143:0:0:0:0:
320,192,46097,128,0,46128:0:0:0:0:
448,192,46190,1,0,0:0:0:0:
192,192,46378,128,0,46425:0:0:0:0:
448,192,46565,128,0,46612:0:0:0:0:
64,192,46565,128,0,46597:0:0:0:0:
448,192,46659,1,0,0:0:0:0:
448,192,46847,128,0,46878:0:0:0:0:
64,192,46847,128,0,46878:0:0:0:0:
320,192,46847,128,0,46878:0:0:0:0:
192,192,47034,128,0,47081:0:0:0:0:
192,192,47128,1,0,0:0:0:0:
64,192,47315,128,0,47347:0:0:0:0:
192,192,47315,128,0,47362:0:0:0:0:
192,192,47409,1,0,0:0:0:0:
192,192,47597,128,0,47628:0:0:0:0:
448,192,47597,128,0,47628:0:0:0:0:
64,192,47597,128,0,47628:0:0:0:0:
320,192,47784,128,0,47831:0:0:0:0:
320,192,47878,1,0,0:0:0:0:
64,192,48065,128,0,48097:0:0:0:0:
320,192,48065,128,0,48112:0:0:0:0:
320,192,48159,1,0,0:0:0:0:
192,192,48347,128,0,48378:0:0:0:0:
448,192,48347,128,0,48378:0:0:0:0:
320,192,48347,128,0,48378:0:0:0:0:
64,192,48534,128,0,48581:0:0:0:0:
64,192,48628,1,0,0:0:0:0:
448,192,48815,128,0,48847:0:0:0:0:
64,192,48815,128,0,48862:0:0:0:0:
64,192,48909,1,0,0:0:0:0:
192,192,49097,128,0,49128:0:0:0:0:
64,192,49097,128,0,49128:0:0:0:0:
448,192,49097,128,0,49128:0:0:0:0:
320,192,49284,128,0,49472:0:0:0:0:
448,192,49378,128,0,49565:0:0:0:0:
192,192,49472,128,0,49659:0:0:0:0:
64,192,49565,128,0,49659:0:0:0:0:
320,192,49659,128,0,49800:0:0:0:0:
64,192,49753,128,0,49800:0:0:0:0:
320,192,49847,128,0,49878:0:0:0:0:
448,192,49847,128,0,49878:0:0:0:0:
192,192,49847,128,0,49878:0:0:0:0:
192,192,50034,128,0,50081:0:0:0:0:
192,192,50128,1,0,0:0:0:0:
448,192,50222,1,0,0:0:0:0:
64,192,50222,1,0,0:0:0:0:
320,192,50315,128,0,50362:0:0:0:0:
64,192,50315,128,0,50347:0:0:0:0:
320,192,50409,1,0,0:0:0:0:
448,192,50597,128,0,50643:0:0:0:0:
192,192,50643,128,0,50737:0:0:0:0:
448,192,50690,1,0,0:0:0:0:
64,192,50690,128,0,50737:0:0:0:0:
192,192,50878,128,0,50925:0:0:0:0:
320,192,50878,128,0,50909:0:0:0:0:
64,192,50972,1,0,0:0:0:0:
320,192,50972,1,0,0:0:0:0:
448,192,51065,128,0,51112:0:0:0:0:
448,192,51159,1,0,0:0:0:0:
192,192,51159,128,0,51190:0:0:0:0:
448,192,51347,128,0,51378:0:0:0:0:
320,192,51347,128,0,51378:0:0:0:0:
64,192,51347,128,0,51378:0:0:0:0:
192,192,51534,128,0,51581:0:0:0:0:
192,192,51628,1,0,0:0:0:0:
448,192,51722,1,0,0:0:0:0:
64,192,51722,1,0,0:0:0:0:
64,192,51815,128,0,51847:0:0:0:0:
320,192,51815,128,0,51862:0:0:0:0:
320,192,51909,1,0,0:0:0:0:
448,192,52097,128,0,52143:0:0:0:0:
192,192,52143,128,0,52237:0:0:0:0:
64,192,52190,128,0,52237:0:0:0:0:
448,192,52190,1,0,0:0:0:0:
192,192,52378,128,0,52425:0:0:0:0:
320,192,52378,128,0,52409:0:0:0:0:
320,192,52472,1,0,0:0:0:0:
64,192,52472,1,0,0:0:0:0:
448,192,52565,128,0,52612:0:0:0:0:
448,192,52659,1,0,0:0:0:0:
192,192,52659,128,0,52690:0:0:0:0:
320,192,52847,128,0,52878:0:0:0:0:
448,192,52847,128,0,52878:0:0:0:0:
64,192,52847,128,0,52878:0:0:0:0:
192,192,53034,128,0,53081:0:0:0:0:
192,192,53128,1,0,0:0:0:0:
448,192,53222,1,0,0:0:0:0:
64,192,53222,1,0,0:0:0:0:
192,192,53315,128,0,53362:0:0:0:0:
448,192,53315,128,0,53347:0:0:0:0:
192,192,53409,1,0,0:0:0:0:
64,192,53597,128,0,53628:0:0:0:0:
192,192,53643,128,0,53737:0:0:0:0:
448,192,53690,128,0,53737:0:0:0:0:
320,192,53784,128,0,53831:0:0:0:0:
320,192,53878,1,0,0:0:0:0:
64,192,53878,128,0,53909:0:0:0:0:
64,192,53972,1,0,0:0:0:0:
448,192,53972,1,0,0:0:0:0:
320,192,54065,128,0,54112:0:0:0:0:
448,192,54159,128,0,54190:0:0:0:0:
320,192,54159,1,0,0:0:0:0:
448,192,54347,128,0,54378:0:0:0:0:
320,192,54347,128,0,54378:0:0:0:0:
192,192,54347,128,0,54378:0:0:0:0:
64,192,54534,128,0,54581:0:0:0:0:
64,192,54628,1,0,0:0:0:0:
448,192,54722,1,0,0:0:0:0:
320,192,54722,1,0,0:0:0:0:
64,192,54815,128,0,54862:0:0:0:0:
448,192,54815,128,0,54847:0:0:0:0:
64,192,54909,1,0,0:0:0:0:
64,192,55097,128,0,55128:0:0:0:0:
192,192,55143,128,0,55237:0:0:0:0:
448,192,55190,128,0,55237:0:0:0:0:
320,192,55284,128,0,55331:0:0:0:0:
320,192,55378,1,0,0:0:0:0:
64,192,55378,128,0,55409:0:0:0:0:
64,192,55472,1,0,0:0:0:0:
448,192,55472,1,0,0:0:0:0:
192,192,55659,128,0,55753:0:0:0:0:
64,192,55847,1,0,0:0:0:0:
320,192,55847,1,0,0:0:0:0:
448,192,55847,1,0,0:0:0:0:
192,192,56034,128,0,56081:0:0:0:0:
192,192,56128,1,0,0:0:0:0:
448,192,56222,1,0,0:0:0:0:
64,192,56222,1,0,0:0:0:0:
320,192,56315,128,0,56362:0:0:0:0:
320,192,56409,1,0,0:0:0:0:
448,192,56597,128,0,56643:0:0:0:0:
192,192,56643,128,0,56737:0:0:0:0:
448,192,56690,1,0,0:0:0:0:
64,192,56690,128,0,56737:0:0:0:0:
192,192,56878,128,0,56925:0:0:0:0:
64,192,56972,1,0,0:0:0:0:
320,192,56972,1,0,0:0:0:0:
448,192,57065,128,0,57112:0:0:0:0:
448,192,57159,1,0,0:0:0:0:
192,192,57159,1,0,0:0:0:0:
320,192,57347,1,0,0:0:0:0:
448,192,57347,1,0,0:0:0:0:
64,192,57347,1,0,0:0:0:0:
192,192,57534,128,0,57581:0:0:0:0:
192,192,57628,1,0,0:0:0:0:
64,192,57722,1,0,0:0:0:0:
448,192,57722,1,0,0:0:0:0:
320,192,57815,128,0,57862:0:0:0:0:
64,192,57815,1,0,0:0:0:0:
320,192,57909,1,0,0:0:0:0:
448,192,58097,128,0,58143:0:0:0:0:
192,192,58143,128,0,58237:0:0:0:0:
64,192,58190,128,0,58237:0:0:0:0:
448,192,58190,1,0,0:0:0:0:
192,192,58378,128,0,58425:0:0:0:0:
64,192,58472,1,0,0:0:0:0:
320,192,58472,1,0,0:0:0:0:
448,192,58565,128,0,58612:0:0:0:0:
448,192,58659,1,0,0:0:0:0:
192,192,58659,1,0,0:0:0:0:
192,192,58753,1,0,0:0:0:0:
320,192,58753,1,0,0:0:0:0:
320,192,58847,1,0,0:0:0:0:
448,192,58847,1,0,0:0:0:0:
64,192,58847,1,0,0:0:0:0:
192,192,59034,128,0,59081:0:0:0:0:
320,192,59034,1,0,0:0:0:0:
192,192,59128,1,0,0:0:0:0:
448,192,59222,1,0,0:0:0:0:
64,192,59222,1,0,0:0:0:0:
192,192,59315,128,0,59362:0:0:0:0:
192,192,59409,1,0,0:0:0:0:
320,192,59409,1,0,0:0:0:0:
448,192,59597,1,0,0:0:0:0:
192,192,59597,1,0,0:0:0:0:
64,192,59690,1,0,0:0:0:0:
448,192,59690,1,0,0:0:0:0:
320,192,59784,128,0,59831:0:0:0:0:
64,192,59784,1,0,0:0:0:0:
192,192,59878,1,0,0:0:0:0:
320,192,59878,1,0,0:0:0:0:
192,192,59972,128,0,60159:0:0:0:0:
448,192,59972,128,0,60018:0:0:0:0:
64,192,59995,128,0,60065:0:0:0:0:
320,192,60018,128,0,60089:0:0:0:0:
448,192,60112,128,0,60159:0:0:0:0:
448,192,60253,1,0,0:0:0:0:
320,192,60253,1,0,0:0:0:0:
64,192,60347,128,0,60409:0:0:0:0:
192,192,60503,1,0,0:0:0:0:
320,192,60597,128,0,60659:0:0:0:0:
64,192,60659,128,0,60706:0:0:0:0:
448,192,60706,128,0,60768:0:0:0:0:
64,192,61284,128,0,61315:0:0:0:0:
192,192,61284,128,0,61315:0:0:0:0:
320,192,61284,128,0,61315:0:0:0:0:
448,192,61472,1,0,0:0:0:0:
320,192,61472,1,0,0:0:0:0:
192,192,61472,1,0,0:0:0:0:
448,192,61565,1,0,0:0:0:0:
192,192,61565,1,0,0:0:0:0:
64,192,61659,1,0,0:0:0:0:
64,192,61753,1,0,0:0:0:0:
320,192,61753,1,0,0:0:0:0:
448,192,61847,128,0,61878:0:0:0:0:
320,192,61847,128,0,61878:0:0:0:0:
64,192,62003,1,0,0:0:0:0:
192,192,62034,1,0,0:0:0:0:
448,192,62065,1,0,0:0:0:0:
320,192,62097,1,0,0:0:0:0:
192,192,62128,1,0,0:0:0:0:
64,192,62175,1,0,0:0:0:0:
448,192,62222,1,0,0:0:0:0:
320,192,62268,1,0,0:0:0:0:
192,192,62315,1,0,0:0:0:0:
64,192,62409,1,0,0:0:0:0:
448,192,62409,1,0,0:0:0:0:
64,192,62503,1,0,0:0:0:0:
448,192,62503,128,0,62573:0:0:0:0:
320,192,62526,128,0,62573:0:0:0:0:
448,192,62784,128,0,62878:0:0:0:0:
320,192,62807,128,0,62878:0:0:0:0:
448,192,63065,128,0,63159:0:0:0:0:
320,192,63089,128,0,63159:0:0:0:0:
192,192,63112,128,0,63159:0:0:0:0:
448,192,63347,128,0,63464:0:0:0:0:
320,192,63370,128,0,63464:0:0:0:0:
192,192,63393,128,0,63464:0:0:0:0:
448,192,63628,128,0,63745:0:0:0:0:
320,192,63651,128,0,63745:0:0:0:0:
192,192,63675,128,0,63745:0:0:0:0:
64,192,63698,128,0,63745:0:0:0:0:
448,192,63909,128,0,64026:0:0:0:0:
320,192,63932,128,0,64026:0:0:0:0:
192,192,63956,128,0,64026:0:0:0:0:
64,192,64003,128,0,64097:0:0:0:0:
320,192,64097,128,0,64190:0:0:0:0:
448,192,64097,1,0,0:0:0:0:
192,192,64190,128,0,64378:0:0:0:0:
64,192,64190,1,0,0:0:0:0:
320,192,64284,128,0,64472:0:0:0:0:
448,192,64378,128,0,64565:0:0:0:0:
64,192,64378,1,0,0:0:0:0:
64,192,64472,128,0,64565:0:0:0:0:
192,192,64565,128,0,64753:0:0:0:0:
320,192,64565,128,0,64659:0:0:0:0:
64,192,64659,128,0,64753:0:0:0:0:
448,192,64659,1,0,0:0:0:0:
448,192,64847,128,0,64987:0:0:0:0:
320,192,64847,128,0,65128:0:0:0:0:
192,192,64847,1,0,0:0:0:0:
64,192,65034,128,0,65128:0:0:0:0:
448,192,65128,128,0,65222:0:0:0:0:
320,192,65222,1,0,0:0:0:0:
192,192,65222,128,0,65503:0:0:0:0:
64,192,65222,128,0,65362:0:0:0:0:
448,192,65409,128,0,65503:0:0:0:0:
64,192,65503,128,0,65597:0:0:0:0:
448,192,65597,128,0,65737:0:0:0:0:
320,192,65597,128,0,65878:0:0:0:0:
192,192,65597,1,0,0:0:0:0:
64,192,65784,128,0,65878:0:0:0:0:
448,192,65878,128,0,65972:0:0:0:0:
320,192,65972,1,0,0:0:0:0:
192,192,65972,128,0,66253:0:0:0:0:
64,192,65972,128,0,66112:0:0:0:0:
448,192,66159,128,0,66253:0:0:0:0:
64,192,66253,128,0,66347:0:0:0:0:
192,192,66347,1,0,0:0:0:0:
448,192,66347,128,0,66628:0:0:0:0:
320,192,66347,128,0,66487:0:0:0:0:
192,192,66534,128,0,66628:0:0:0:0:
320,192,66628,128,0,66722:0:0:0:0:
192,192,66722,128,0,66862:0:0:0:0:
64,192,66722,128,0,67003:0:0:0:0:
448,192,66722,1,0,0:0:0:0:
320,192,66909,128,0,67003:0:0:0:0:
192,192,67003,128,0,67097:0:0:0:0:
64,192,67097,1,0,0:0:0:0:
448,192,67097,128,0,67378:0:0:0:0:
320,192,67097,128,0,67237:0:0:0:0:
192,192,67284,128,0,67378:0:0:0:0:
320,192,67378,128,0,67472:0:0:0:0:
64,192,67472,1,0,0:0:0:0:
64,192,67659,1,0,0:0:0:0:
64,192,67784,1,0,0:0:0:0:
448,192,67847,128,0,67878:0:0:0:0:
320,192,67847,128,0,67878:0:0:0:0:
64,192,68003,1,0,0:0:0:0:
192,192,68034,1,0,0:0:0:0:
320,192,68065,1,0,0:0:0:0:
448,192,68097,1,0,0:0:0:0:
192,192,68128,1,0,0:0:0:0:
64,192,68175,1,0,0:0:0:0:
320,192,68222,128,0,68315:0:0:0:0:
448,192,68409,1,0,0:0:0:0:
64,192,68409,1,0,0:0:0:0:
64,192,68503,128,0,68573:0:0:0:0:
448,192,68503,1,0,0:0:0:0:
192,192,68526,128,0,68573:0:0:0:0:
64,192,68784,128,0,68878:0:0:0:0:
192,192,68807,128,0,68878:0:0:0:0:
64,192,69065,128,0,69159:0:0:0:0:
192,192,69089,128,0,69159:0:0:0:0:
320,192,69112,128,0,69159:0:0:0:0:
448,192,69347,1,0,0:0:0:0:
192,192,69347,1,0,0:0:0:0:
320,192,69440,128,0,69557:0:0:0:0:
448,192,69440,1,0,0:0:0:0:
192,192,69464,128,0,69557:0:0:0:0:
64,192,69487,128,0,69557:0:0:0:0:
448,192,69722,128,0,69839:0:0:0:0:
320,192,69745,128,0,69839:0:0:0:0:
192,192,69768,128,0,69839:0:0:0:0:
64,192,69792,128,0,69839:0:0:0:0:
320,192,69909,128,0,70097:0:0:0:0:
448,192,70003,1,0,0:0:0:0:
192,192,70026,128,0,70097:0:0:0:0:
64,192,70050,128,0,70097:0:0:0:0:
448,192,70097,128,0,70190:0:0:0:0:
320,192,70190,128,0,70378:0:0:0:0:
64,192,70190,1,0,0:0:0:0:
448,192,70284,128,0,70378:0:0:0:0:
64,192,70378,128,0,70565:0:0:0:0:
192,192,70378,1,0,0:0:0:0:
192,192,70472,128,0,70565:0:0:0:0:
320,192,70472,128,0,70565:0:0:0:0:
448,192,70565,128,0,70753:0:0:0:0:
192,192,70659,128,0,70753:0:0:0:0:
64,192,70659,1,0,0:0:0:0:
192,192,70847,128,0,71128:0:0:0:0:
64,192,70847,128,0,70987:0:0:0:0:
320,192,70847,1,0,0:0:0:0:
448,192,71034,128,0,71128:0:0:0:0:
64,192,71128,128,0,71222:0:0:0:0:
448,192,71222,128,0,71362:0:0:0:0:
320,192,71222,128,0,71503:0:0:0:0:
192,192,71222,1,0,0:0:0:0:
64,192,71409,128,0,71503:0:0:0:0:
448,192,71503,128,0,71597:0:0:0:0:
320,192,71597,1,0,0:0:0:0:
192,192,71597,128,0,71878:0:0:0:0:
64,192,71597,128,0,71737:0:0:0:0:
448,192,71784,128,0,71878:0:0:0:0:
64,192,71878,128,0,71972:0:0:0:0:
448,192,71972,128,0,72112:0:0:0:0:
320,192,71972,128,0,72253:0:0:0:0:
192,192,71972,1,0,0:0:0:0:
64,192,72159,128,0,72253:0:0:0:0:
448,192,72253,128,0,72347:0:0:0:0:
192,192,72347,128,0,72487:0:0:0:0:
64,192,72347,128,0,72628:0:0:0:0:
320,192,72347,1,0,0:0:0:0:
320,192,72534,128,0,72628:0:0:0:0:
448,192,72722,1,0,0:0:0:0:
64,192,72722,128,0,73003:0:0:0:0:
192,192,72722,128,0,72862:0:0:0:0:
320,192,72909,128,0,73003:0:0:0:0:
320,192,73097,128,0,73237:0:0:0:0:
448,192,73097,128,0,73378:0:0:0:0:
64,192,73097,128,0,73190:0:0:0:0:
64,192,73284,128,0,73378:0:0:0:0:
192,192,73315,1,0,0:0:0:0:
320,192,73347,1,0,0:0:0:0:
192,192,73472,1,0,0:0:0:0:
320,192,73472,1,0,0:0:0:0:
192,192,73659,128,0,73690:0:0:0:0:
320,192,73659,128,0,73690:0:0:0:0:
448,192,73659,128,0,73690:0:0:0:0:
64,192,73847,128,0,73878:0:0:0:0:
192,192,73847,128,0,73878:0:0:0:0:
448,192,74003,1,0,0:0:0:0:
320,192,74034,1,0,0:0:0:0:
192,192,74065,1,0,0:0:0:0:
64,192,74097,1,0,0:0:0:0:
320,192,74128,1,0,0:0:0:0:
448,192,74175,1,0,0:0:0:0:
64,192,74222,1,0,0:0:0:0:
192,192,74268,1,0,0:0:0:0:
320,192,74315,1,0,0:0:0:0:
448,192,74409,1,0,0:0:0:0:
64,192,74409,1,0,0:0:0:0:
448,192,74503,1,0,0:0:0:0:
64,192,74503,128,0,74573:0:0:0:0:
192,192,74526,128,0,74573:0:0:0:0:
64,192,74784,128,0,74878:0:0:0:0:
192,192,74807,128,0,74878:0:0:0:0:
64,192,75065,128,0,75159:0:0:0:0:
192,192,75089,128,0,75159:0:0:0:0:
320,192,75112,128,0,75159:0:0:0:0:
64,192,75347,128,0,75464:0:0:0:0:
192,192,75370,128,0,75464:0:0:0:0:
320,192,75393,128,0,75464:0:0:0:0:
64,192,75628,128,0,75745:0:0:0:0:
192,192,75651,128,0,75745:0:0:0:0:
320,192,75675,128,0,75745:0:0:0:0:
448,192,75698,128,0,75745:0:0:0:0:
64,192,75909,128,0,76026:0:0:0:0:
192,192,75932,128,0,76026:0:0:0:0:
320,192,75956,128,0,76026:0:0:0:0:
448,192,76003,128,0,76097:0:0:0:0:
192,192,76097,128,0,76190:0:0:0:0:
64,192,76097,1,0,0:0:0:0:
320,192,76190,128,0,76378:0:0:0:0:
448,192,76190,1,0,0:0:0:0:
192,192,76284,128,0,76472:0:0:0:0:
64,192,76378,128,0,76565:0:0:0:0:
448,192,76378,1,0,0:0:0:0:
448,192,76472,128,0,76565:0:0:0:0:
320,192,76565,128,0,76753:0:0:0:0:
192,192,76565,128,0,76659:0:0:0:0:
448,192,76659,128,0,76753:0:0:0:0:
64,192,76659,1,0,0:0:0:0:
320,192,76847,1,0,0:0:0:0:
64,192,76847,128,0,76987:0:0:0:0:
192,192,76847,128,0,77128:0:0:0:0:
448,192,77034,128,0,77128:0:0:0:0:
64,192,77128,128,0,77222:0:0:0:0:
192,192,77222,1,0,0:0:0:0:
320,192,77222,128,0,77503:0:0:0:0:
448,192,77222,128,0,77362:0:0:0:0:
64,192,77409,128,0,77503:0:0:0:0:
448,192,77503,128,0,77597:0:0:0:0:
64,192,77597,128,0,77737:0:0:0:0:
192,192,77597,128,0,77878:0:0:0:0:
320,192,77597,1,0,0:0:0:0:
448,192,77784,128,0,77878:0:0:0:0:
64,192,77878,128,0,77972:0:0:0:0:
192,192,77972,1,0,0:0:0:0:
320,192,77972,128,0,78253:0:0:0:0:
448,192,77972,128,0,78112:0:0:0:0:
64,192,78159,128,0,78253:0:0:0:0:
448,192,78253,128,0,78347:0:0:0:0:
320,192,78347,128,0,78378:0:0:0:0:
192,192,78347,128,0,78378:0:0:0:0:
64,192,78440,128,0,78472:0:0:0:0:
64,192,78534,128,0,78565:0:0:0:0:
192,192,78628,128,0,78663:0:0:0:0:
192,192,78722,128,0,78757:0:0:0:0:
64,192,78815,128,0,78847:0:0:0:0:
448,192,78815,128,0,78847:0:0:0:0:
320,192,78909,128,0,78956:0:0:0:0:
320,192,79003,128,0,79050:0:0:0:0:
448,192,79097,128,0,79128:0:0:0:0:
192,192,79097,128,0,79128:0:0:0:0:
64,192,79190,128,0,79237:0:0:0:0:
64,192,79284,128,0,79347:0:0:0:0:
448,192,79284,128,0,79347:0:0:0:0:
448,192,79378,128,0,79440:0:0:0:0:
64,192,79378,128,0,79440:0:0:0:0:
320,192,79472,1,0,0:0:0:0:
320,192,79659,1,0,0:0:0:0:
320,192,79784,1,0,0:0:0:0:
192,192,79847,128,0,79878:0:0:0:0:
64,192,79847,128,0,79878:0:0:0:0:
448,192,80003,1,0,0:0:0:0:
320,192,80034,1,0,0:0:0:0:
192,192,80065,1,0,0:0:0:0:
64,192,80097,1,0,0:0:0:0:
320,192,80128,1,0,0:0:0:0:
448,192,80175,1,0,0:0:0:0:
192,192,80222,128,0,80315:0:0:0:0:
64,192,80409,1,0,0:0:0:0:
448,192,80409,1,0,0:0:0:0:
448,192,80503,128,0,80573:0:0:0:0:
64,192,80503,1,0,0:0:0:0:
320,192,80526,128,0,80573:0:0:0:0:
448,192,80784,128,0,80878:0:0:0:0:
320,192,80807,128,0,80878:0:0:0:0:
448,192,81065,128,0,81159:0:0:0:0:
320,192,81089,128,0,81159:0:0:0:0:
192,192,81112,128,0,81159:0:0:0:0:
64,192,81347,1,0,0:0:0:0:
320,192,81347,1,0,0:0:0:0:
192,192,81440,128,0,81557:0:0:0:0:
64,192,81440,1,0,0:0:0:0:
320,192,81464,128,0,81557:0:0:0:0:
448,192,81487,128,0,81557:0:0:0:0:
64,192,81722,128,0,81839:0:0:0:0:
192,192,81745,128,0,81839:0:0:0:0:
320,192,81768,128,0,81839:0:0:0:0:
448,192,81792,128,0,81839:0:0:0:0:
192,192,81909,128,0,82097:0:0:0:0:
64,192,82003,1,0,0:0:0:0:
320,192,82026,128,0,82097:0:0:0:0:
448,192,82050,128,0,82097:0:0:0:0:
64,192,82097,128,0,82190:0:0:0:0:
448,192,82190,1,0,0:0:0:0:
192,192,82190,128,0,82378:0:0:0:0:
64,192,82284,128,0,82378:0:0:0:0:
320,192,82378,1,0,0:0:0:0:
448,192,82378,128,0,82472:0:0:0:0:
192,192,82472,128,0,82565:0:0:0:0:
320,192,82472,128,0,82565:0:0:0:0:
448,192,82565,1,0,0:0:0:0:
64,192,82565,128,0,82753:0:0:0:0:
320,192,82659,128,0,82753:0:0:0:0:
448,192,82659,128,0,82706:0:0:0:0:
192,192,82847,128,0,83128:0:0:0:0:
64,192,82847,128,0,82987:0:0:0:0:
320,192,82847,1,0,0:0:0:0:
448,192,83034,128,0,83128:0:0:0:0:
64,192,83128,128,0,83222:0:0:0:0:
448,192,83222,128,0,83362:0:0:0:0:
320,192,83222,128,0,83503:0:0:0:0:
192,192,83222,1,0,0:0:0:0:
64,192,83409,128,0,83503:0:0:0:0:
448,192,83503,128,0,83597:0:0:0:0:
320,192,83597,1,0,0:0:0:0:
192,192,83597,128,0,83878:0:0:0:0:
64,192,83597,128,0,83737:0:0:0:0:
448,192,83784,128,0,83878:0:0:0:0:
64,192,83878,128,0,83972:0:0:0:0:
448,192,83972,128,0,84112:0:0:0:0:
320,192,83972,128,0,84253:0:0:0:0:
192,192,83972,1,0,0:0:0:0:
64,192,84159,128,0,84253:0:0:0:0:
448,192,84253,128,0,84347:0:0:0:0:
192,192,84347,128,0,84440:0:0:0:0:
64,192,84347,128,0,84534:0:0:0:0:
320,192,84347,1,0,0:0:0:0:
320,192,84628,1,0,0:0:0:0:
64,192,84628,128,0,84745:0:0:0:0:
192,192,84628,128,0,84698:0:0:0:0:
192,192,84909,128,0,84956:0:0:0:0:
64,192,84909,128,0,85003:0:0:0:0:
320,192,84909,1,0,0:0:0:0:
320,192,85190,1,0,0:0:0:0:
192,192,85190,128,0,85237:0:0:0:0:
64,192,85190,128,0,85261:0:0:0:0:
192,192,85472,1,0,0:0:0:0:
64,192,85472,1,0,0:0:0:0:
64,192,85847,1,0,0:0:0:0:
320,192,85847,128,0,85893:0:0:0:0:
448,192,86222,1,0,0:0:0:0:
192,192,86503,128,0,86550:0:0:0:0:
448,192,86597,128,0,86643:0:0:0:0:
64,192,86784,128,0,86831:0:0:0:0:
320,192,86972,1,0,0:0:0:0:
448,192,86972,128,0,87018:0:0:0:0:
192,192,87159,128,0,87206:0:0:0:0:
64,192,87347,1,0,0:0:0:0:
320,192,87347,128,0,87393:0:0:0:0:
192,192,87722,1,0,0:0:0:0:
192,192,88003,128,0,88065:0:0:0:0:
448,192,88097,128,0,88159:0:0:0:0:
64,192,88284,128,0,88347:0:0:0:0:
320,192,88472,1,0,0:0:0:0:
448,192,88472,128,0,88534:0:0:0:0:
192,192,88659,128,0,88722:0:0:0:0:
64,192,88847,1,0,0:0:0:0:
320,192,88847,128,0,88909:0:0:0:0:
192,192,89222,1,0,0:0:0:0:
192,192,89503,128,0,89573:0:0:0:0:
448,192,89597,128,0,89667:0:0:0:0:
64,192,89784,128,0,89854:0:0:0:0:
320,192,89972,1,0,0:0:0:0:
448,192,89972,128,0,90042:0:0:0:0:
192,192,90159,128,0,90229:0:0:0:0:
448,192,90347,1,0,0:0:0:0:
64,192,90347,128,0,90417:0:0:0:0:
192,192,90534,128,0,90604:0:0:0:0:
320,192,90628,128,0,90698:0:0:0:0:
64,192,90722,1,0,0:0:0:0:
448,192,90722,128,0,90792:0:0:0:0:
320,192,91003,128,0,91073:0:0:0:0:
448,192,91097,1,0,0:0:0:0:
192,192,91378,128,0,91448:0:0:0:0:
320,192,91472,1,0,0:0:0:0:
64,192,91659,128,0,91729:0:0:0:0:
64,192,91847,1,0,0:0:0:0:
320,192,91847,128,0,91917:0:0:0:0:
448,192,92222,1,0,0:0:0:0:
192,192,92503,128,0,92573:0:0:0:0:
448,192,92597,128,0,92667:0:0:0:0:
64,192,92784,128,0,92854:0:0:0:0:
320,192,92972,1,0,0:0:0:0:
448,192,92972,128,0,93042:0:0:0:0:
192,192,93159,128,0,93229:0:0:0:0:
64,192,93347,1,0,0:0:0:0:
320,192,93347,128,0,93417:0:0:0:0:
192,192,93722,1,0,0:0:0:0:
192,192,94003,128,0,94097:0:0:0:0:
448,192,94097,128,0,94190:0:0:0:0:
64,192,94284,128,0,94378:0:0:0:0:
320,192,94472,1,0,0:0:0:0:
448,192,94472,128,0,94565:0:0:0:0:
192,192,94659,128,0,94753:0:0:0:0:
64,192,94847,1,0,0:0:0:0:
320,192,94847,128,0,94940:0:0:0:0:
192,192,95222,1,0,0:0:0:0:
192,192,95503,128,0,95597:0:0:0:0:
448,192,95597,128,0,95690:0:0:0:0:
64,192,95784,128,0,95878:0:0:0:0:
320,192,95972,1,0,0:0:0:0:
448,192,95972,128,0,96065:0:0:0:0:
192,192,96159,128,0,96253:0:0:0:0:
448,192,96347,1,0,0:0:0:0:
64,192,96347,128,0,96440:0:0:0:0:
192,192,96534,128,0,96628:0:0:0:0:
320,192,96628,128,0,96722:0:0:0:0:
64,192,96722,5,0,0:0:0:0:
448,192,96722,128,0,96815:0:0:0:0:
192,192,97003,128,0,97097:0:0:0:0:
64,192,97097,1,0,0:0:0:0:
320,192,97378,128,0,97472:0:0:0:0:
192,192,97472,1,0,0:0:0:0:
448,192,97659,128,0,97753:0:0:0:0:
320,192,97847,128,0,98503:0:0:0:0:
64,192,97847,1,0,0:0:0:0:
192,192,97847,128,0,98128:0:0:0:0:
192,192,98222,1,0,0:0:0:0:
448,192,98222,1,0,0:0:0:0:
192,192,98597,128,0,99159:0:0:0:0:
448,192,98597,1,0,0:0:0:0:
320,192,98597,128,0,98878:0:0:0:0:
64,192,98972,1,0,0:0:0:0:
320,192,98972,1,0,0:0:0:0:
320,192,99159,128,0,99206:0:0:0:0:
64,192,99206,128,0,99253:0:0:0:0:
448,192,99253,128,0,99300:0:0:0:0:
192,192,99300,128,0,99347:0:0:0:0:
320,192,99347,128,0,100003:0:0:0:0:
64,192,99347,128,0,99628:0:0:0:0:
448,192,99440,128,0,99487:0:0:0:0:
64,192,99722,1,0,0:0:0:0:
448,192,99722,1,0,0:0:0:0:
320,192,100097,1,0,0:0:0:0:
192,192,100097,128,0,100753:0:0:0:0:
448,192,100097,128,0,100378:0:0:0:0:
64,192,100472,1,0,0:0:0:0:
448,192,100472,1,0,0:0:0:0:
320,192,100847,128,0,101503:0:0:0:0:
192,192,100847,128,0,101128:0:0:0:0:
64,192,100940,128,0,100987:0:0:0:0:
192,192,101222,1,0,0:0:0:0:
448,192,101222,1,0,0:0:0:0:
192,192,101597,128,0,102253:0:0:0:0:
320,192,101597,1,0,0:0:0:0:
448,192,101597,128,0,101878:0:0:0:0:
64,192,101972,1,0,0:0:0:0:
448,192,101972,1,0,0:0:0:0:
192,192,102347,1,0,0:0:0:0:
320,192,102347,128,0,103003:0:0:0:0:
64,192,102347,128,0,102628:0:0:0:0:
64,192,102722,1,0,0:0:0:0:
448,192,102722,1,0,0:0:0:0:
192,192,103097,128,0,103753:0:0:0:0:
320,192,103097,128,0,103378:0:0:0:0:
448,192,103190,128,0,103237:0:0:0:0:
64,192,103472,1,0,0:0:0:0:
320,192,103472,1,0,0:0:0:0:
320,192,103847,128,0,103893:0:0:0:0:
64,192,103847,128,0,103893:0:0:0:0:
448,192,103847,128,0,103893:0:0:0:0:
192,192,103940,128,0,103987:0:0:0:0:
320,192,104034,128,0,104081:0:0:0:0:
64,192,104128,128,0,104186:0:0:0:0:
448,192,104128,128,0,104186:0:0:0:0:
192,192,104222,128,0,104280:0:0:0:0:
64,192,104315,128,0,104374:0:0:0:0:
448,192,104409,128,0,104479:0:0:0:0:
192,192,104409,128,0,104479:0:0:0:0:
320,192,104503,128,0,104573:0:0:0:0:
448,192,104597,128,0,104667:0:0:0:0:
64,192,104690,128,0,104772:0:0:0:0:
320,192,104690,128,0,104772:0:0:0:0:
192,192,104784,128,0,104866:0:0:0:0:
64,192,104878,128,0,104960:0:0:0:0:
192,192,104972,128,0,105065:0:0:0:0:
320,192,104972,128,0,105065:0:0:0:0:
448,192,105065,128,0,105159:0:0:0:0:
64,192,105159,128,0,105253:0:0:0:0:
192,192,105253,128,0,105358:0:0:0:0:
448,192,105253,128,0,105358:0:0:0:0:
320,192,105347,128,0,105452:0:0:0:0:
192,192,105440,128,0,105546:0:0:0:0:
448,192,105534,128,0,105651:0:0:0:0:
320,192,105534,128,0,105651:0:0:0:0:
64,192,105628,128,0,105745:0:0:0:0:
192,192,105722,128,0,105839:0:0:0:0:
448,192,105815,128,0,105944:0:0:0:0:
64,192,105815,128,0,105944:0:0:0:0:
320,192,105909,128,0,106038:0:0:0:0:
192,192,106003,128,0,106132:0:0:0:0:
448,192,106097,128,0,106237:0:0:0:0:
64,192,106097,128,0,106237:0:0:0:0:
192,192,106190,128,0,106331:0:0:0:0:
320,192,106284,128,0,106425:0:0:0:0:
448,192,106378,128,0,106518:0:0:0:0:
64,192,106378,128,0,106518:0:0:0:0:
192,192,106472,128,0,106612:0:0:0:0:
64,192,106565,128,0,106706:0:0:0:0:
192,192,106659,128,0,106800:0:0:0:0:
448,192,106659,128,0,106800:0:0:0:0:
320,192,106753,128,0,106893:0:0:0:0:
192,192,106847,128,0,106987:0:0:0:0:
64,192,106847,128,0,106987:0:0:0:0:
320,192,106940,128,0,107081:0:0:0:0:
448,192,107034,128,0,107175:0:0:0:0:
64,192,107034,128,0,107175:0:0:0:0:
192,192,107128,128,0,107268:0:0:0:0:
320,192,107222,128,0,107362:0:0:0:0:
64,192,107222,128,0,107362:0:0:0:0:
448,192,107315,128,0,107456:0:0:0:0:
320,192,107409,128,0,107550:0:0:0:0:
64,192,107409,128,0,107550:0:0:0:0:
192,192,107503,128,0,107643:0:0:0:0:
448,192,107597,1,0,0:0:0:0:
320,192,107597,128,0,107737:0:0:0:0:
448,192,107690,128,0,107831:0:0:0:0:
64,192,107784,1,0,0:0:0:0:
192,192,107784,128,0,107925:0:0:0:0:
64,192,107878,128,0,108018:0:0:0:0:
320,192,107972,1,0,0:0:0:0:
192,192,107972,128,0,108112:0:0:0:0:
320,192,108065,128,0,108206:0:0:0:0:
192,192,108159,1,0,0:0:0:0:
448,192,108159,128,0,108300:0:0:0:0:
192,192,108253,128,0,108347:0:0:0:0:
320,192,108534,128,0,108722:0:0:0:0:
64,192,108628,128,0,108722:0:0:0:0:
192,192,108722,128,0,108909:0:0:0:0:
64,192,108815,128,0,109003:0:0:0:0:
320,192,108909,128,0,109003:0:0:0:0:
448,192,108972,1,0,0:0:0:0:
192,192,109003,128,0,109097:0:0:0:0:
320,192,109034,1,0,0:0:0:0:
64,192,109097,128,0,109190:0:0:0:0:
448,192,109097,128,0,109284:0:0:0:0:
192,192,109190,1,0,0:0:0:0:
320,192,109284,128,0,109378:0:0:0:0:
192,192,109284,128,0,109472:0:0:0:0:
448,192,109378,1,0,0:0:0:0:
64,192,109472,1,0,0:0:0:0:
320,192,109472,1,0,0:0:0:0:
448,192,109472,1,0,0:0:0:0:
64,192,109659,128,0,109690:0:0:0:0:
192,192,109659,128,0,109690:0:0:0:0:
320,192,109659,128,0,109690:0:0:0:0:
192,192,109847,128,0,109972:0:0:0:0:
64,192,109847,128,0,109909:0:0:0:0:
320,192,109847,128,0,110034:0:0:0:0:
64,192,109972,128,0,110159:0:0:0:0:
192,192,110034,128,0,110159:0:0:0:0:
320,192,110097,128,0,110159:0:0:0:0:
320,192,110222,1,0,0:0:0:0:
448,192,110222,128,0,110315:0:0:0:0:
192,192,110222,128,0,110315:0:0:0:0:
320,192,110409,128,0,110456:0:0:0:0:
192,192,110503,1,0,0:0:0:0:
192,192,110597,128,0,110784:0:0:0:0:
320,192,110597,128,0,110690:0:0:0:0:
64,192,110597,1,0,0:0:0:0:
320,192,110784,128,0,110878:0:0:0:0:
64,192,110784,128,0,110878:0:0:0:0:
192,192,110972,128,0,111159:0:0:0:0:
64,192,110972,1,0,0:0:0:0:
448,192,110972,128,0,111065:0:0:0:0:
448,192,111159,128,0,111253:0:0:0:0:
64,192,111159,128,0,111253:0:0:0:0:
192,192,111347,128,0,111534:0:0:0:0:
448,192,111347,128,0,111409:0:0:0:0:
320,192,111347,128,0,111472:0:0:0:0:
448,192,111472,128,0,111659:0:0:0:0:
320,192,111534,128,0,111659:0:0:0:0:
192,192,111597,128,0,111659:0:0:0:0:
64,192,111722,1,0,0:0:0:0:
192,192,111722,128,0,111815:0:0:0:0:
320,192,111722,128,0,111815:0:0:0:0:
64,192,111909,128,0,111956:0:0:0:0:
320,192,112003,1,0,0:0:0:0:
64,192,112097,128,0,112190:0:0:0:0:
448,192,112097,1,0,0:0:0:0:
320,192,112097,128,0,112284:0:0:0:0:
64,192,112284,128,0,112378:0:0:0:0:
448,192,112284,128,0,112378:0:0:0:0:
192,192,112378,1,0,0:0:0:0:
192,192,112472,1,0,0:0:0:0:
448,192,112472,128,0,112659:0:0:0:0:
320,192,112472,1,0,0:0:0:0:
320,192,112659,128,0,112753:0:0:0:0:
64,192,112659,128,0,112753:0:0:0:0:
320,192,112847,128,0,112972:0:0:0:0:
192,192,112847,128,0,112909:0:0:0:0:
448,192,112847,128,0,113034:0:0:0:0:
192,192,112972,128,0,113159:0:0:0:0:
320,192,113034,128,0,113159:0:0:0:0:
448,192,113097,128,0,113159:0:0:0:0:
192,192,113222,128,0,113315:0:0:0:0:
64,192,113222,1,0,0:0:0:0:
448,192,113222,128,0,113315:0:0:0:0:
448,192,113409,128,0,113503:0:0:0:0:
192,192,113409,128,0,113503:0:0:0:0:
64,192,113597,128,0,113690:0:0:0:0:
192,192,113597,1,0,0:0:0:0:
320,192,113597,128,0,113784:0:0:0:0:
64,192,113784,128,0,113878:0:0:0:0:
448,192,113784,128,0,113878:0:0:0:0:
448,192,113972,128,0,114159:0:0:0:0:
64,192,113972,1,0,0:0:0:0:
192,192,113972,128,0,114065:0:0:0:0:
320,192,114159,128,0,114253:0:0:0:0:
192,192,114159,128,0,114253:0:0:0:0:
192,192,114347,128,0,114534:0:0:0:0:
448,192,114347,128,0,114440:0:0:0:0:
320,192,114347,128,0,114581:0:0:0:0:
64,192,114534,128,0,114628:0:0:0:0:
448,192,114534,128,0,114628:0:0:0:0:
192,192,114628,128,0,114722:0:0:0:0:
448,192,114722,1,0,0:0:0:0:
64,192,114722,1,0,0:0:0:0:
320,192,114722,1,0,0:0:0:0:
320,192,114815,128,0,114909:0:0:0:0:
64,192,114815,128,0,114909:0:0:0:0:
448,192,114909,1,0,0:0:0:0:
192,192,115003,1,0,0:0:0:0:
448,192,115097,1,0,0:0:0:0:
192,192,115097,1,0,0:0:0:0:
320,192,115097,1,0,0:0:0:0:
320,192,115190,128,0,115284:0:0:0:0:
192,192,115284,128,0,115378:0:0:0:0:
64,192,115472,1,0,0:0:0:0:
192,192,115472,1,0,0:0:0:0:
320,192,115472,1,0,0:0:0:0:
192,192,115565,128,0,115753:0:0:0:0:
320,192,115659,128,0,115706:0:0:0:0:
448,192,115753,128,0,115815:0:0:0:0:
64,192,115847,128,0,116034:0:0:0:0:
320,192,115847,128,0,115909:0:0:0:0:
192,192,115847,128,0,115972:0:0:0:0:
320,192,115972,128,0,116159:0:0:0:0:
192,192,116034,128,0,116159:0:0:0:0:
64,192,116097,128,0,116159:0:0:0:0:
192,192,116222,128,0,116315:0:0:0:0:
320,192,116222,128,0,116315:0:0:0:0:
448,192,116222,1,0,0:0:0:0:
64,192,116409,128,0,116456:0:0:0:0:
448,192,116503,1,0,0:0:0:0:
320,192,116597,128,0,116784:0:0:0:0:
448,192,116597,1,0,0:0:0:0:
64,192,116597,128,0,116690:0:0:0:0:
192,192,116784,128,0,116878:0:0:0:0:
64,192,116784,128,0,116878:0:0:0:0:
320,192,116972,128,0,117159:0:0:0:0:
448,192,116972,128,0,117065:0:0:0:0:
64,192,116972,1,0,0:0:0:0:
448,192,117159,128,0,117253:0:0:0:0:
192,192,117159,128,0,117253:0:0:0:0:
192,192,117347,128,0,117472:0:0:0:0:
64,192,117347,128,0,117409:0:0:0:0:
448,192,117347,128,0,117534:0:0:0:0:
64,192,117472,128,0,117659:0:0:0:0:
192,192,117534,128,0,117628:0:0:0:0:
320,192,117534,128,0,117628:0:0:0:0:
448,192,117597,128,0,117659:0:0:0:0:
64,192,117722,1,0,0:0:0:0:
192,192,117722,1,0,0:0:0:0:
320,192,117722,1,0,0:0:0:0:
320,192,117909,128,0,118003:0:0:0:0:
192,192,117909,128,0,118003:0:0:0:0:
448,192,118097,128,0,118190:0:0:0:0:
192,192,118097,1,0,0:0:0:0:
320,192,118097,128,0,118284:0:0:0:0:
64,192,118190,1,0,0:0:0:0:
448,192,118284,128,0,118378:0:0:0:0:
64,192,118284,128,0,118378:0:0:0:0:
320,192,118472,128,0,118659:0:0:0:0:
192,192,118472,128,0,118565:0:0:0:0:
64,192,118472,1,0,0:0:0:0:
448,192,118659,128,0,118753:0:0:0:0:
192,192,118659,128,0,118753:0:0:0:0:
320,192,118753,1,0,0:0:0:0:
320,192,118847,128,0,119034:0:0:0:0:
64,192,118847,128,0,118909:0:0:0:0:
192,192,118847,128,0,118972:0:0:0:0:
64,192,118972,128,0,119159:0:0:0:0:
192,192,119034,128,0,119159:0:0:0:0:
320,192,119097,128,0,119159:0:0:0:0:
192,192,119222,128,0,119315:0:0:0:0:
448,192,119222,128,0,119315:0:0:0:0:
320,192,119222,1,0,0:0:0:0:
320,192,119409,128,0,119456:0:0:0:0:
192,192,119503,1,0,0:0:0:0:
320,192,119597,1,0,0:0:0:0:
192,192,119597,128,0,119784:0:0:0:0:
64,192,119597,128,0,119690:0:0:0:0:
64,192,119784,128,0,119878:0:0:0:0:
448,192,119784,128,0,119878:0:0:0:0:
448,192,119972,128,0,120159:0:0:0:0:
64,192,119972,1,0,0:0:0:0:
192,192,119972,128,0,120065:0:0:0:0:
320,192,120159,128,0,120253:0:0:0:0:
192,192,120159,128,0,120253:0:0:0:0:
320,192,120347,128,0,120472:0:0:0:0:
448,192,120347,128,0,120409:0:0:0:0:
192,192,120347,128,0,120534:0:0:0:0:
448,192,120472,128,0,120659:0:0:0:0:
320,192,120534,128,0,120659:0:0:0:0:
192,192,120597,128,0,120659:0:0:0:0:
320,192,120722,128,0,120886:0:0:0:0:
64,192,120722,128,0,120792:0:0:0:0:
192,192,120722,128,0,120839:0:0:0:0:
64,192,120839,128,0,121003:0:0:0:0:
192,192,120886,128,0,121003:0:0:0:0:
320,192,120932,128,0,121003:0:0:0:0:
64,192,121097,128,0,121143:0:0:0:0:
448,192,121097,128,0,121237:0:0:0:0:
192,192,121097,128,0,121190:0:0:0:0:
64,192,121190,128,0,121378:0:0:0:0:
320,192,121284,1,0,0:0:0:0:
448,192,121284,128,0,121378:0:0:0:0:
320,192,121378,1,0,0:0:0:0:
192,192,121378,1,0,0:0:0:0:
448,192,121472,1,0,0:0:0:0:
192,192,121472,1,0,0:0:0:0:
64,192,121472,1,0,0:0:0:0:
192,192,121659,128,0,121690:0:0:0:0:
320,192,121659,128,0,121690:0:0:0:0:
448,192,121659,128,0,121690:0:0:0:0:
192,192,121847,128,0,122034:0:0:0:0:
448,192,121847,128,0,121909:0:0:0:0:
320,192,121847,128,0,121972:0:0:0:0:
448,192,121972,128,0,122159:0:0:0:0:
320,192,122034,128,0,122159:0:0:0:0:
64,192,122034,1,0,0:0:0:0:
192,192,122097,128,0,122159:0:0:0:0:
320,192,122222,128,0,122315:0:0:0:0:
64,192,122222,128,0,122315:0:0:0:0:
192,192,122222,1,0,0:0:0:0:
448,192,122409,1,0,0:0:0:0:
192,192,122409,128,0,122456:0:0:0:0:
320,192,122503,1,0,0:0:0:0:
448,192,122597,1,0,0:0:0:0:
192,192,122597,128,0,122690:0:0:0:0:
320,192,122597,128,0,122784:0:0:0:0:
448,192,122784,128,0,122878:0:0:0:0:
192,192,122784,128,0,122878:0:0:0:0:
64,192,122972,128,0,123065:0:0:0:0:
448,192,122972,1,0,0:0:0:0:
320,192,122972,128,0,123159:0:0:0:0:
448,192,123159,128,0,123253:0:0:0:0:
64,192,123159,128,0,123253:0:0:0:0:
192,192,123347,128,0,123472:0:0:0:0:
64,192,123347,128,0,123409:0:0:0:0:
320,192,123347,128,0,123534:0:0:0:0:
64,192,123472,128,0,123659:0:0:0:0:
192,192,123534,128,0,123659:0:0:0:0:
448,192,123534,1,0,0:0:0:0:
320,192,123597,128,0,123659:0:0:0:0:
192,192,123722,128,0,123815:0:0:0:0:
320,192,123722,128,0,123815:0:0:0:0:
448,192,123722,1,0,0:0:0:0:
64,192,123909,1,0,0:0:0:0:
448,192,123909,128,0,123956:0:0:0:0:
192,192,124003,1,0,0:0:0:0:
192,192,124097,128,0,124284:0:0:0:0:
64,192,124097,1,0,0:0:0:0:
448,192,124097,128,0,124190:0:0:0:0:
64,192,124284,128,0,124378:0:0:0:0:
448,192,124284,128,0,124378:0:0:0:0:
320,192,124378,1,0,0:0:0:0:
192,192,124472,1,0,0:0:0:0:
64,192,124472,128,0,124659:0:0:0:0:
320,192,124472,1,0,0:0:0:0:
448,192,124659,128,0,124753:0:0:0:0:
192,192,124659,128,0,124753:0:0:0:0:
64,192,124847,128,0,125034:0:0:0:0:
320,192,124847,128,0,124909:0:0:0:0:
192,192,124847,128,0,124972:0:0:0:0:
320,192,124972,128,0,125159:0:0:0:0:
192,192,125034,128,0,125159:0:0:0:0:
448,192,125034,1,0,0:0:0:0:
64,192,125097,128,0,125159:0:0:0:0:
64,192,125222,128,0,125315:0:0:0:0:
448,192,125222,1,0,0:0:0:0:
320,192,125222,128,0,125315:0:0:0:0:
320,192,125409,128,0,125503:0:0:0:0:
64,192,125409,128,0,125503:0:0:0:0:
192,192,125597,128,0,125784:0:0:0:0:
320,192,125597,1,0,0:0:0:0:
448,192,125597,128,0,125690:0:0:0:0:
448,192,125784,128,0,125878:0:0:0:0:
64,192,125784,128,0,125878:0:0:0:0:
320,192,125972,128,0,126065:0:0:0:0:
448,192,125972,1,0,0:0:0:0:
64,192,125972,128,0,126159:0:0:0:0:
320,192,126159,128,0,126253:0:0:0:0:
192,192,126159,128,0,126253:0:0:0:0:
192,192,126347,128,0,126581:0:0:0:0:
64,192,126347,128,0,126440:0:0:0:0:
320,192,126347,128,0,126534:0:0:0:0:
64,192,126534,128,0,126628:0:0:0:0:
448,192,126534,128,0,126628:0:0:0:0:
320,192,126628,128,0,126722:0:0:0:0:
64,192,126722,1,0,0:0:0:0:
192,192,126722,1,0,0:0:0:0:
448,192,126722,1,0,0:0:0:0:
192,192,126815,128,0,126909:0:0:0:0:
64,192,126815,128,0,126909:0:0:0:0:
448,192,126909,1,0,0:0:0:0:
320,192,127003,1,0,0:0:0:0:
192,192,127097,1,0,0:0:0:0:
320,192,127097,1,0,0:0:0:0:
64,192,127097,1,0,0:0:0:0:
192,192,127190,128,0,127284:0:0:0:0:
320,192,127284,128,0,127378:0:0:0:0:
192,192,127472,1,0,0:0:0:0:
320,192,127472,1,0,0:0:0:0:
448,192,127472,1,0,0:0:0:0:
320,192,127565,128,0,127753:0:0:0:0:
192,192,127659,128,0,127706:0:0:0:0:
448,192,127659,1,0,0:0:0:0:
64,192,127753,128,0,127815:0:0:0:0:
320,192,127847,128,0,127972:0:0:0:0:
192,192,127847,128,0,127909:0:0:0:0:
448,192,127847,128,0,128034:0:0:0:0:
192,192,127972,128,0,128159:0:0:0:0:
320,192,128034,128,0,128159:0:0:0:0:
64,192,128034,1,0,0:0:0:0:
448,192,128097,128,0,128159:0:0:0:0:
64,192,128222,1,0,0:0:0:0:
192,192,128222,128,0,128315:0:0:0:0:
320,192,128222,128,0,128315:0:0:0:0:
448,192,128409,128,0,128456:0:0:0:0:
320,192,128409,1,0,0:0:0:0:
64,192,128503,1,0,0:0:0:0:
448,192,128597,128,0,128690:0:0:0:0:
64,192,128597,1,0,0:0:0:0:
192,192,128597,128,0,128784:0:0:0:0:
448,192,128784,128,0,128878:0:0:0:0:
320,192,128784,128,0,128878:0:0:0:0:
448,192,128972,1,0,0:0:0:0:
64,192,128972,128,0,129065:0:0:0:0:
192,192,128972,128,0,129159:0:0:0:0:
320,192,129159,128,0,129253:0:0:0:0:
64,192,129159,128,0,129253:0:0:0:0:
64,192,129347,128,0,129534:0:0:0:0:
448,192,129347,128,0,129409:0:0:0:0:
320,192,129347,128,0,129472:0:0:0:0:
448,192,129472,128,0,129659:0:0:0:0:
192,192,129534,128,0,129628:0:0:0:0:
320,192,129534,128,0,129628:0:0:0:0:
64,192,129597,128,0,129659:0:0:0:0:
192,192,129722,1,0,0:0:0:0:
448,192,129722,1,0,0:0:0:0:
320,192,129722,1,0,0:0:0:0:
320,192,129909,128,0,130003:0:0:0:0:
192,192,129909,128,0,130003:0:0:0:0:
192,192,130097,128,0,130284:0:0:0:0:
320,192,130097,1,0,0:0:0:0:
64,192,130097,128,0,130190:0:0:0:0:
448,192,130190,1,0,0:0:0:0:
448,192,130284,128,0,130378:0:0:0:0:
64,192,130284,128,0,130378:0:0:0:0:
448,192,130472,1,0,0:0:0:0:
320,192,130472,128,0,130565:0:0:0:0:
192,192,130472,128,0,130659:0:0:0:0:
320,192,130659,128,0,130753:0:0:0:0:
64,192,130659,128,0,130753:0:0:0:0:
192,192,130753,1,0,0:0:0:0:
320,192,130847,128,0,130972:0:0:0:0:
448,192,130847,128,0,130909:0:0:0:0:
192,192,130847,128,0,131034:0:0:0:0:
448,192,130972,128,0,131159:0:0:0:0:
320,192,131034,128,0,131159:0:0:0:0:
64,192,131034,1,0,0:0:0:0:
192,192,131097,128,0,131159:0:0:0:0:
192,192,131222,1,0,0:0:0:0:
64,192,131222,128,0,131315:0:0:0:0:
320,192,131222,128,0,131315:0:0:0:0:
448,192,131409,128,0,131456:0:0:0:0:
192,192,131409,1,0,0:0:0:0:
320,192,131503,1,0,0:0:0:0:
448,192,131597,128,0,131690:0:0:0:0:
320,192,131597,128,0,131784:0:0:0:0:
192,192,131597,1,0,0:0:0:0:
64,192,131784,128,0,131878:0:0:0:0:
192,192,131784,128,0,131878:0:0:0:0:
448,192,131847,1,0,0:0:0:0:
320,192,131909,1,0,0:0:0:0:
448,192,131972,128,0,132065:0:0:0:0:
192,192,131972,1,0,0:0:0:0:
64,192,131972,128,0,132159:0:0:0:0:
192,192,132065,1,0,0:0:0:0:
320,192,132159,128,0,132253:0:0:0:0:
448,192,132159,128,0,132253:0:0:0:0:
64,192,132253,1,0,0:0:0:0:
320,192,132347,128,0,132534:0:0:0:0:
64,192,132347,128,0,132409:0:0:0:0:
192,192,132347,128,0,132472:0:0:0:0:
64,192,132472,128,0,132659:0:0:0:0:
192,192,132534,128,0,132659:0:0:0:0:
320,192,132597,128,0,132659:0:0:0:0:
192,192,132753,128,0,132815:0:0:0:0:
448,192,132753,128,0,132815:0:0:0:0:
64,192,132753,128,0,132815:0:0:0:0:
320,192,132909,128,0,133003:0:0:0:0:
448,192,132909,128,0,132956:0:0:0:0:
192,192,132909,128,0,133050:0:0:0:0:
448,192,133050,128,0,133190:0:0:0:0:
320,192,133097,128,0,133190:0:0:0:0:
192,192,133143,128,0,133190:0:0:0:0:
64,192,133315,128,0,133378:0:0:0:0:
320,192,133315,128,0,133378:0:0:0:0:
192,192,133472,128,0,133612:0:0:0:0:
64,192,133472,128,0,133542:0:0:0:0:
320,192,133472,128,0,133706:0:0:0:0:
64,192,133636,128,0,133823:0:0:0:0:
192,192,133706,128,0,133870:0:0:0:0:
320,192,133800,128,0,133917:0:0:0:0:
320,192,134597,1,0,0:0:0:0:
448,192,134643,1,0,0:0:0:0:
192,192,134643,1,0,0:0:0:0:
320,192,135347,1,0,0:0:0:0:
192,192,136284,1,0,0:0:0:0:
64,192,136347,1,0,0:0:0:0:
448,192,136347,1,0,0:0:0:0:
320,192,136409,1,0,0:0:0:0:
448,192,136472,1,0,0:0:0:0:
192,192,136472,1,0,0:0:0:0:
64,192,136565,1,0,0:0:0:0:
192,192,136565,1,0,0:0:0:0:
448,192,136659,1,0,0:0:0:0:
64,192,136659,1,0,0:0:0:0:
448,192,136753,1,0,0:0:0:0:
192,192,136753,1,0,0:0:0:0:
320,192,136847,1,0,0:0:0:0:
320,192,139472,1,0,0:0:0:0:
320,192,139659,1,0,0:0:0:0:
64,192,139847,1,0,0:0:0:0:
448,192,139847,1,0,0:0:0:0:
448,192,139940,1,0,0:0:0:0:
192,192,140034,128,0,140081:0:0:0:0:
192,192,140128,1,0,0:0:0:0:
64,192,140222,1,0,0:0:0:0:
448,192,140222,1,0,0:0:0:0:
320,192,140315,128,0,140362:0:0:0:0:
64,192,140315,1,0,0:0:0:0:
320,192,140409,1,0,0:0:0:0:
192,192,140503,1,0,0:0:0:0:
64,192,140597,1,0,0:0:0:0:
448,192,140597,1,0,0:0:0:0:
448,192,140690,1,0,0:0:0:0:
320,192,140784,1,0,0:0:0:0:
192,192,140878,128,0,140925:0:0:0:0:
320,192,140972,1,0,0:0:0:0:
64,192,140972,1,0,0:0:0:0:
448,192,141065,128,0,141112:0:0:0:0:
64,192,141065,1,0,0:0:0:0:
448,192,141159,1,0,0:0:0:0:
192,192,141253,1,0,0:0:0:0:
64,192,141347,1,0,0:0:0:0:
320,192,141347,1,0,0:0:0:0:
320,192,141440,1,0,0:0:0:0:
192,192,141534,128,0,141581:0:0:0:0:
192,192,141628,1,0,0:0:0:0:
64,192,141722,1,0,0:0:0:0:
448,192,141722,1,0,0:0:0:0:
320,192,141815,128,0,141862:0:0:0:0:
64,192,141815,1,0,0:0:0:0:
320,192,141909,1,0,0:0:0:0:
192,192,142003,1,0,0:0:0:0:
64,192,142097,1,0,0:0:0:0:
448,192,142097,1,0,0:0:0:0:
448,192,142190,1,0,0:0:0:0:
320,192,142284,1,0,0:0:0:0:
192,192,142378,128,0,142425:0:0:0:0:
320,192,142472,1,0,0:0:0:0:
64,192,142472,1,0,0:0:0:0:
448,192,142565,128,0,142612:0:0:0:0:
64,192,142565,1,0,0:0:0:0:
448,192,142659,1,0,0:0:0:0:
192,192,142753,1,0,0:0:0:0:
64,192,142847,1,0,0:0:0:0:
320,192,142847,1,0,0:0:0:0:
320,192,142940,1,0,0:0:0:0:
192,192,143034,128,0,143081:0:0:0:0:
192,192,143128,1,0,0:0:0:0:
448,192,143222,1,0,0:0:0:0:
320,192,143222,1,0,0:0:0:0:
192,192,143315,128,0,143362:0:0:0:0:
448,192,143315,1,0,0:0:0:0:
192,192,143409,1,0,0:0:0:0:
320,192,143503,1,0,0:0:0:0:
64,192,143597,1,0,0:0:0:0:
192,192,143597,1,0,0:0:0:0:
64,192,143690,1,0,0:0:0:0:
320,192,143784,128,0,143831:0:0:0:0:
320,192,143878,1,0,0:0:0:0:
448,192,143972,1,0,0:0:0:0:
192,192,143972,1,0,0:0:0:0:
320,192,144065,128,0,144112:0:0:0:0:
192,192,144065,1,0,0:0:0:0:
320,192,144159,1,0,0:0:0:0:
192,192,144253,1,0,0:0:0:0:
64,192,144347,1,0,0:0:0:0:
448,192,144347,1,0,0:0:0:0:
64,192,144440,1,0,0:0:0:0:
448,192,144534,128,0,144581:0:0:0:0:
448,192,144628,1,0,0:0:0:0:
192,192,144722,1,0,0:0:0:0:
64,192,144722,1,0,0:0:0:0:
448,192,144815,128,0,144862:0:0:0:0:
192,192,144815,1,0,0:0:0:0:
448,192,144909,1,0,0:0:0:0:
320,192,145003,1,0,0:0:0:0:
64,192,145097,1,0,0:0:0:0:
192,192,145097,1,0,0:0:0:0:
64,192,145190,1,0,0:0:0:0:
320,192,145284,128,0,145331:0:0:0:0:
320,192,145378,1,0,0:0:0:0:
192,192,145472,1,0,0:0:0:0:
64,192,145472,1,0,0:0:0:0:
320,192,145565,128,0,145612:0:0:0:0:
192,192,145565,1,0,0:0:0:0:
320,192,145659,1,0,0:0:0:0:
192,192,145753,1,0,0:0:0:0:
448,192,145847,1,0,0:0:0:0:
64,192,145847,1,0,0:0:0:0:
448,192,145940,1,0,0:0:0:0:
192,192,146034,128,0,146081:0:0:0:0:
192,192,146128,1,0,0:0:0:0:
448,192,146222,1,0,0:0:0:0:
64,192,146222,1,0,0:0:0:0:
64,192,146315,1,0,0:0:0:0:
320,192,146315,128,0,146362:0:0:0:0:
320,192,146409,1,0,0:0:0:0:
192,192,146503,1,0,0:0:0:0:
64,192,146597,1,0,0:0:0:0:
448,192,146597,1,0,0:0:0:0:
448,192,146690,1,0,0:0:0:0:
320,192,146784,1,0,0:0:0:0:
192,192,146878,128,0,146925:0:0:0:0:
64,192,146972,1,0,0:0:0:0:
320,192,146972,1,0,0:0:0:0:
64,192,147065,1,0,0:0:0:0:
448,192,147065,128,0,147112:0:0:0:0:
448,192,147159,1,0,0:0:0:0:
192,192,147253,1,0,0:0:0:0:
64,192,147347,1,0,0:0:0:0:
320,192,147347,1,0,0:0:0:0:
320,192,147440,1,0,0:0:0:0:
192,192,147534,128,0,147581:0:0:0:0:
192,192,147628,1,0,0:0:0:0:
64,192,147722,1,0,0:0:0:0:
448,192,147722,1,0,0:0:0:0:
320,192,147815,128,0,147862:0:0:0:0:
64,192,147815,1,0,0:0:0:0:
320,192,147909,1,0,0:0:0:0:
192,192,148003,1,0,0:0:0:0:
64,192,148097,1,0,0:0:0:0:
448,192,148097,1,0,0:0:0:0:
448,192,148190,1,0,0:0:0:0:
320,192,148284,1,0,0:0:0:0:
192,192,148378,128,0,148425:0:0:0:0:
320,192,148472,1,0,0:0:0:0:
64,192,148472,1,0,0:0:0:0:
448,192,148565,128,0,148612:0:0:0:0:
64,192,148565,1,0,0:0:0:0:
448,192,148659,1,0,0:0:0:0:
192,192,148753,1,0,0:0:0:0:
64,192,148847,1,0,0:0:0:0:
320,192,148847,1,0,0:0:0:0:
320,192,148940,1,0,0:0:0:0:
192,192,149034,128,0,149081:0:0:0:0:
192,192,149128,1,0,0:0:0:0:
448,192,149222,1,0,0:0:0:0:
320,192,149222,1,0,0:0:0:0:
192,192,149315,128,0,149362:0:0:0:0:
448,192,149315,1,0,0:0:0:0:
192,192,149409,1,0,0:0:0:0:
320,192,149503,1,0,0:0:0:0:
64,192,149597,1,0,0:0:0:0:
192,192,149597,1,0,0:0:0:0:
64,192,149690,1,0,0:0:0:0:
320,192,149784,128,0,149831:0:0:0:0:
320,192,149878,1,0,0:0:0:0:
448,192,149972,1,0,0:0:0:0:
192,192,149972,1,0,0:0:0:0:
320,192,150065,128,0,150112:0:0:0:0:
192,192,150065,1,0,0:0:0:0:
320,192,150159,1,0,0:0:0:0:
64,192,150253,1,0,0:0:0:0:
448,192,150347,1,0,0:0:0:0:
192,192,150347,1,0,0:0:0:0:
448,192,150440,1,0,0:0:0:0:
64,192,150534,128,0,150581:0:0:0:0:
64,192,150628,1,0,0:0:0:0:
320,192,150722,1,0,0:0:0:0:
448,192,150722,1,0,0:0:0:0:
64,192,150815,128,0,150862:0:0:0:0:
320,192,150815,1,0,0:0:0:0:
64,192,150909,1,0,0:0:0:0:
192,192,151003,1,0,0:0:0:0:
448,192,151472,128,0,151612:0:0:0:0:
320,192,151534,128,0,151722:0:0:0:0:
192,192,151597,128,0,151784:0:0:0:0:
64,192,151659,128,0,151722:0:0:0:0:
448,192,151659,1,0,0:0:0:0:
64,192,151847,1,0,0:0:0:0:
448,192,151847,1,0,0:0:0:0:
448,192,151940,1,0,0:0:0:0:
192,192,152034,128,0,152081:0:0:0:0:
192,192,152128,1,0,0:0:0:0:
64,192,152222,1,0,0:0:0:0:
448,192,152222,1,0,0:0:0:0:
320,192,152315,128,0,152362:0:0:0:0:
64,192,152315,1,0,0:0:0:0:
320,192,152409,1,0,0:0:0:0:
192,192,152503,1,0,0:0:0:0:
448,192,152597,1,0,0:0:0:0:
192,192,152643,128,0,152737:0:0:0:0:
64,192,152690,128,0,152737:0:0:0:0:
448,192,152690,1,0,0:0:0:0:
192,192,152878,128,0,152925:0:0:0:0:
320,192,152878,1,0,0:0:0:0:
320,192,152972,1,0,0:0:0:0:
64,192,152972,1,0,0:0:0:0:
448,192,153065,128,0,153112:0:0:0:0:
448,192,153159,1,0,0:0:0:0:
192,192,153253,1,0,0:0:0:0:
64,192,153347,1,0,0:0:0:0:
320,192,153347,1,0,0:0:0:0:
320,192,153440,1,0,0:0:0:0:
192,192,153534,128,0,153581:0:0:0:0:
192,192,153628,1,0,0:0:0:0:
64,192,153722,1,0,0:0:0:0:
448,192,153722,1,0,0:0:0:0:
320,192,153815,128,0,153862:0:0:0:0:
64,192,153815,1,0,0:0:0:0:
320,192,153909,1,0,0:0:0:0:
192,192,154003,1,0,0:0:0:0:
448,192,154097,1,0,0:0:0:0:
192,192,154143,128,0,154237:0:0:0:0:
448,192,154190,1,0,0:0:0:0:
64,192,154190,128,0,154237:0:0:0:0:
320,192,154284,1,0,0:0:0:0:
192,192,154378,128,0,154425:0:0:0:0:
64,192,154378,1,0,0:0:0:0:
64,192,154472,1,0,0:0:0:0:
320,192,154472,1,0,0:0:0:0:
448,192,154565,128,0,154612:0:0:0:0:
448,192,154659,1,0,0:0:0:0:
192,192,154753,1,0,0:0:0:0:
64,192,154847,1,0,0:0:0:0:
320,192,154847,1,0,0:0:0:0:
320,192,154940,1,0,0:0:0:0:
192,192,155034,128,0,155081:0:0:0:0:
192,192,155128,1,0,0:0:0:0:
64,192,155222,1,0,0:0:0:0:
448,192,155222,1,0,0:0:0:0:
192,192,155315,128,0,155362:0:0:0:0:
448,192,155315,1,0,0:0:0:0:
192,192,155409,1,0,0:0:0:0:
320,192,155503,1,0,0:0:0:0:
448,192,155597,1,0,0:0:0:0:
192,192,155643,128,0,155737:0:0:0:0:
64,192,155690,128,0,155737:0:0:0:0:
320,192,155784,128,0,155831:0:0:0:0:
320,192,155878,1,0,0:0:0:0:
64,192,155878,1,0,0:0:0:0:
64,192,155972,1,0,0:0:0:0:
448,192,155972,1,0,0:0:0:0:
320,192,156065,128,0,156112:0:0:0:0:
320,192,156159,1,0,0:0:0:0:
192,192,156253,1,0,0:0:0:0:
64,192,156347,1,0,0:0:0:0:
448,192,156347,1,0,0:0:0:0:
448,192,156440,1,0,0:0:0:0:
64,192,156534,128,0,156581:0:0:0:0:
64,192,156628,1,0,0:0:0:0:
320,192,156722,1,0,0:0:0:0:
448,192,156722,1,0,0:0:0:0:
64,192,156815,128,0,156862:0:0:0:0:
320,192,156815,1,0,0:0:0:0:
64,192,156909,1,0,0:0:0:0:
448,192,157003,1,0,0:0:0:0:
64,192,157097,1,0,0:0:0:0:
192,192,157143,128,0,157237:0:0:0:0:
448,192,157190,128,0,157237:0:0:0:0:
320,192,157284,128,0,157331:0:0:0:0:
320,192,157378,1,0,0:0:0:0:
64,192,157378,1,0,0:0:0:0:
448,192,157472,1,0,0:0:0:0:
64,192,157472,1,0,0:0:0:0:
448,192,157565,1,0,0:0:0:0:
192,192,157659,128,0,157753:0:0:0:0:
448,192,157753,1,0,0:0:0:0:
64,192,157847,1,0,0:0:0:0:
320,192,157847,1,0,0:0:0:0:
320,192,157940,1,0,0:0:0:0:
192,192,158034,128,0,158081:0:0:0:0:
192,192,158128,1,0,0:0:0:0:
448,192,158222,1,0,0:0:0:0:
64,192,158222,1,0,0:0:0:0:
320,192,158315,128,0,158362:0:0:0:0:
320,192,158409,1,0,0:0:0:0:
192,192,158503,1,0,0:0:0:0:
448,192,158597,1,0,0:0:0:0:
192,192,158643,128,0,158737:0:0:0:0:
64,192,158690,128,0,158737:0:0:0:0:
448,192,158690,1,0,0:0:0:0:
320,192,158784,1,0,0:0:0:0:
192,192,158878,128,0,158925:0:0:0:0:
64,192,158972,1,0,0:0:0:0:
320,192,158972,1,0,0:0:0:0:
448,192,159065,128,0,159112:0:0:0:0:
192,192,159159,1,0,0:0:0:0:
448,192,159159,1,0,0:0:0:0:
320,192,159253,1,0,0:0:0:0:
64,192,159347,1,0,0:0:0:0:
448,192,159347,1,0,0:0:0:0:
448,192,159440,1,0,0:0:0:0:
192,192,159534,128,0,159581:0:0:0:0:
192,192,159628,1,0,0:0:0:0:
64,192,159722,1,0,0:0:0:0:
448,192,159722,1,0,0:0:0:0:
320,192,159815,128,0,159862:0:0:0:0:
64,192,159815,1,0,0:0:0:0:
320,192,159909,1,0,0:0:0:0:
192,192,160003,1,0,0:0:0:0:
448,192,160097,1,0,0:0:0:0:
192,192,160143,128,0,160237:0:0:0:0:
448,192,160190,1,0,0:0:0:0:
64,192,160190,128,0,160237:0:0:0:0:
320,192,160284,1,0,0:0:0:0:
192,192,160378,128,0,160425:0:0:0:0:
64,192,160472,1,0,0:0:0:0:
320,192,160472,1,0,0:0:0:0:
448,192,160565,128,0,160612:0:0:0:0:
192,192,160659,1,0,0:0:0:0:
448,192,160659,1,0,0:0:0:0:
320,192,160753,1,0,0:0:0:0:
192,192,160753,1,0,0:0:0:0:
64,192,160847,1,0,0:0:0:0:
320,192,160847,1,0,0:0:0:0:
448,192,160847,1,0,0:0:0:0:
64,192,160940,1,0,0:0:0:0:
320,192,161034,1,0,0:0:0:0:
192,192,161034,128,0,161081:0:0:0:0:
192,192,161128,1,0,0:0:0:0:
448,192,161222,1,0,0:0:0:0:
64,192,161222,1,0,0:0:0:0:
192,192,161315,128,0,161362:0:0:0:0:
192,192,161409,1,0,0:0:0:0:
448,192,161409,1,0,0:0:0:0:
320,192,161503,1,0,0:0:0:0:
448,192,161597,1,0,0:0:0:0:
192,192,161597,1,0,0:0:0:0:
448,192,161690,1,0,0:0:0:0:
64,192,161690,1,0,0:0:0:0:
64,192,161784,1,0,0:0:0:0:
320,192,161784,128,0,161831:0:0:0:0:
192,192,161878,1,0,0:0:0:0:
320,192,161878,1,0,0:0:0:0:
192,192,161972,128,0,162159:0:0:0:0:
448,192,161972,128,0,162018:0:0:0:0:
64,192,161995,128,0,162065:0:0:0:0:
320,192,162018,128,0,162089:0:0:0:0:
448,192,162112,128,0,162159:0:0:0:0:
448,192,162253,1,0,0:0:0:0:
320,192,162253,1,0,0:0:0:0:
64,192,162347,128,0,162409:0:0:0:0:
192,192,162503,1,0,0:0:0:0:
320,192,162597,128,0,162659:0:0:0:0:
64,192,162659,128,0,162706:0:0:0:0:
448,192,162706,128,0,162768:0:0:0:0:
192,192,163284,128,0,163315:0:0:0:0:
320,192,163284,128,0,163315:0:0:0:0:
448,192,163284,128,0,163315:0:0:0:0:
64,192,163472,1,0,0:0:0:0:
192,192,163472,1,0,0:0:0:0:
320,192,163472,1,0,0:0:0:0:
64,192,163565,1,0,0:0:0:0:
320,192,163565,1,0,0:0:0:0:
448,192,163659,1,0,0:0:0:0:
448,192,163753,1,0,0:0:0:0:
192,192,163753,1,0,0:0:0:0:
64,192,163847,128,0,163878:0:0:0:0:
192,192,163847,128,0,163878:0:0:0:0:
448,192,164003,1,0,0:0:0:0:
320,192,164034,1,0,0:0:0:0:
64,192,164065,1,0,0:0:0:0:
192,192,164097,1,0,0:0:0:0:
320,192,164128,1,0,0:0:0:0:
448,192,164175,1,0,0:0:0:0:
64,192,164222,1,0,0:0:0:0:
192,192,164268,1,0,0:0:0:0:
320,192,164315,1,0,0:0:0:0:
64,192,164409,1,0,0:0:0:0:
448,192,164409,1,0,0:0:0:0:
64,192,164503,1,0,0:0:0:0:
448,192,164503,128,0,164573:0:0:0:0:
320,192,164526,128,0,164573:0:0:0:0:
448,192,164784,128,0,164878:0:0:0:0:
320,192,164807,128,0,164878:0:0:0:0:
448,192,165065,128,0,165159:0:0:0:0:
320,192,165089,128,0,165159:0:0:0:0:
192,192,165112,128,0,165159:0:0:0:0:
448,192,165347,128,0,165464:0:0:0:0:
320,192,165370,128,0,165464:0:0:0:0:
192,192,165393,128,0,165464:0:0:0:0:
448,192,165628,128,0,165745:0:0:0:0:
320,192,165651,128,0,165745:0:0:0:0:
192,192,165675,128,0,165745:0:0:0:0:
64,192,165698,128,0,165745:0:0:0:0:
448,192,165909,128,0,166026:0:0:0:0:
320,192,165932,128,0,166026:0:0:0:0:
192,192,165956,128,0,166026:0:0:0:0:
64,192,166003,128,0,166097:0:0:0:0:
320,192,166097,128,0,166190:0:0:0:0:
448,192,166097,1,0,0:0:0:0:
192,192,166190,128,0,166378:0:0:0:0:
64,192,166190,1,0,0:0:0:0:
320,192,166284,128,0,166472:0:0:0:0:
448,192,166378,128,0,166565:0:0:0:0:
64,192,166378,1,0,0:0:0:0:
64,192,166472,128,0,166565:0:0:0:0:
192,192,166565,128,0,166753:0:0:0:0:
320,192,166565,128,0,166659:0:0:0:0:
64,192,166659,128,0,166753:0:0:0:0:
448,192,166659,1,0,0:0:0:0:
192,192,166847,1,0,0:0:0:0:
448,192,166847,128,0,166987:0:0:0:0:
320,192,166847,128,0,167128:0:0:0:0:
64,192,167034,128,0,167128:0:0:0:0:
448,192,167128,128,0,167222:0:0:0:0:
320,192,167222,1,0,0:0:0:0:
192,192,167222,128,0,167503:0:0:0:0:
64,192,167222,128,0,167362:0:0:0:0:
448,192,167409,128,0,167503:0:0:0:0:
64,192,167503,128,0,167597:0:0:0:0:
448,192,167597,128,0,167737:0:0:0:0:
320,192,167597,128,0,167878:0:0:0:0:
192,192,167597,1,0,0:0:0:0:
64,192,167784,128,0,167878:0:0:0:0:
448,192,167878,128,0,167972:0:0:0:0:
320,192,167972,1,0,0:0:0:0:
192,192,167972,128,0,168253:0:0:0:0:
64,192,167972,128,0,168112:0:0:0:0:
448,192,168159,128,0,168253:0:0:0:0:
64,192,168253,128,0,168347:0:0:0:0:
192,192,168347,128,0,168378:0:0:0:0:
320,192,168347,128,0,168378:0:0:0:0:
448,192,168440,128,0,168472:0:0:0:0:
448,192,168534,128,0,168565:0:0:0:0:
320,192,168628,128,0,168663:0:0:0:0:
320,192,168722,128,0,168757:0:0:0:0:
448,192,168815,128,0,168847:0:0:0:0:
64,192,168815,128,0,168847:0:0:0:0:
192,192,168909,128,0,168956:0:0:0:0:
192,192,169003,128,0,169050:0:0:0:0:
64,192,169097,128,0,169128:0:0:0:0:
320,192,169097,128,0,169128:0:0:0:0:
448,192,169190,128,0,169237:0:0:0:0:
448,192,169284,128,0,169347:0:0:0:0:
64,192,169284,128,0,169347:0:0:0:0:
64,192,169378,128,0,169440:0:0:0:0:
448,192,169378,128,0,169440:0:0:0:0:
192,192,169472,1,0,0:0:0:0:
192,192,169659,1,0,0:0:0:0:
192,192,169784,1,0,0:0:0:0:
320,192,169847,128,0,169878:0:0:0:0:
448,192,169847,128,0,169878:0:0:0:0:
64,192,170003,1,0,0:0:0:0:
192,192,170034,1,0,0:0:0:0:
320,192,170065,1,0,0:0:0:0:
448,192,170097,1,0,0:0:0:0:
192,192,170128,1,0,0:0:0:0:
64,192,170175,1,0,0:0:0:0:
320,192,170222,128,0,170315:0:0:0:0:
448,192,170409,1,0,0:0:0:0:
64,192,170409,1,0,0:0:0:0:
64,192,170503,128,0,170573:0:0:0:0:
448,192,170503,1,0,0:0:0:0:
192,192,170526,128,0,170573:0:0:0:0:
64,192,170784,128,0,170878:0:0:0:0:
192,192,170807,128,0,170878:0:0:0:0:
64,192,171065,128,0,171159:0:0:0:0:
192,192,171089,128,0,171159:0:0:0:0:
320,192,171112,128,0,171159:0:0:0:0:
448,192,171347,1,0,0:0:0:0:
192,192,171347,1,0,0:0:0:0:
320,192,171440,128,0,171557:0:0:0:0:
448,192,171440,1,0,0:0:0:0:
192,192,171464,128,0,171557:0:0:0:0:
64,192,171487,128,0,171557:0:0:0:0:
448,192,171722,128,0,171839:0:0:0:0:
320,192,171745,128,0,171839:0:0:0:0:
192,192,171768,128,0,171839:0:0:0:0:
64,192,171792,128,0,171839:0:0:0:0:
320,192,171909,128,0,172097:0:0:0:0:
448,192,172003,1,0,0:0:0:0:
192,192,172026,128,0,172097:0:0:0:0:
64,192,172050,128,0,172097:0:0:0:0:
448,192,172097,128,0,172190:0:0:0:0:
320,192,172190,128,0,172378:0:0:0:0:
64,192,172190,1,0,0:0:0:0:
448,192,172284,128,0,172378:0:0:0:0:
64,192,172378,128,0,172472:0:0:0:0:
192,192,172378,1,0,0:0:0:0:
192,192,172472,128,0,172565:0:0:0:0:
320,192,172472,128,0,172565:0:0:0:0:
64,192,172565,1,0,0:0:0:0:
448,192,172565,128,0,172753:0:0:0:0:
192,192,172659,128,0,172753:0:0:0:0:
64,192,172659,128,0,172706:0:0:0:0:
320,192,172847,128,0,173128:0:0:0:0:
448,192,172847,128,0,172987:0:0:0:0:
192,192,172847,1,0,0:0:0:0:
64,192,173034,128,0,173128:0:0:0:0:
448,192,173128,128,0,173222:0:0:0:0:
64,192,173222,128,0,173362:0:0:0:0:
192,192,173222,128,0,173503:0:0:0:0:
320,192,173222,1,0,0:0:0:0:
448,192,173409,128,0,173503:0:0:0:0:
64,192,173503,128,0,173597:0:0:0:0:
192,192,173597,1,0,0:0:0:0:
320,192,173597,128,0,173878:0:0:0:0:
448,192,173597,128,0,173737:0:0:0:0:
64,192,173784,128,0,173878:0:0:0:0:
448,192,173878,128,0,173972:0:0:0:0:
64,192,173972,128,0,174112:0:0:0:0:
192,192,173972,128,0,174253:0:0:0:0:
320,192,173972,1,0,0:0:0:0:
448,192,174159,128,0,174253:0:0:0:0:
64,192,174253,128,0,174347:0:0:0:0:
320,192,174347,128,0,174440:0:0:0:0:
448,192,174347,128,0,174534:0:0:0:0:
192,192,174347,1,0,0:0:0:0:
192,192,174628,1,0,0:0:0:0:
448,192,174628,128,0,174745:0:0:0:0:
320,192,174628,128,0,174698:0:0:0:0:
320,192,174909,128,0,174956:0:0:0:0:
448,192,174909,128,0,175003:0:0:0:0:
192,192,174909,1,0,0:0:0:0:
192,192,175190,1,0,0:0:0:0:
320,192,175190,128,0,175237:0:0:0:0:
448,192,175190,128,0,175261:0:0:0:0:
320,192,175472,1,0,0:0:0:0:
448,192,175472,1,0,0:0:0:0:
64,192,175847,1,0,0:0:0:0:
320,192,175847,128,0,175893:0:0:0:0:
448,192,176222,1,0,0:0:0:0:
192,192,176503,128,0,176550:0:0:0:0:
448,192,176597,128,0,176643:0:0:0:0:
64,192,176784,128,0,176831:0:0:0:0:
320,192,176972,1,0,0:0:0:0:
448,192,176972,128,0,177018:0:0:0:0:
192,192,177159,128,0,177206:0:0:0:0:
64,192,177347,1,0,0:0:0:0:
320,192,177347,128,0,177393:0:0:0:0:
192,192,177722,1,0,0:0:0:0:
192,192,178003,128,0,178065:0:0:0:0:
448,192,178097,128,0,178159:0:0:0:0:
64,192,178284,128,0,178347:0:0:0:0:
320,192,178472,1,0,0:0:0:0:
448,192,178472,128,0,178534:0:0:0:0:
192,192,178659,128,0,178722:0:0:0:0:
64,192,178847,1,0,0:0:0:0:
320,192,178847,128,0,178909:0:0:0:0:
192,192,179222,1,0,0:0:0:0:
192,192,179503,128,0,179573:0:0:0:0:
448,192,179597,128,0,179667:0:0:0:0:
64,192,179784,128,0,179854:0:0:0:0:
320,192,179972,1,0,0:0:0:0:
448,192,179972,128,0,180042:0:0:0:0:
192,192,180159,128,0,180229:0:0:0:0:
448,192,180347,1,0,0:0:0:0:
64,192,180347,128,0,180417:0:0:0:0:
192,192,180534,128,0,180604:0:0:0:0:
320,192,180628,128,0,180698:0:0:0:0:
64,192,180722,1,0,0:0:0:0:
448,192,180722,128,0,180792:0:0:0:0:
320,192,181003,128,0,181073:0:0:0:0:
448,192,181097,1,0,0:0:0:0:
192,192,181378,128,0,181448:0:0:0:0:
320,192,181472,1,0,0:0:0:0:
64,192,181659,128,0,181729:0:0:0:0:
64,192,181847,1,0,0:0:0:0:
320,192,181847,128,0,181917:0:0:0:0:
448,192,182222,1,0,0:0:0:0:
192,192,182503,128,0,182573:0:0:0:0:
448,192,182597,128,0,182667:0:0:0:0:
64,192,182784,128,0,182854:0:0:0:0:
320,192,182972,1,0,0:0:0:0:
448,192,182972,128,0,183042:0:0:0:0:
192,192,183159,128,0,183229:0:0:0:0:
64,192,183347,1,0,0:0:0:0:
320,192,183347,128,0,183417:0:0:0:0:
192,192,183722,1,0,0:0:0:0:
192,192,184003,128,0,184097:0:0:0:0:
448,192,184097,128,0,184190:0:0:0:0:
64,192,184284,128,0,184378:0:0:0:0:
320,192,184472,1,0,0:0:0:0:
448,192,184472,128,0,184565:0:0:0:0:
192,192,184659,128,0,184753:0:0:0:0:
64,192,184847,1,0,0:0:0:0:
320,192,184847,128,0,184940:0:0:0:0:
192,192,185222,1,0,0:0:0:0:
192,192,185503,128,0,185597:0:0:0:0:
448,192,185597,128,0,185690:0:0:0:0:
64,192,185784,128,0,185878:0:0:0:0:
320,192,185972,1,0,0:0:0:0:
448,192,185972,128,0,186065:0:0:0:0:
192,192,186159,128,0,186253:0:0:0:0:
448,192,186347,1,0,0:0:0:0:
64,192,186347,128,0,186440:0:0:0:0:
192,192,186534,128,0,186628:0:0:0:0:
320,192,186628,128,0,186722:0:0:0:0:
64,192,186722,5,0,0:0:0:0:
448,192,186722,128,0,186815:0:0:0:0:
192,192,187003,128,0,187097:0:0:0:0:
64,192,187097,1,0,0:0:0:0:
320,192,187378,128,0,187472:0:0:0:0:
192,192,187472,1,0,0:0:0:0:
448,192,187659,128,0,187753:0:0:0:0:
320,192,187847,128,0,188503:0:0:0:0:
64,192,187847,1,0,0:0:0:0:
192,192,187847,128,0,188128:0:0:0:0:
192,192,188222,1,0,0:0:0:0:
448,192,188222,1,0,0:0:0:0:
192,192,188597,128,0,189159:0:0:0:0:
448,192,188597,1,0,0:0:0:0:
320,192,188597,128,0,188878:0:0:0:0:
64,192,188972,1,0,0:0:0:0:
320,192,188972,1,0,0:0:0:0:
320,192,189159,128,0,189206:0:0:0:0:
64,192,189206,128,0,189253:0:0:0:0:
448,192,189253,128,0,189300:0:0:0:0:
192,192,189300,128,0,189347:0:0:0:0:
320,192,189347,128,0,190003:0:0:0:0:
64,192,189347,128,0,189628:0:0:0:0:
448,192,189440,128,0,189487:0:0:0:0:
64,192,189722,1,0,0:0:0:0:
448,192,189722,1,0,0:0:0:0:
320,192,190097,1,0,0:0:0:0:
192,192,190097,128,0,190753:0:0:0:0:
448,192,190097,128,0,190378:0:0:0:0:
64,192,190472,1,0,0:0:0:0:
448,192,190472,1,0,0:0:0:0:
320,192,190847,128,0,191503:0:0:0:0:
192,192,190847,128,0,191128:0:0:0:0:
64,192,190940,128,0,190987:0:0:0:0:
192,192,191222,1,0,0:0:0:0:
448,192,191222,1,0,0:0:0:0:
192,192,191597,128,0,192253:0:0:0:0:
320,192,191597,1,0,0:0:0:0:
448,192,191597,128,0,191878:0:0:0:0:
64,192,191972,1,0,0:0:0:0:
448,192,191972,1,0,0:0:0:0:
192,192,192347,1,0,0:0:0:0:
320,192,192347,128,0,193003:0:0:0:0:
64,192,192347,128,0,192628:0:0:0:0:
64,192,192722,1,0,0:0:0:0:
448,192,192722,1,0,0:0:0:0:
192,192,193097,128,0,193753:0:0:0:0:
320,192,193097,128,0,193378:0:0:0:0:
448,192,193190,128,0,193237:0:0:0:0:
64,192,193472,1,0,0:0:0:0:
320,192,193472,1,0,0:0:0:0:
192,192,193847,128,0,193893:0:0:0:0:
448,192,193847,128,0,193893:0:0:0:0:
64,192,193847,128,0,193893:0:0:0:0:
320,192,193940,128,0,193987:0:0:0:0:
192,192,194034,128,0,194081:0:0:0:0:
448,192,194128,128,0,194186:0:0:0:0:
64,192,194128,128,0,194186:0:0:0:0:
320,192,194222,128,0,194280:0:0:0:0:
448,192,194315,128,0,194374:0:0:0:0:
64,192,194409,128,0,194479:0:0:0:0:
320,192,194409,128,0,194479:0:0:0:0:
192,192,194503,128,0,194573:0:0:0:0:
64,192,194597,128,0,194667:0:0:0:0:
448,192,194690,128,0,194772:0:0:0:0:
192,192,194690,128,0,194772:0:0:0:0:
320,192,194784,128,0,194866:0:0:0:0:
448,192,194878,128,0,194960:0:0:0:0:
320,192,194972,128,0,195065:0:0:0:0:
192,192,194972,128,0,195065:0:0:0:0:
64,192,195065,128,0,195159:0:0:0:0:
448,192,195159,128,0,195253:0:0:0:0:
320,192,195253,128,0,195358:0:0:0:0:
64,192,195253,128,0,195358:0:0:0:0:
192,192,195347,128,0,195452:0:0:0:0:
320,192,195440,128,0,195546:0:0:0:0:
64,192,195534,128,0,195651:0:0:0:0:
192,192,195534,128,0,195651:0:0:0:0:
448,192,195628,128,0,195745:0:0:0:0:
320,192,195722,128,0,195839:0:0:0:0:
64,192,195815,128,0,195944:0:0:0:0:
448,192,195815,128,0,195944:0:0:0:0:
192,192,195909,128,0,196038:0:0:0:0:
320,192,196003,128,0,196132:0:0:0:0:
64,192,196097,128,0,196237:0:0:0:0:
448,192,196097,128,0,196237:0:0:0:0:
320,192,196190,128,0,196331:0:0:0:0:
192,192,196284,128,0,196425:0:0:0:0:
64,192,196378,128,0,196518:0:0:0:0:
448,192,196378,128,0,196518:0:0:0:0:
320,192,196472,128,0,196612:0:0:0:0:
448,192,196565,128,0,196706:0:0:0:0:
320,192,196659,128,0,196800:0:0:0:0:
64,192,196659,128,0,196800:0:0:0:0:
192,192,196753,128,0,196893:0:0:0:0:
320,192,196847,128,0,196987:0:0:0:0:
448,192,196847,128,0,196987:0:0:0:0:
192,192,196940,128,0,197081:0:0:0:0:
64,192,197034,128,0,197175:0:0:0:0:
448,192,197034,128,0,197175:0:0:0:0:
320,192,197128,128,0,197268:0:0:0:0:
192,192,197222,128,0,197362:0:0:0:0:
448,192,197222,128,0,197362:0:0:0:0:
64,192,197315,128,0,197456:0:0:0:0:
192,192,197409,128,0,197550:0:0:0:0:
448,192,197409,128,0,197550:0:0:0:0:
320,192,197503,128,0,197643:0:0:0:0:
64,192,197597,1,0,0:0:0:0:
192,192,197597,128,0,197737:0:0:0:0:
64,192,197690,128,0,197831:0:0:0:0:
448,192,197784,1,0,0:0:0:0:
320,192,197784,128,0,197925:0:0:0:0:
448,192,197878,128,0,198018:0:0:0:0:
192,192,197972,1,0,0:0:0:0:
320,192,197972,128,0,198112:0:0:0:0:
192,192,198065,128,0,198206:0:0:0:0:
320,192,198159,1,0,0:0:0:0:
64,192,198159,128,0,198300:0:0:0:0:
320,192,198253,128,0,198347:0:0:0:0:
320,192,198534,128,0,198722:0:0:0:0:
64,192,198628,128,0,198722:0:0:0:0:
192,192,198722,128,0,198909:0:0:0:0:
64,192,198815,128,0,199003:0:0:0:0:
320,192,198909,128,0,199003:0:0:0:0:
448,192,198909,128,0,198956:0:0:0:0:
192,192,199003,128,0,199097:0:0:0:0:
448,192,199097,128,0,199284:0:0:0:0:
64,192,199097,128,0,199190:0:0:0:0:
192,192,199284,128,0,199472:0:0:0:0:
320,192,199284,128,0,199378:0:0:0:0:
64,192,199472,128,0,199565:0:0:0:0:
192,192,199565,128,0,199612:0:0:0:0:
320,192,199659,1,0,0:0:0:0:
320,192,199753,1,0,0:0:0:0:
448,192,199847,1,0,0:0:0:0:
320,192,200878,5,0,0:0:0:0:
192,192,200925,1,0,0:0:0:0:
448,192,200972,1,0,0:0:0:0:
64,192,200972,1,0,0:0:0:0:
320,192,201159,128,0,201253:0:0:0:0:
192,192,201347,128,0,201487:0:0:0:0:
320,192,201347,128,0,201511:0:0:0:0:
448,192,201347,1,0,0:0:0:0:
192,192,201534,128,0,201604:0:0:0:0:
320,192,201557,128,0,201604:0:0:0:0:
64,192,201722,1,0,0:0:0:0:
320,192,201722,1,0,0:0:0:0:
448,192,201722,1,0,0:0:0:0:
448,192,201847,128,0,202034:0:0:0:0:
192,192,201847,128,0,202034:0:0:0:0:
320,192,201909,1,0,0:0:0:0:
320,192,202097,1,0,0:0:0:0:
64,192,202097,128,0,202214:0:0:0:0:
192,192,202097,128,0,202190:0:0:0:0:
192,192,202237,1,0,0:0:0:0:
64,192,202261,1,0,0:0:0:0:
64,192,202472,1,0,0:0:0:0:
320,192,202472,1,0,0:0:0:0:
448,192,202472,1,0,0:0:0:0:
64,192,202597,128,0,202784:0:0:0:0:
320,192,202597,128,0,202784:0:0:0:0:
448,192,202847,128,0,202987:0:0:0:0:
192,192,202847,128,0,203011:0:0:0:0:
320,192,202847,1,0,0:0:0:0:
448,192,203034,128,0,203128:0:0:0:0:
192,192,203057,128,0,203128:0:0:0:0:
64,192,203222,1,0,0:0:0:0:
320,192,203222,1,0,0:0:0:0:
448,192,203222,1,0,0:0:0:0:
64,192,203347,128,0,203534:0:0:0:0:
192,192,203347,128,0,203534:0:0:0:0:
320,192,203409,1,0,0:0:0:0:
64,192,203597,1,0,0:0:0:0:
192,192,203597,1,0,0:0:0:0:
448,192,203597,1,0,0:0:0:0:
448,192,203722,128,0,203909:0:0:0:0:
320,192,203722,128,0,203909:0:0:0:0:
192,192,203784,1,0,0:0:0:0:
64,192,203972,1,0,0:0:0:0:
320,192,203972,1,0,0:0:0:0:
448,192,203972,1,0,0:0:0:0:
320,192,204097,128,0,204284:0:0:0:0:
192,192,204097,128,0,204284:0:0:0:0:
64,192,204159,1,0,0:0:0:0:
64,192,204347,128,0,204487:0:0:0:0:
448,192,204347,128,0,204511:0:0:0:0:
320,192,204347,1,0,0:0:0:0:
64,192,204534,128,0,204628:0:0:0:0:
448,192,204557,128,0,204628:0:0:0:0:
64,192,204722,1,0,0:0:0:0:
320,192,204722,1,0,0:0:0:0:
448,192,204722,1,0,0:0:0:0:
64,192,204847,128,0,205034:0:0:0:0:
192,192,204847,128,0,205034:0:0:0:0:
320,192,204909,1,0,0:0:0:0:
192,192,205097,128,0,205190:0:0:0:0:
448,192,205097,128,0,205214:0:0:0:0:
64,192,205097,1,0,0:0:0:0:
192,192,205237,1,0,0:0:0:0:
448,192,205261,1,0,0:0:0:0:
64,192,205401,128,0,205472:0:0:0:0:
192,192,205401,128,0,205472:0:0:0:0:
320,192,205472,1,0,0:0:0:0:
448,192,205472,1,0,0:0:0:0:
448,192,205597,128,0,205784:0:0:0:0:
320,192,205597,128,0,205784:0:0:0:0:
64,192,205847,128,0,205987:0:0:0:0:
192,192,205847,128,0,206011:0:0:0:0:
320,192,205847,1,0,0:0:0:0:
64,192,206034,128,0,206128:0:0:0:0:
192,192,206057,128,0,206128:0:0:0:0:
64,192,206222,1,0,0:0:0:0:
192,192,206222,1,0,0:0:0:0:
448,192,206222,1,0,0:0:0:0:
64,192,206347,128,0,206534:0:0:0:0:
320,192,206347,128,0,206534:0:0:0:0:
192,192,206409,1,0,0:0:0:0:
192,192,206597,1,0,0:0:0:0:
320,192,206597,1,0,0:0:0:0:
448,192,206597,1,0,0:0:0:0:
448,192,206722,128,0,206909:0:0:0:0:
64,192,206722,128,0,206909:0:0:0:0:
192,192,206784,1,0,0:0:0:0:
64,192,206972,1,0,0:0:0:0:
192,192,206972,1,0,0:0:0:0:
320,192,206972,1,0,0:0:0:0:
448,192,207097,128,0,207284:0:0:0:0:
192,192,207097,128,0,207284:0:0:0:0:
320,192,207159,1,0,0:0:0:0:
320,192,207347,128,0,207487:0:0:0:0:
64,192,207347,128,0,207511:0:0:0:0:
448,192,207347,1,0,0:0:0:0:
320,192,207534,128,0,207628:0:0:0:0:
64,192,207557,128,0,207628:0:0:0:0:
192,192,207722,1,0,0:0:0:0:
320,192,207722,1,0,0:0:0:0:
448,192,207722,1,0,0:0:0:0:
192,192,207847,128,0,208034:0:0:0:0:
448,192,207847,128,0,208034:0:0:0:0:
64,192,207909,1,0,0:0:0:0:
192,192,208097,128,0,208261:0:0:0:0:
320,192,208097,128,0,208237:0:0:0:0:
448,192,208097,1,0,0:0:0:0:
320,192,208284,128,0,208354:0:0:0:0:
192,192,208307,128,0,208354:0:0:0:0:
64,192,208472,1,0,0:0:0:0:
320,192,208472,1,0,0:0:0:0:
448,192,208472,1,0,0:0:0:0:
448,192,208597,128,0,208784:0:0:0:0:
64,192,208597,128,0,208784:0:0:0:0:
192,192,208659,1,0,0:0:0:0:
448,192,208847,1,0,0:0:0:0:
64,192,208847,1,0,0:0:0:0:
192,192,208917,128,0,208964:0:0:0:0:
320,192,208917,128,0,208964:0:0:0:0:
192,192,209034,128,0,209128:0:0:0:0:
320,192,209057,128,0,209128:0:0:0:0:
64,192,209222,1,0,0:0:0:0:
320,192,209222,1,0,0:0:0:0:
448,192,209222,1,0,0:0:0:0:
192,192,209409,128,0,209526:0:0:0:0:
320,192,209432,128,0,209526:0:0:0:0:
64,192,209597,1,0,0:0:0:0:
192,192,209597,1,0,0:0:0:0:
448,192,209597,1,0,0:0:0:0:
448,192,209722,128,0,209909:0:0:0:0:
192,192,209722,128,0,209909:0:0:0:0:
64,192,209972,1,0,0:0:0:0:
320,192,209972,1,0,0:0:0:0:
448,192,209972,1,0,0:0:0:0:
448,192,210097,128,0,210284:0:0:0:0:
320,192,210097,128,0,210284:0:0:0:0:
448,192,210347,1,0,0:0:0:0:
320,192,210347,128,0,210511:0:0:0:0:
192,192,210347,128,0,210487:0:0:0:0:
192,192,210534,128,0,210628:0:0:0:0:
320,192,210557,128,0,210628:0:0:0:0:
448,192,210722,128,0,210862:0:0:0:0:
64,192,210722,128,0,210886:0:0:0:0:
192,192,210722,1,0,0:0:0:0:
448,192,210909,128,0,211003:0:0:0:0:
64,192,210932,128,0,211003:0:0:0:0:
192,192,211097,1,0,0:0:0:0:
320,192,211097,1,0,0:0:0:0:
448,192,211097,1,0,0:0:0:0:
320,192,211214,128,0,211284:0:0:0:0:
64,192,211237,128,0,211284:0:0:0:0:
64,192,211401,1,0,0:0:0:0:
320,192,211401,128,0,211472:0:0:0:0:
64,192,211472,1,0,0:0:0:0:
448,192,211472,1,0,0:0:0:0:
192,192,211542,128,0,211589:0:0:0:0:
448,192,211542,128,0,211612:0:0:0:0:
320,192,211659,128,0,211776:0:0:0:0:
192,192,211659,128,0,211776:0:0:0:0:
448,192,211847,1,0,0:0:0:0:
320,192,211847,128,0,212151:0:0:0:0:
64,192,211847,128,0,211987:0:0:0:0:
64,192,212222,128,0,212362:0:0:0:0:
320,192,212222,128,0,212526:0:0:0:0:
448,192,212222,1,0,0:0:0:0:
320,192,212597,128,0,212901:0:0:0:0:
448,192,212597,1,0,0:0:0:0:
64,192,212597,128,0,212737:0:0:0:0:
448,192,212784,1,0,0:0:0:0:
192,192,212878,1,0,0:0:0:0:
192,192,212972,1,0,0:0:0:0:
320,192,212972,1,0,0:0:0:0:
64,192,212972,128,0,213159:0:0:0:0:
320,192,213347,128,0,213511:0:0:0:0:
192,192,213347,128,0,213534:0:0:0:0:
448,192,213347,128,0,213487:0:0:0:0:
448,192,213534,128,0,213628:0:0:0:0:
320,192,213557,128,0,213628:0:0:0:0:
192,192,213581,128,0,213628:0:0:0:0:
64,192,213722,1,0,0:0:0:0:
192,192,213722,1,0,0:0:0:0:
448,192,213722,1,0,0:0:0:0:
64,192,213847,128,0,214034:0:0:0:0:
320,192,213847,128,0,214034:0:0:0:0:
448,192,213909,1,0,0:0:0:0:
192,192,214003,128,0,214097:0:0:0:0:
448,192,214097,128,0,214214:0:0:0:0:
320,192,214097,128,0,214190:0:0:0:0:
64,192,214097,128,0,214284:0:0:0:0:
320,192,214237,1,0,0:0:0:0:
448,192,214261,1,0,0:0:0:0:
192,192,214284,128,0,214378:0:0:0:0:
448,192,214472,1,0,0:0:0:0:
64,192,214472,1,0,0:0:0:0:
320,192,214472,128,0,214659:0:0:0:0:
448,192,214597,128,0,214784:0:0:0:0:
64,192,214659,128,0,214753:0:0:0:0:
192,192,214659,128,0,214753:0:0:0:0:
320,192,214847,128,0,215011:0:0:0:0:
192,192,214847,128,0,214987:0:0:0:0:
64,192,214847,128,0,214964:0:0:0:0:
64,192,215011,128,0,215128:0:0:0:0:
192,192,215034,128,0,215128:0:0:0:0:
320,192,215057,128,0,215128:0:0:0:0:
64,192,215222,1,0,0:0:0:0:
192,192,215222,1,0,0:0:0:0:
448,192,215222,1,0,0:0:0:0:
448,192,215347,128,0,215534:0:0:0:0:
320,192,215347,128,0,215534:0:0:0:0:
192,192,215409,1,0,0:0:0:0:
64,192,215503,128,0,215597:0:0:0:0:
320,192,215597,1,0,0:0:0:0:
192,192,215597,1,0,0:0:0:0:
448,192,215597,128,0,215784:0:0:0:0:
192,192,215722,128,0,215909:0:0:0:0:
320,192,215784,128,0,215878:0:0:0:0:
64,192,215784,128,0,215878:0:0:0:0:
320,192,215972,1,0,0:0:0:0:
448,192,215972,1,0,0:0:0:0:
64,192,215972,128,0,216159:0:0:0:0:
320,192,216097,128,0,216284:0:0:0:0:
448,192,216159,128,0,216253:0:0:0:0:
192,192,216159,128,0,216253:0:0:0:0:
64,192,216347,128,0,216511:0:0:0:0:
192,192,216347,128,0,216487:0:0:0:0:
448,192,216347,128,0,216464:0:0:0:0:
448,192,216511,128,0,216628:0:0:0:0:
192,192,216534,128,0,216628:0:0:0:0:
64,192,216557,128,0,216628:0:0:0:0:
64,192,216722,1,0,0:0:0:0:
192,192,216722,1,0,0:0:0:0:
448,192,216722,1,0,0:0:0:0:
448,192,216847,128,0,217034:0:0:0:0:
192,192,216847,128,0,217034:0:0:0:0:
64,192,216909,1,0,0:0:0:0:
320,192,217003,128,0,217097:0:0:0:0:
64,192,217097,1,0,0:0:0:0:
192,192,217097,128,0,217284:0:0:0:0:
448,192,217097,1,0,0:0:0:0:
320,192,217159,128,0,217222:0:0:0:0:
64,192,217284,128,0,217378:0:0:0:0:
448,192,217284,128,0,217378:0:0:0:0:
192,192,217409,128,0,217472:0:0:0:0:
64,192,217472,1,0,0:0:0:0:
320,192,217472,128,0,217659:0:0:0:0:
192,192,217597,128,0,217784:0:0:0:0:
64,192,217659,128,0,217753:0:0:0:0:
448,192,217659,128,0,217753:0:0:0:0:
64,192,217847,128,0,217940:0:0:0:0:
320,192,217847,128,0,218034:0:0:0:0:
192,192,217847,128,0,218081:0:0:0:0:
64,192,218034,128,0,218128:0:0:0:0:
448,192,218034,128,0,218128:0:0:0:0:
320,192,218128,128,0,218222:0:0:0:0:
64,192,218222,1,0,0:0:0:0:
192,192,218222,1,0,0:0:0:0:
448,192,218222,1,0,0:0:0:0:
320,192,218315,128,0,218409:0:0:0:0:
448,192,218315,128,0,218409:0:0:0:0:
64,192,218409,1,0,0:0:0:0:
192,192,218503,1,0,0:0:0:0:
64,192,218597,1,0,0:0:0:0:
192,192,218597,1,0,0:0:0:0:
320,192,218597,1,0,0:0:0:0:
320,192,218690,128,0,218784:0:0:0:0:
192,192,218784,128,0,218878:0:0:0:0:
448,192,218972,1,0,0:0:0:0:
192,192,218972,1,0,0:0:0:0:
320,192,218972,1,0,0:0:0:0:
192,192,219065,128,0,219253:0:0:0:0:
320,192,219159,128,0,219284:0:0:0:0:
192,192,219347,128,0,219440:0:0:0:0:
448,192,219347,128,0,219511:0:0:0:0:
320,192,219347,128,0,219487:0:0:0:0:
192,192,219487,128,0,219628:0:0:0:0:
320,192,219534,128,0,219628:0:0:0:0:
448,192,219557,128,0,219628:0:0:0:0:
64,192,219722,1,0,0:0:0:0:
192,192,219722,1,0,0:0:0:0:
320,192,219722,1,0,0:0:0:0:
64,192,219847,128,0,220034:0:0:0:0:
320,192,219847,128,0,220034:0:0:0:0:
192,192,219909,1,0,0:0:0:0:
448,192,220003,128,0,220097:0:0:0:0:
64,192,220097,128,0,220284:0:0:0:0:
320,192,220097,1,0,0:0:0:0:
192,192,220097,1,0,0:0:0:0:
448,192,220159,128,0,220284:0:0:0:0:
192,192,220284,128,0,220378:0:0:0:0:
320,192,220284,128,0,220378:0:0:0:0:
64,192,220472,1,0,0:0:0:0:
320,192,220472,1,0,0:0:0:0:
192,192,220472,128,0,220659:0:0:0:0:
64,192,220597,128,0,220784:0:0:0:0:
320,192,220659,128,0,220753:0:0:0:0:
448,192,220659,128,0,220753:0:0:0:0:
64,192,220847,128,0,220987:0:0:0:0:
192,192,220847,128,0,220940:0:0:0:0:
320,192,220847,1,0,0:0:0:0:
448,192,220909,128,0,220972:0:0:0:0:
192,192,220987,128,0,221128:0:0:0:0:
64,192,221034,128,0,221128:0:0:0:0:
448,192,221034,128,0,221097:0:0:0:0:
320,192,221034,1,0,0:0:0:0:
192,192,221222,1,0,0:0:0:0:
320,192,221222,1,0,0:0:0:0:
448,192,221222,1,0,0:0:0:0:
320,192,221409,128,0,221526:0:0:0:0:
192,192,221432,128,0,221526:0:0:0:0:
448,192,221503,128,0,221597:0:0:0:0:
64,192,221597,1,0,0:0:0:0:
320,192,221597,1,0,0:0:0:0:
192,192,221597,128,0,221784:0:0:0:0:
320,192,221722,128,0,221909:0:0:0:0:
64,192,221784,128,0,221878:0:0:0:0:
448,192,221784,128,0,221878:0:0:0:0:
64,192,221972,1,0,0:0:0:0:
192,192,221972,1,0,0:0:0:0:
320,192,221972,128,0,222159:0:0:0:0:
64,192,222097,128,0,222284:0:0:0:0:
448,192,222159,128,0,222253:0:0:0:0:
192,192,222159,128,0,222253:0:0:0:0:
64,192,222347,128,0,222511:0:0:0:0:
192,192,222347,128,0,222487:0:0:0:0:
320,192,222347,128,0,222464:0:0:0:0:
320,192,222511,128,0,222628:0:0:0:0:
192,192,222534,128,0,222628:0:0:0:0:
64,192,222557,128,0,222628:0:0:0:0:
64,192,222722,128,0,222862:0:0:0:0:
448,192,222722,128,0,222886:0:0:0:0:
320,192,222722,1,0,0:0:0:0:
64,192,222909,128,0,223003:0:0:0:0:
448,192,222932,128,0,223003:0:0:0:0:
320,192,223003,128,0,223097:0:0:0:0:
192,192,223097,1,0,0:0:0:0:
64,192,223097,128,0,223284:0:0:0:0:
448,192,223097,1,0,0:0:0:0:
448,192,223222,128,0,223284:0:0:0:0:
192,192,223284,128,0,223378:0:0:0:0:
320,192,223284,128,0,223378:0:0:0:0:
64,192,223409,128,0,223472:0:0:0:0:
448,192,223472,128,0,223659:0:0:0:0:
192,192,223472,1,0,0:0:0:0:
320,192,223472,1,0,0:0:0:0:
64,192,223534,128,0,223597:0:0:0:0:
64,192,223659,128,0,223753:0:0:0:0:
320,192,223659,128,0,223753:0:0:0:0:
192,192,223659,128,0,223784:0:0:0:0:
192,192,223847,128,0,224034:0:0:0:0:
320,192,223847,128,0,223972:0:0:0:0:
448,192,223847,128,0,223909:0:0:0:0:
448,192,223972,128,0,224159:0:0:0:0:
320,192,224034,128,0,224159:0:0:0:0:
192,192,224097,128,0,224159:0:0:0:0:
320,192,224222,128,0,224386:0:0:0:0:
64,192,224222,128,0,224292:0:0:0:0:
192,192,224222,128,0,224339:0:0:0:0:
64,192,224339,128,0,224503:0:0:0:0:
192,192,224386,128,0,224503:0:0:0:0:
320,192,224432,128,0,224503:0:0:0:0:
448,192,224597,128,0,224737:0:0:0:0:
192,192,224597,128,0,224690:0:0:0:0:
64,192,224597,128,0,224643:0:0:0:0:
64,192,224690,128,0,224878:0:0:0:0:
448,192,224784,128,0,224878:0:0:0:0:
320,192,224784,1,0,0:0:0:0:
192,192,224878,1,0,0:0:0:0:
320,192,224878,1,0,0:0:0:0:
448,192,224972,1,0,0:0:0:0:
192,192,224972,1,0,0:0:0:0:
64,192,224972,1,0,0:0:0:0:
64,192,225159,128,0,225190:0:0:0:0:
320,192,225159,128,0,225190:0:0:0:0:
192,192,225159,128,0,225190:0:0:0:0:
64,192,225347,128,0,225487:0:0:0:0:
320,192,225347,128,0,225534:0:0:0:0:
192,192,225347,128,0,225511:0:0:0:0:
64,192,225534,128,0,225628:0:0:0:0:
448,192,225534,1,0,0:0:0:0:
192,192,225557,128,0,225628:0:0:0:0:
320,192,225581,128,0,225628:0:0:0:0:
64,192,225722,1,0,0:0:0:0:
448,192,225722,1,0,0:0:0:0:
320,192,225722,1,0,0:0:0:0:
192,192,225815,128,0,225940:0:0:0:0:
448,192,225815,128,0,225940:0:0:0:0:
320,192,225909,1,0,0:0:0:0:
192,192,226003,128,0,226097:0:0:0:0:
448,192,226097,128,0,226284:0:0:0:0:
64,192,226097,1,0,0:0:0:0:
320,192,226097,1,0,0:0:0:0:
320,192,226284,128,0,226378:0:0:0:0:
64,192,226284,128,0,226378:0:0:0:0:
192,192,226284,128,0,226409:0:0:0:0:
192,192,226472,128,0,226659:0:0:0:0:
448,192,226472,1,0,0:0:0:0:
64,192,226472,1,0,0:0:0:0:
64,192,226597,128,0,226784:0:0:0:0:
320,192,226659,128,0,226753:0:0:0:0:
448,192,226659,128,0,226753:0:0:0:0:
448,192,226847,128,0,226964:0:0:0:0:
320,192,226847,128,0,226987:0:0:0:0:
192,192,226847,128,0,227011:0:0:0:0:
448,192,227011,128,0,227128:0:0:0:0:
320,192,227034,128,0,227128:0:0:0:0:
64,192,227034,1,0,0:0:0:0:
192,192,227057,128,0,227128:0:0:0:0:
448,192,227222,1,0,0:0:0:0:
64,192,227222,1,0,0:0:0:0:
320,192,227222,1,0,0:0:0:0:
192,192,227315,128,0,227440:0:0:0:0:
448,192,227315,128,0,227440:0:0:0:0:
64,192,227409,1,0,0:0:0:0:
320,192,227503,128,0,227597:0:0:0:0:
64,192,227597,128,0,227784:0:0:0:0:
448,192,227597,1,0,0:0:0:0:
192,192,227597,1,0,0:0:0:0:
320,192,227659,128,0,227722:0:0:0:0:
448,192,227784,128,0,227878:0:0:0:0:
192,192,227784,128,0,227878:0:0:0:0:
64,192,227909,128,0,227972:0:0:0:0:
448,192,227972,128,0,228159:0:0:0:0:
320,192,227972,1,0,0:0:0:0:
192,192,227972,1,0,0:0:0:0:
320,192,228159,128,0,228229:0:0:0:0:
64,192,228159,128,0,228229:0:0:0:0:
192,192,228159,128,0,228284:0:0:0:0:
64,192,228347,128,0,228464:0:0:0:0:
320,192,228347,128,0,228487:0:0:0:0:
448,192,228347,128,0,228511:0:0:0:0:
64,192,228511,128,0,228628:0:0:0:0:
320,192,228534,128,0,228628:0:0:0:0:
192,192,228534,1,0,0:0:0:0:
448,192,228557,128,0,228628:0:0:0:0:
448,192,228722,1,0,0:0:0:0:
320,192,228722,1,0,0:0:0:0:
64,192,228722,1,0,0:0:0:0:
448,192,228815,128,0,228878:0:0:0:0:
320,192,228909,128,0,229034:0:0:0:0:
192,192,229003,128,0,229097:0:0:0:0:
448,192,229097,1,0,0:0:0:0:
320,192,229097,128,0,229284:0:0:0:0:
64,192,229097,1,0,0:0:0:0:
64,192,229222,128,0,229409:0:0:0:0:
448,192,229284,128,0,229378:0:0:0:0:
192,192,229284,128,0,229378:0:0:0:0:
192,192,229472,128,0,229659:0:0:0:0:
64,192,229472,1,0,0:0:0:0:
448,192,229472,1,0,0:0:0:0:
320,192,229534,128,0,229597:0:0:0:0:
448,192,229659,128,0,229753:0:0:0:0:
64,192,229659,128,0,229753:0:0:0:0:
320,192,229659,128,0,229784:0:0:0:0:
320,192,229847,128,0,230081:0:0:0:0:
192,192,229847,128,0,230034:0:0:0:0:
448,192,229847,128,0,229940:0:0:0:0:
64,192,230034,128,0,230128:0:0:0:0:
448,192,230034,128,0,230128:0:0:0:0:
192,192,230128,128,0,230222:0:0:0:0:
64,192,230222,1,0,0:0:0:0:
320,192,230222,1,0,0:0:0:0:
448,192,230222,1,0,0:0:0:0:
192,192,230315,128,0,230440:0:0:0:0:
448,192,230315,128,0,230440:0:0:0:0:
64,192,230409,1,0,0:0:0:0:
320,192,230503,1,0,0:0:0:0:
448,192,230597,1,0,0:0:0:0:
192,192,230597,1,0,0:0:0:0:
320,192,230597,1,0,0:0:0:0:
192,192,230690,128,0,230784:0:0:0:0:
320,192,230784,128,0,230878:0:0:0:0:
448,192,230909,1,0,0:0:0:0:
320,192,230972,1,0,0:0:0:0:
192,192,230972,1,0,0:0:0:0:
64,192,230972,1,0,0:0:0:0:
320,192,231065,128,0,231253:0:0:0:0:
448,192,231159,1,0,0:0:0:0:
192,192,231159,128,0,231284:0:0:0:0:
192,192,231347,128,0,231487:0:0:0:0:
320,192,231347,128,0,231440:0:0:0:0:
64,192,231347,128,0,231511:0:0:0:0:
320,192,231487,128,0,231628:0:0:0:0:
192,192,231534,128,0,231628:0:0:0:0:
448,192,231534,1,0,0:0:0:0:
64,192,231557,128,0,231628:0:0:0:0:
320,192,231722,1,0,0:0:0:0:
448,192,231722,1,0,0:0:0:0:
64,192,231722,1,0,0:0:0:0:
192,192,231815,128,0,231940:0:0:0:0:
448,192,231815,128,0,231940:0:0:0:0:
320,192,231909,1,0,0:0:0:0:
64,192,232003,128,0,232097:0:0:0:0:
192,192,232097,128,0,232284:0:0:0:0:
448,192,232097,1,0,0:0:0:0:
320,192,232097,1,0,0:0:0:0:
64,192,232159,128,0,232222:0:0:0:0:
320,192,232284,128,0,232378:0:0:0:0:
448,192,232284,128,0,232378:0:0:0:0:
192,192,232409,128,0,232472:0:0:0:0:
320,192,232472,128,0,232659:0:0:0:0:
448,192,232472,1,0,0:0:0:0:
64,192,232472,1,0,0:0:0:0:
448,192,232597,128,0,232784:0:0:0:0:
64,192,232659,128,0,232753:0:0:0:0:
192,192,232659,128,0,232753:0:0:0:0:
320,192,232847,128,0,232940:0:0:0:0:
448,192,232847,128,0,232987:0:0:0:0:
192,192,232847,1,0,0:0:0:0:
64,192,232909,128,0,232972:0:0:0:0:
320,192,232987,128,0,233128:0:0:0:0:
64,192,233034,128,0,233128:0:0:0:0:
448,192,233034,128,0,233128:0:0:0:0:
192,192,233034,1,0,0:0:0:0:
320,192,233222,1,0,0:0:0:0:
192,192,233222,1,0,0:0:0:0:
64,192,233222,1,0,0:0:0:0:
192,192,233409,128,0,233526:0:0:0:0:
320,192,233432,128,0,233526:0:0:0:0:
64,192,233503,128,0,233597:0:0:0:0:
320,192,233597,128,0,233784:0:0:0:0:
192,192,233597,1,0,0:0:0:0:
448,192,233597,1,0,0:0:0:0:
192,192,233722,128,0,233909:0:0:0:0:
64,192,233784,128,0,233878:0:0:0:0:
448,192,233784,128,0,233878:0:0:0:0:
192,192,233972,128,0,234159:0:0:0:0:
320,192,233972,1,0,0:0:0:0:
448,192,233972,1,0,0:0:0:0:
448,192,234097,128,0,234284:0:0:0:0:
320,192,234159,128,0,234253:0:0:0:0:
64,192,234159,128,0,234253:0:0:0:0:
192,192,234253,1,0,0:0:0:0:
192,192,234347,128,0,234464:0:0:0:0:
320,192,234347,128,0,234487:0:0:0:0:
448,192,234347,128,0,234511:0:0:0:0:
192,192,234511,128,0,234628:0:0:0:0:
320,192,234534,128,0,234628:0:0:0:0:
64,192,234534,1,0,0:0:0:0:
448,192,234557,128,0,234628:0:0:0:0:
192,192,234722,1,0,0:0:0:0:
64,192,234722,128,0,234886:0:0:0:0:
448,192,234722,128,0,234862:0:0:0:0:
448,192,234909,128,0,235003:0:0:0:0:
320,192,234909,1,0,0:0:0:0:
64,192,234932,128,0,235003:0:0:0:0:
192,192,235003,128,0,235097:0:0:0:0:
64,192,235097,1,0,0:0:0:0:
448,192,235097,128,0,235284:0:0:0:0:
320,192,235097,1,0,0:0:0:0:
192,192,235222,128,0,235409:0:0:0:0:
64,192,235284,128,0,235378:0:0:0:0:
320,192,235284,128,0,235378:0:0:0:0:
448,192,235347,1,0,0:0:0:0:
320,192,235409,1,0,0:0:0:0:
448,192,235472,128,0,235659:0:0:0:0:
192,192,235472,128,0,235518:0:0:0:0:
64,192,235472,1,0,0:0:0:0:
64,192,235565,1,0,0:0:0:0:
320,192,235659,128,0,235753:0:0:0:0:
192,192,235659,128,0,235753:0:0:0:0:
448,192,235753,1,0,0:0:0:0:
192,192,235847,128,0,236034:0:0:0:0:
320,192,235847,128,0,235972:0:0:0:0:
448,192,235847,128,0,235909:0:0:0:0:
448,192,235972,128,0,236159:0:0:0:0:
320,192,236034,128,0,236159:0:0:0:0:
192,192,236097,128,0,236159:0:0:0:0:
448,192,236253,128,0,236315:0:0:0:0:
320,192,236253,128,0,236315:0:0:0:0:
64,192,236253,128,0,236315:0:0:0:0:
192,192,236409,128,0,236503:0:0:0:0:
64,192,236409,128,0,236456:0:0:0:0:
320,192,236409,128,0,236550:0:0:0:0:
64,192,236550,128,0,236690:0:0:0:0:
192,192,236597,128,0,236690:0:0:0:0:
320,192,236643,128,0,236690:0:0:0:0:
448,192,236815,128,0,236878:0:0:0:0:
192,192,236815,128,0,236878:0:0:0:0:
448,192,236972,128,0,237042:0:0:0:0:
320,192,236972,128,0,237112:0:0:0:0:
192,192,236972,128,0,237206:0:0:0:0:
448,192,237136,128,0,237323:0:0:0:0:
320,192,237206,128,0,237370:0:0:0:0:
192,192,237300,128,0,237417:0:0:0:0:
320,192,238097,1,0,0:0:0:0:
192,192,238143,1,0,0:0:0:0:
448,192,238143,1,0,0:0:0:0:
448,192,238565,128,0,238847:0:0:0:0:
192,192,238659,128,0,238847:0:0:0:0:
320,192,238753,128,0,238940:0:0:0:0:
64,192,238847,128,0,240159:0:0:0:0:
192,192,240347,128,0,241237:0:0:0:0:
320,192,241190,128,0,242175:0:0:0:0:
448,192,242128,128,0,243815:0:0:0:0:
192,192,243722,128,0,245222:0:0:0:0:
320,192,245409,128,0,246722:0:0:0:0:
448,192,246909,128,0,248034:0:0:0:0:
192,192,248222,1,0,0:0:0:0:
448,192,248347,1,0,0:0:0:0:
64,192,248472,1,0,0:0:0:0:
448,192,248597,1,0,0:0:0:0:
192,192,248722,1,0,0:0:0:0:
64,192,248847,1,0,0:0:0:0:
64,192,248972,1,0,0:0:0:0:
448,192,249097,1,0,0:0:0:0:
448,192,249222,1,0,0:0:0:0:
192,192,249347,1,0,0:0:0:0:
192,192,249472,1,0,0:0:0:0:
192,192,249597,1,0,0:0:0:0:
320,192,249722,1,0,0:0:0:0:
320,192,249847,1,0,0:0:0:0:
64,192,249847,1,0,0:0:0:0:
320,192,249972,1,0,0:0:0:0:
64,192,249972,1,0,0:0:0:0:
448,192,250097,1,0,0:0:0:0:
192,192,250097,1,0,0:0:0:0:
