osu file format v14

[General]
AudioFilename: 3-10 Grimheart(Extend Mix).mp3
AudioLeadIn: 0
PreviewTime: 112922
Countdown: 0
SampleSet: Soft
StackLeniency: 0.7
Mode: 3
LetterboxInBreaks: 0
SpecialStyle: 0
WidescreenStoryboard: 0

[Editor]
Bookmarks: 45170,68464,78699,79052,84699,88935,135523,180699,203287,214581,225876,227287
DistanceSpacing: 0.8
BeatDivisor: 4
GridSize: 4
TimelineZoom: 1.1

[Metadata]
Title:Grimheart (Extend Mix)
TitleUnicode:Grimheart (Extend Mix)
Artist:puru
ArtistUnicode:puru
Creator:JamesHappy
Version:Normal
Source:BMS
Tags:of fighters ultimate 2016 bofu2016 groundbreaking chill trap legendary again
BeatmapID:1269697
BeatmapSetID:600948

[Difficulty]
HPDrainRate:7.4
CircleSize:4
OverallDifficulty:7.7
ApproachRate:5
SliderMultiplier:1.4
SliderTickRate:1

[Events]
//Background and Video events
0,0,"bg.jpg",0,0
//Break Periods
//Storyboard Layer 0 (Background)
//Storyboard Layer 1 (Fail)
//Storyboard Layer 2 (Pass)
//Storyboard Layer 3 (Foreground)
//Storyboard Sound Samples

[TimingPoints]
22570,352.941176470588,4,2,0,20,1,0
158099,-100,4,2,0,20,0,1
180687,-100,4,2,0,20,0,0
228687,-100,4,2,0,20,0,1
262569,-100,4,2,0,20,0,0

[HitObjects]
64,192,22570,5,0,0:0:0:0:
192,192,22570,1,0,0:0:0:0:
320,192,22746,1,0,0:0:0:0:
64,192,22922,1,0,0:0:0:0:
320,192,23099,1,0,0:0:0:0:
448,192,23099,1,0,0:0:0:0:
192,192,23275,1,0,0:0:0:0:
448,192,23452,1,0,0:0:0:0:
192,192,23628,1,0,0:0:0:0:
448,192,23805,1,0,0:0:0:0:
64,192,23981,1,0,0:0:0:0:
192,192,24070,1,0,0:0:0:0:
320,192,24158,1,0,0:0:0:0:
448,192,24158,1,0,0:0:0:0:
192,192,24334,1,0,0:0:0:0:
64,192,24334,1,0,0:0:0:0:
448,192,24511,1,0,0:0:0:0:
64,192,24687,1,0,0:0:0:0:
320,192,24687,1,0,0:0:0:0:
192,192,24864,1,0,0:0:0:0:
448,192,25040,1,0,0:0:0:0:
448,192,25217,1,0,0:0:0:0:
64,192,25393,1,0,0:0:0:0:
320,192,25393,1,0,0:0:0:0:
192,192,25570,1,0,0:0:0:0:
448,192,25746,1,0,0:0:0:0:
320,192,25922,1,0,0:0:0:0:
192,192,25922,1,0,0:0:0:0:
64,192,26099,1,0,0:0:0:0:
320,192,26275,1,0,0:0:0:0:
64,192,26452,1,0,0:0:0:0:
320,192,26628,1,0,0:0:0:0:
192,192,26805,1,0,0:0:0:0:
320,192,26893,1,0,0:0:0:0:
448,192,26981,1,0,0:0:0:0:
64,192,26981,1,0,0:0:0:0:
448,192,27158,1,0,0:0:0:0:
64,192,27158,1,0,0:0:0:0:
192,192,27334,1,0,0:0:0:0:
320,192,27511,1,0,0:0:0:0:
64,192,27511,1,0,0:0:0:0:
448,192,27599,1,0,0:0:0:0:
192,192,27687,1,0,0:0:0:0:
64,192,27775,1,0,0:0:0:0:
320,192,27864,1,0,0:0:0:0:
320,192,28040,1,0,0:0:0:0:
64,192,28217,1,0,0:0:0:0:
192,192,28217,1,0,0:0:0:0:
320,192,28393,1,0,0:0:0:0:
448,192,28570,1,0,0:0:0:0:
64,192,28746,1,0,0:0:0:0:
192,192,28746,1,0,0:0:0:0:
320,192,28922,1,0,0:0:0:0:
192,192,29099,1,0,0:0:0:0:
448,192,29275,1,0,0:0:0:0:
64,192,29452,1,0,0:0:0:0:
320,192,29628,1,0,0:0:0:0:
192,192,29717,1,0,0:0:0:0:
64,192,29805,1,0,0:0:0:0:
448,192,29805,1,0,0:0:0:0:
64,192,29981,1,0,0:0:0:0:
192,192,29981,1,0,0:0:0:0:
320,192,30158,1,0,0:0:0:0:
192,192,30334,1,0,0:0:0:0:
448,192,30334,1,0,0:0:0:0:
64,192,30511,1,0,0:0:0:0:
320,192,30687,1,0,0:0:0:0:
192,192,30864,1,0,0:0:0:0:
320,192,30952,1,0,0:0:0:0:
448,192,31040,1,0,0:0:0:0:
64,192,31040,1,0,0:0:0:0:
192,192,31217,1,0,0:0:0:0:
320,192,31393,1,0,0:0:0:0:
192,192,31570,1,0,0:0:0:0:
64,192,31570,1,0,0:0:0:0:
448,192,31746,1,0,0:0:0:0:
192,192,31922,1,0,0:0:0:0:
320,192,32099,1,0,0:0:0:0:
64,192,32275,1,0,0:0:0:0:
192,192,32364,1,0,0:0:0:0:
320,192,32452,1,0,0:0:0:0:
448,192,32452,1,0,0:0:0:0:
192,192,32628,1,0,0:0:0:0:
64,192,32628,1,0,0:0:0:0:
448,192,32805,1,0,0:0:0:0:
64,192,32981,1,0,0:0:0:0:
320,192,33158,1,0,0:0:0:0:
192,192,33158,1,0,0:0:0:0:
448,192,33246,1,0,0:0:0:0:
64,192,33334,1,0,0:0:0:0:
320,192,33511,1,0,0:0:0:0:
320,192,33687,1,0,0:0:0:0:
64,192,33864,1,0,0:0:0:0:
448,192,33864,1,0,0:0:0:0:
192,192,34040,1,0,0:0:0:0:
320,192,34217,1,0,0:0:0:0:
64,192,34393,1,0,0:0:0:0:
448,192,34393,1,0,0:0:0:0:
320,192,34570,1,0,0:0:0:0:
192,192,34746,1,0,0:0:0:0:
320,192,34922,1,0,0:0:0:0:
64,192,35099,1,0,0:0:0:0:
320,192,35275,1,0,0:0:0:0:
64,192,35364,1,0,0:0:0:0:
192,192,35452,1,0,0:0:0:0:
448,192,35452,1,0,0:0:0:0:
192,192,35628,1,0,0:0:0:0:
64,192,35628,1,0,0:0:0:0:
320,192,35805,1,0,0:0:0:0:
64,192,35981,1,0,0:0:0:0:
448,192,35981,1,0,0:0:0:0:
192,192,36158,1,0,0:0:0:0:
320,192,36334,1,0,0:0:0:0:
320,192,36511,1,0,0:0:0:0:
64,192,36687,1,0,0:0:0:0:
448,192,36687,1,0,0:0:0:0:
192,192,36864,1,0,0:0:0:0:
320,192,37040,1,0,0:0:0:0:
64,192,37217,1,0,0:0:0:0:
192,192,37217,1,0,0:0:0:0:
320,192,37393,1,0,0:0:0:0:
448,192,37570,1,0,0:0:0:0:
192,192,37746,1,0,0:0:0:0:
320,192,37922,1,0,0:0:0:0:
64,192,38099,1,0,0:0:0:0:
192,192,38187,1,0,0:0:0:0:
320,192,38275,1,0,0:0:0:0:
448,192,38275,1,0,0:0:0:0:
192,192,38452,1,0,0:0:0:0:
64,192,38452,1,0,0:0:0:0:
320,192,38628,1,0,0:0:0:0:
64,192,38805,1,0,0:0:0:0:
192,192,38805,1,0,0:0:0:0:
320,192,38893,1,0,0:0:0:0:
448,192,38981,1,0,0:0:0:0:
192,192,39070,1,0,0:0:0:0:
320,192,39158,1,0,0:0:0:0:
448,192,39334,1,0,0:0:0:0:
448,192,39511,1,0,0:0:0:0:
192,192,39511,1,0,0:0:0:0:
64,192,39687,1,0,0:0:0:0:
320,192,39864,1,0,0:0:0:0:
192,192,40040,1,0,0:0:0:0:
448,192,40040,1,0,0:0:0:0:
64,192,40217,1,0,0:0:0:0:
320,192,40393,1,0,0:0:0:0:
192,192,40570,1,0,0:0:0:0:
64,192,40746,1,0,0:0:0:0:
320,192,40922,1,0,0:0:0:0:
448,192,41011,1,0,0:0:0:0:
192,192,41099,1,0,0:0:0:0:
64,192,41099,1,0,0:0:0:0:
448,192,41275,1,0,0:0:0:0:
320,192,41275,1,0,0:0:0:0:
448,192,41452,1,0,0:0:0:0:
320,192,41628,1,0,0:0:0:0:
64,192,41628,1,0,0:0:0:0:
192,192,41805,1,0,0:0:0:0:
448,192,41981,1,0,0:0:0:0:
448,192,42158,1,0,0:0:0:0:
64,192,42334,1,0,0:0:0:0:
192,192,42334,1,0,0:0:0:0:
320,192,42511,1,0,0:0:0:0:
192,192,42687,1,0,0:0:0:0:
320,192,42864,1,0,0:0:0:0:
448,192,42864,1,0,0:0:0:0:
64,192,43040,1,0,0:0:0:0:
320,192,43217,1,0,0:0:0:0:
320,192,43393,1,0,0:0:0:0:
320,192,43570,1,0,0:0:0:0:
448,192,43658,1,0,0:0:0:0:
64,192,43746,1,0,0:0:0:0:
192,192,43746,1,0,0:0:0:0:
320,192,43922,1,0,0:0:0:0:
448,192,43922,1,0,0:0:0:0:
320,192,44099,1,0,0:0:0:0:
192,192,44275,1,0,0:0:0:0:
448,192,44452,1,0,0:0:0:0:
320,192,44452,1,0,0:0:0:0:
192,192,44540,1,0,0:0:0:0:
64,192,44628,1,0,0:0:0:0:
320,192,44717,1,0,0:0:0:0:
448,192,44805,1,0,0:0:0:0:
448,192,44981,1,0,0:0:0:0:
64,192,45158,128,0,47981:0:0:0:0:
320,192,47981,128,0,49128:0:0:0:0:
448,192,49128,128,0,49570:0:0:0:0:
192,192,49570,128,0,50099:0:0:0:0:
320,192,50099,128,0,50275:0:0:0:0:
64,192,50275,128,0,50452:0:0:0:0:
448,192,50452,128,0,50805:0:0:0:0:
192,192,50805,128,0,51334:0:0:0:0:
320,192,51334,128,0,52570:0:0:0:0:
64,192,52570,128,0,53275:0:0:0:0:
448,192,53275,1,0,0:0:0:0:
320,192,53364,1,0,0:0:0:0:
448,192,53452,1,0,0:0:0:0:
320,192,53540,1,0,0:0:0:0:
192,192,53628,128,0,55040:0:0:0:0:
320,192,55040,128,0,56099:0:0:0:0:
64,192,55922,1,0,0:0:0:0:
448,192,56099,128,0,56452:0:0:0:0:
192,192,56452,128,0,57864:0:0:0:0:
320,192,57864,128,0,58217:0:0:0:0:
64,192,58217,128,0,58393:0:0:0:0:
192,192,58393,128,0,58570:0:0:0:0:
448,192,58570,128,0,59099:0:0:0:0:
192,192,58922,1,0,0:0:0:0:
320,192,59275,128,0,60422:0:0:0:0:
192,192,60422,128,0,60775:0:0:0:0:
448,192,60775,128,0,61393:0:0:0:0:
64,192,61393,128,0,61570:0:0:0:0:
320,192,61570,128,0,61746:0:0:0:0:
192,192,61746,128,0,62099:0:0:0:0:
320,192,62099,128,0,62628:0:0:0:0:
448,192,62628,128,0,63864:0:0:0:0:
64,192,63864,128,0,64570:0:0:0:0:
320,192,64570,1,0,0:0:0:0:
448,192,64658,1,0,0:0:0:0:
320,192,64746,1,0,0:0:0:0:
448,192,64834,1,0,0:0:0:0:
192,192,64922,128,0,66334:0:0:0:0:
320,192,65981,128,0,66334:0:0:0:0:
64,192,66334,128,0,66511:0:0:0:0:
320,192,66511,128,0,66599:0:0:0:0:
448,192,66599,128,0,67040:0:0:0:0:
192,192,67040,128,0,67393:0:0:0:0:
320,192,67393,128,0,67746:0:0:0:0:
64,192,67746,1,0,0:0:0:0:
64,192,68452,1,0,0:0:0:0:
192,192,68628,1,0,0:0:0:0:
320,192,68805,1,0,0:0:0:0:
448,192,68981,1,0,0:0:0:0:
192,192,69158,1,0,0:0:0:0:
320,192,69334,1,0,0:0:0:0:
64,192,69511,1,0,0:0:0:0:
320,192,69687,1,0,0:0:0:0:
192,192,69864,1,0,0:0:0:0:
448,192,70040,1,0,0:0:0:0:
320,192,70217,1,0,0:0:0:0:
192,192,70393,1,0,0:0:0:0:
64,192,70570,1,0,0:0:0:0:
320,192,70746,1,0,0:0:0:0:
192,192,70922,1,0,0:0:0:0:
448,192,71099,1,0,0:0:0:0:
320,192,71275,1,0,0:0:0:0:
64,192,71452,1,0,0:0:0:0:
192,192,71628,1,0,0:0:0:0:
320,192,71805,1,0,0:0:0:0:
448,192,71981,1,0,0:0:0:0:
192,192,72158,1,0,0:0:0:0:
320,192,72334,1,0,0:0:0:0:
64,192,72511,1,0,0:0:0:0:
192,192,72687,1,0,0:0:0:0:
448,192,72864,1,0,0:0:0:0:
320,192,73040,1,0,0:0:0:0:
192,192,73217,1,0,0:0:0:0:
64,192,73393,1,0,0:0:0:0:
320,192,73569,1,0,0:0:0:0:
192,192,73746,1,0,0:0:0:0:
448,192,73922,1,0,0:0:0:0:
320,192,74099,1,0,0:0:0:0:
64,192,74275,1,0,0:0:0:0:
192,192,74452,1,0,0:0:0:0:
320,192,74628,1,0,0:0:0:0:
448,192,74805,1,0,0:0:0:0:
192,192,74981,1,0,0:0:0:0:
320,192,75158,1,0,0:0:0:0:
64,192,75334,1,0,0:0:0:0:
192,192,75511,1,0,0:0:0:0:
448,192,75687,1,0,0:0:0:0:
320,192,75864,1,0,0:0:0:0:
192,192,76040,1,0,0:0:0:0:
64,192,76217,1,0,0:0:0:0:
192,192,76452,1,0,0:0:0:0:
320,192,76687,1,0,0:0:0:0:
448,192,76922,1,0,0:0:0:0:
192,192,77158,1,0,0:0:0:0:
320,192,77393,1,0,0:0:0:0:
64,192,77628,1,0,0:0:0:0:
192,192,77805,1,0,0:0:0:0:
320,192,77981,1,0,0:0:0:0:
448,192,78158,1,0,0:0:0:0:
192,192,78334,1,0,0:0:0:0:
320,192,78687,1,0,0:0:0:0:
448,192,78864,128,0,79040:0:0:0:0:
64,192,79040,128,0,88922:0:0:0:0:
192,192,79040,1,0,0:0:0:0:
320,192,79217,1,0,0:0:0:0:
448,192,79393,1,0,0:0:0:0:
192,192,79569,1,0,0:0:0:0:
448,192,79746,1,0,0:0:0:0:
320,192,79922,1,0,0:0:0:0:
192,192,80099,1,0,0:0:0:0:
448,192,80275,1,0,0:0:0:0:
192,192,80452,1,0,0:0:0:0:
320,192,80628,1,0,0:0:0:0:
448,192,80805,1,0,0:0:0:0:
192,192,80981,1,0,0:0:0:0:
448,192,81158,1,0,0:0:0:0:
320,192,81334,1,0,0:0:0:0:
192,192,81511,1,0,0:0:0:0:
448,192,81687,1,0,0:0:0:0:
192,192,81864,1,0,0:0:0:0:
320,192,82040,1,0,0:0:0:0:
448,192,82217,1,0,0:0:0:0:
192,192,82393,1,0,0:0:0:0:
448,192,82569,1,0,0:0:0:0:
320,192,82746,1,0,0:0:0:0:
192,192,82922,1,0,0:0:0:0:
448,192,83099,1,0,0:0:0:0:
192,192,83275,1,0,0:0:0:0:
320,192,83452,1,0,0:0:0:0:
448,192,83628,1,0,0:0:0:0:
192,192,83805,1,0,0:0:0:0:
448,192,83981,1,0,0:0:0:0:
320,192,84158,1,0,0:0:0:0:
192,192,84334,1,0,0:0:0:0:
448,192,84511,1,0,0:0:0:0:
192,192,84687,1,0,0:0:0:0:
320,192,84864,1,0,0:0:0:0:
448,192,85040,1,0,0:0:0:0:
192,192,85217,1,0,0:0:0:0:
448,192,85393,1,0,0:0:0:0:
320,192,85569,1,0,0:0:0:0:
192,192,85746,1,0,0:0:0:0:
448,192,85922,1,0,0:0:0:0:
192,192,86099,1,0,0:0:0:0:
320,192,86275,1,0,0:0:0:0:
448,192,86452,1,0,0:0:0:0:
192,192,86628,1,0,0:0:0:0:
448,192,86805,1,0,0:0:0:0:
320,192,86981,1,0,0:0:0:0:
192,192,87158,1,0,0:0:0:0:
448,192,87334,1,0,0:0:0:0:
192,192,87511,1,0,0:0:0:0:
320,192,87687,1,0,0:0:0:0:
448,192,87864,1,0,0:0:0:0:
192,192,88040,1,0,0:0:0:0:
448,192,88217,1,0,0:0:0:0:
320,192,88393,1,0,0:0:0:0:
192,192,88569,1,0,0:0:0:0:
448,192,88746,1,0,0:0:0:0:
320,192,88922,128,0,89275:0:0:0:0:
192,192,89275,128,0,89805:0:0:0:0:
320,192,89805,128,0,89981:0:0:0:0:
448,192,89981,128,0,90158:0:0:0:0:
192,192,90158,128,0,90334:0:0:0:0:
64,192,90334,1,0,0:0:0:0:
192,192,90511,1,0,0:0:0:0:
320,192,90687,1,0,0:0:0:0:
448,192,90864,1,0,0:0:0:0:
192,192,91393,1,0,0:0:0:0:
320,192,91746,1,0,0:0:0:0:
64,192,93158,1,0,0:0:0:0:
192,192,93334,1,0,0:0:0:0:
320,192,93511,1,0,0:0:0:0:
448,192,93687,1,0,0:0:0:0:
192,192,94217,1,0,0:0:0:0:
448,192,94569,1,0,0:0:0:0:
192,192,95275,1,0,0:0:0:0:
448,192,95628,1,0,0:0:0:0:
64,192,95981,1,0,0:0:0:0:
192,192,96158,1,0,0:0:0:0:
320,192,96334,1,0,0:0:0:0:
448,192,96511,1,0,0:0:0:0:
64,192,97040,1,0,0:0:0:0:
448,192,98275,1,0,0:0:0:0:
64,192,98805,1,0,0:0:0:0:
192,192,98981,1,0,0:0:0:0:
320,192,99158,1,0,0:0:0:0:
448,192,99334,1,0,0:0:0:0:
64,192,99864,1,0,0:0:0:0:
192,192,100217,1,0,0:0:0:0:
192,192,100393,1,0,0:0:0:0:
320,192,100569,1,0,0:0:0:0:
320,192,100746,1,0,0:0:0:0:
448,192,100922,1,0,0:0:0:0:
448,192,101275,1,0,0:0:0:0:
320,192,101364,1,0,0:0:0:0:
192,192,101452,1,0,0:0:0:0:
64,192,101628,1,0,0:0:0:0:
192,192,101805,1,0,0:0:0:0:
320,192,101981,1,0,0:0:0:0:
448,192,102158,1,0,0:0:0:0:
192,192,102687,1,0,0:0:0:0:
320,192,103040,1,0,0:0:0:0:
320,192,103922,1,0,0:0:0:0:
64,192,104099,1,0,0:0:0:0:
192,192,104187,1,0,0:0:0:0:
320,192,104275,1,0,0:0:0:0:
448,192,104364,1,0,0:0:0:0:
64,192,104452,1,0,0:0:0:0:
192,192,104628,1,0,0:0:0:0:
320,192,104805,1,0,0:0:0:0:
448,192,104981,1,0,0:0:0:0:
192,192,105334,1,0,0:0:0:0:
64,192,105422,1,0,0:0:0:0:
320,192,105511,1,0,0:0:0:0:
448,192,105864,1,0,0:0:0:0:
192,192,106040,128,0,106217:0:0:0:0:
320,192,106217,1,0,0:0:0:0:
448,192,106305,1,0,0:0:0:0:
192,192,106393,1,0,0:0:0:0:
64,192,106481,1,0,0:0:0:0:
320,192,106569,1,0,0:0:0:0:
192,192,106746,1,0,0:0:0:0:
448,192,106922,1,0,0:0:0:0:
64,192,107275,1,0,0:0:0:0:
192,192,107452,1,0,0:0:0:0:
320,192,107628,1,0,0:0:0:0:
448,192,107805,1,0,0:0:0:0:
192,192,108334,1,0,0:0:0:0:
64,192,109393,128,0,109569:0:0:0:0:
320,192,109569,1,0,0:0:0:0:
192,192,109658,1,0,0:0:0:0:
64,192,109746,128,0,110099:0:0:0:0:
192,192,110099,1,0,0:0:0:0:
320,192,110275,1,0,0:0:0:0:
64,192,110452,1,0,0:0:0:0:
448,192,110628,1,0,0:0:0:0:
192,192,111158,1,0,0:0:0:0:
320,192,111511,1,0,0:0:0:0:
64,192,111511,128,0,112569:0:0:0:0:
448,192,111864,1,0,0:0:0:0:
448,192,112217,1,0,0:0:0:0:
448,192,112569,1,0,0:0:0:0:
64,192,112922,1,0,0:0:0:0:
192,192,112922,1,0,0:0:0:0:
192,192,113099,1,0,0:0:0:0:
320,192,113275,1,0,0:0:0:0:
448,192,113452,1,0,0:0:0:0:
64,192,113452,1,0,0:0:0:0:
192,192,113981,1,0,0:0:0:0:
320,192,114334,1,0,0:0:0:0:
64,192,114687,1,0,0:0:0:0:
192,192,114687,1,0,0:0:0:0:
320,192,115040,1,0,0:0:0:0:
448,192,115040,1,0,0:0:0:0:
64,192,115746,1,0,0:0:0:0:
320,192,115746,1,0,0:0:0:0:
192,192,115922,1,0,0:0:0:0:
320,192,116099,1,0,0:0:0:0:
448,192,116275,1,0,0:0:0:0:
192,192,116275,1,0,0:0:0:0:
192,192,116805,1,0,0:0:0:0:
448,192,117158,1,0,0:0:0:0:
64,192,117334,1,0,0:0:0:0:
192,192,117334,1,0,0:0:0:0:
64,192,117511,1,0,0:0:0:0:
192,192,117511,1,0,0:0:0:0:
320,192,117864,1,0,0:0:0:0:
448,192,117864,1,0,0:0:0:0:
448,192,118217,1,0,0:0:0:0:
64,192,118569,1,0,0:0:0:0:
448,192,118569,1,0,0:0:0:0:
320,192,118746,1,0,0:0:0:0:
192,192,118922,1,0,0:0:0:0:
448,192,119099,1,0,0:0:0:0:
320,192,119099,1,0,0:0:0:0:
64,192,119628,1,0,0:0:0:0:
192,192,120158,1,0,0:0:0:0:
320,192,120334,1,0,0:0:0:0:
448,192,120334,1,0,0:0:0:0:
64,192,120687,1,0,0:0:0:0:
192,192,120687,1,0,0:0:0:0:
448,192,120864,1,0,0:0:0:0:
64,192,121393,1,0,0:0:0:0:
448,192,121393,1,0,0:0:0:0:
192,192,121569,1,0,0:0:0:0:
320,192,121746,1,0,0:0:0:0:
448,192,121922,1,0,0:0:0:0:
64,192,121922,1,0,0:0:0:0:
64,192,122452,1,0,0:0:0:0:
320,192,122628,1,0,0:0:0:0:
192,192,122805,1,0,0:0:0:0:
64,192,122805,1,0,0:0:0:0:
192,192,122981,1,0,0:0:0:0:
64,192,122981,1,0,0:0:0:0:
320,192,123158,1,0,0:0:0:0:
320,192,123334,1,0,0:0:0:0:
448,192,123511,1,0,0:0:0:0:
192,192,123511,1,0,0:0:0:0:
448,192,123864,1,0,0:0:0:0:
320,192,123952,1,0,0:0:0:0:
192,192,124040,1,0,0:0:0:0:
64,192,124217,1,0,0:0:0:0:
448,192,124217,1,0,0:0:0:0:
192,192,124393,1,0,0:0:0:0:
320,192,124569,1,0,0:0:0:0:
448,192,124746,1,0,0:0:0:0:
192,192,124746,1,0,0:0:0:0:
192,192,125275,1,0,0:0:0:0:
320,192,125628,1,0,0:0:0:0:
448,192,125805,1,0,0:0:0:0:
64,192,125981,1,0,0:0:0:0:
192,192,125981,1,0,0:0:0:0:
192,192,126334,1,0,0:0:0:0:
448,192,126334,1,0,0:0:0:0:
320,192,126687,1,0,0:0:0:0:
192,192,126775,1,0,0:0:0:0:
448,192,126864,1,0,0:0:0:0:
320,192,126952,1,0,0:0:0:0:
64,192,127040,1,0,0:0:0:0:
192,192,127040,1,0,0:0:0:0:
320,192,127217,1,0,0:0:0:0:
192,192,127393,1,0,0:0:0:0:
448,192,127569,1,0,0:0:0:0:
320,192,127569,1,0,0:0:0:0:
192,192,127922,1,0,0:0:0:0:
64,192,128011,1,0,0:0:0:0:
320,192,128099,1,0,0:0:0:0:
448,192,128452,1,0,0:0:0:0:
64,192,128628,1,0,0:0:0:0:
320,192,128628,1,0,0:0:0:0:
320,192,128805,1,0,0:0:0:0:
64,192,128805,1,0,0:0:0:0:
448,192,128893,1,0,0:0:0:0:
192,192,128981,1,0,0:0:0:0:
64,192,129069,1,0,0:0:0:0:
320,192,129158,1,0,0:0:0:0:
448,192,129158,1,0,0:0:0:0:
192,192,129334,1,0,0:0:0:0:
448,192,129511,1,0,0:0:0:0:
320,192,129511,1,0,0:0:0:0:
64,192,129864,1,0,0:0:0:0:
320,192,129864,1,0,0:0:0:0:
192,192,130040,1,0,0:0:0:0:
320,192,130217,1,0,0:0:0:0:
448,192,130393,1,0,0:0:0:0:
64,192,130393,1,0,0:0:0:0:
192,192,130922,1,0,0:0:0:0:
192,192,131452,1,0,0:0:0:0:
320,192,131628,1,0,0:0:0:0:
448,192,131628,1,0,0:0:0:0:
64,192,131981,128,0,132158:0:0:0:0:
192,192,131981,1,0,0:0:0:0:
320,192,132334,1,0,0:0:0:0:
192,192,132511,1,0,0:0:0:0:
448,192,132599,1,0,0:0:0:0:
320,192,132687,1,0,0:0:0:0:
64,192,132687,1,0,0:0:0:0:
192,192,132864,1,0,0:0:0:0:
64,192,133040,1,0,0:0:0:0:
448,192,133217,1,0,0:0:0:0:
320,192,133217,1,0,0:0:0:0:
192,192,133746,1,0,0:0:0:0:
448,192,133922,128,0,134099:0:0:0:0:
64,192,134099,128,0,135158:0:0:0:0:
320,192,134099,1,0,0:0:0:0:
320,192,134275,1,0,0:0:0:0:
448,192,134452,1,0,0:0:0:0:
448,192,134805,1,0,0:0:0:0:
192,192,134805,128,0,135158:0:0:0:0:
320,192,135158,1,0,0:0:0:0:
448,192,135246,1,0,0:0:0:0:
320,192,135334,1,0,0:0:0:0:
192,192,135422,1,0,0:0:0:0:
448,192,135511,1,0,0:0:0:0:
64,192,135511,1,0,0:0:0:0:
192,192,135687,1,0,0:0:0:0:
320,192,135864,1,0,0:0:0:0:
448,192,136040,1,0,0:0:0:0:
64,192,136040,1,0,0:0:0:0:
192,192,136217,1,0,0:0:0:0:
320,192,136393,1,0,0:0:0:0:
192,192,136569,1,0,0:0:0:0:
64,192,136746,1,0,0:0:0:0:
192,192,136834,1,0,0:0:0:0:
320,192,136922,1,0,0:0:0:0:
448,192,137099,1,0,0:0:0:0:
64,192,137275,1,0,0:0:0:0:
192,192,137275,1,0,0:0:0:0:
320,192,137452,1,0,0:0:0:0:
320,192,137628,1,0,0:0:0:0:
448,192,137628,1,0,0:0:0:0:
192,192,137805,1,0,0:0:0:0:
320,192,137981,1,0,0:0:0:0:
448,192,138158,1,0,0:0:0:0:
64,192,138334,1,0,0:0:0:0:
320,192,138334,1,0,0:0:0:0:
192,192,138511,1,0,0:0:0:0:
320,192,138687,1,0,0:0:0:0:
448,192,138864,1,0,0:0:0:0:
64,192,138864,1,0,0:0:0:0:
192,192,139040,1,0,0:0:0:0:
320,192,139217,1,0,0:0:0:0:
192,192,139393,1,0,0:0:0:0:
64,192,139569,1,0,0:0:0:0:
320,192,139658,1,0,0:0:0:0:
448,192,139746,1,0,0:0:0:0:
192,192,139922,1,0,0:0:0:0:
64,192,139922,1,0,0:0:0:0:
64,192,140099,1,0,0:0:0:0:
192,192,140099,1,0,0:0:0:0:
320,192,140275,1,0,0:0:0:0:
192,192,140452,1,0,0:0:0:0:
448,192,140452,1,0,0:0:0:0:
64,192,140628,1,0,0:0:0:0:
448,192,140805,1,0,0:0:0:0:
320,192,140981,1,0,0:0:0:0:
64,192,141158,1,0,0:0:0:0:
192,192,141158,1,0,0:0:0:0:
448,192,141334,1,0,0:0:0:0:
192,192,141511,1,0,0:0:0:0:
448,192,141687,1,0,0:0:0:0:
320,192,141687,1,0,0:0:0:0:
192,192,141864,1,0,0:0:0:0:
64,192,142040,1,0,0:0:0:0:
320,192,142217,1,0,0:0:0:0:
192,192,142393,1,0,0:0:0:0:
320,192,142481,1,0,0:0:0:0:
448,192,142569,1,0,0:0:0:0:
64,192,142746,1,0,0:0:0:0:
192,192,142922,1,0,0:0:0:0:
320,192,142922,1,0,0:0:0:0:
64,192,143099,1,0,0:0:0:0:
320,192,143275,1,0,0:0:0:0:
448,192,143275,1,0,0:0:0:0:
192,192,143452,1,0,0:0:0:0:
64,192,143628,1,0,0:0:0:0:
320,192,143805,1,0,0:0:0:0:
64,192,143981,1,0,0:0:0:0:
448,192,143981,1,0,0:0:0:0:
192,192,144158,1,0,0:0:0:0:
320,192,144334,1,0,0:0:0:0:
448,192,144511,1,0,0:0:0:0:
192,192,144511,1,0,0:0:0:0:
64,192,144687,1,0,0:0:0:0:
320,192,144864,1,0,0:0:0:0:
64,192,145040,1,0,0:0:0:0:
320,192,145217,1,0,0:0:0:0:
192,192,145393,1,0,0:0:0:0:
64,192,145393,1,0,0:0:0:0:
192,192,145569,1,0,0:0:0:0:
64,192,145569,1,0,0:0:0:0:
320,192,145746,1,0,0:0:0:0:
320,192,145922,1,0,0:0:0:0:
448,192,146099,1,0,0:0:0:0:
64,192,146099,1,0,0:0:0:0:
192,192,146187,1,0,0:0:0:0:
320,192,146275,1,0,0:0:0:0:
448,192,146452,1,0,0:0:0:0:
320,192,146540,1,0,0:0:0:0:
192,192,146628,1,0,0:0:0:0:
64,192,146805,1,0,0:0:0:0:
320,192,146805,1,0,0:0:0:0:
448,192,146981,1,0,0:0:0:0:
192,192,147158,1,0,0:0:0:0:
448,192,147334,1,0,0:0:0:0:
64,192,147334,1,0,0:0:0:0:
320,192,147511,1,0,0:0:0:0:
64,192,147687,1,0,0:0:0:0:
192,192,147864,1,0,0:0:0:0:
448,192,148040,1,0,0:0:0:0:
320,192,148128,1,0,0:0:0:0:
192,192,148217,1,0,0:0:0:0:
320,192,148393,1,0,0:0:0:0:
64,192,148569,1,0,0:0:0:0:
192,192,148569,1,0,0:0:0:0:
320,192,148746,1,0,0:0:0:0:
64,192,148922,1,0,0:0:0:0:
448,192,148922,1,0,0:0:0:0:
320,192,149099,1,0,0:0:0:0:
192,192,149275,1,0,0:0:0:0:
64,192,149364,1,0,0:0:0:0:
448,192,149452,1,0,0:0:0:0:
320,192,149540,1,0,0:0:0:0:
64,192,149628,1,0,0:0:0:0:
192,192,149628,1,0,0:0:0:0:
320,192,149805,1,0,0:0:0:0:
64,192,149981,1,0,0:0:0:0:
448,192,150158,1,0,0:0:0:0:
192,192,150158,1,0,0:0:0:0:
320,192,150334,1,0,0:0:0:0:
192,192,150511,1,0,0:0:0:0:
320,192,150687,1,0,0:0:0:0:
64,192,150864,1,0,0:0:0:0:
192,192,150952,1,0,0:0:0:0:
448,192,151040,1,0,0:0:0:0:
64,192,151217,1,0,0:0:0:0:
192,192,151217,1,0,0:0:0:0:
192,192,151393,1,0,0:0:0:0:
64,192,151393,1,0,0:0:0:0:
320,192,151569,1,0,0:0:0:0:
192,192,151746,1,0,0:0:0:0:
448,192,151746,1,0,0:0:0:0:
64,192,151922,1,0,0:0:0:0:
448,192,152099,1,0,0:0:0:0:
320,192,152099,1,0,0:0:0:0:
64,192,152452,1,0,0:0:0:0:
192,192,152452,1,0,0:0:0:0:
320,192,152628,1,0,0:0:0:0:
64,192,152805,1,0,0:0:0:0:
448,192,152981,1,0,0:0:0:0:
192,192,152981,1,0,0:0:0:0:
320,192,153158,1,0,0:0:0:0:
64,192,153334,1,0,0:0:0:0:
192,192,153511,1,0,0:0:0:0:
448,192,153687,1,0,0:0:0:0:
320,192,153775,1,0,0:0:0:0:
192,192,153864,1,0,0:0:0:0:
64,192,154040,1,0,0:0:0:0:
320,192,154217,1,0,0:0:0:0:
448,192,154217,1,0,0:0:0:0:
192,192,154393,1,0,0:0:0:0:
64,192,154569,1,0,0:0:0:0:
320,192,154569,1,0,0:0:0:0:
448,192,154746,1,0,0:0:0:0:
320,192,154922,1,0,0:0:0:0:
192,192,155099,1,0,0:0:0:0:
320,192,155187,1,0,0:0:0:0:
448,192,155275,1,0,0:0:0:0:
64,192,155275,1,0,0:0:0:0:
320,192,155452,1,0,0:0:0:0:
64,192,155628,1,0,0:0:0:0:
448,192,155805,1,0,0:0:0:0:
192,192,155805,1,0,0:0:0:0:
320,192,155981,1,0,0:0:0:0:
64,192,156158,1,0,0:0:0:0:
320,192,156334,1,0,0:0:0:0:
448,192,156334,1,0,0:0:0:0:
192,192,156511,1,0,0:0:0:0:
448,192,156599,1,0,0:0:0:0:
320,192,156687,1,0,0:0:0:0:
64,192,156687,1,0,0:0:0:0:
64,192,156864,1,0,0:0:0:0:
192,192,156864,1,0,0:0:0:0:
448,192,157040,1,0,0:0:0:0:
320,192,157217,1,0,0:0:0:0:
448,192,157393,1,0,0:0:0:0:
192,192,157393,1,0,0:0:0:0:
64,192,157569,1,0,0:0:0:0:
192,192,157746,1,0,0:0:0:0:
448,192,157834,1,0,0:0:0:0:
320,192,157922,1,0,0:0:0:0:
192,192,158011,1,0,0:0:0:0:
64,192,158099,1,0,0:0:0:0:
448,192,158099,1,0,0:0:0:0:
320,192,158275,1,0,0:0:0:0:
192,192,158452,1,0,0:0:0:0:
64,192,158628,1,0,0:0:0:0:
448,192,158628,1,0,0:0:0:0:
320,192,158805,1,0,0:0:0:0:
192,192,158981,1,0,0:0:0:0:
320,192,159158,1,0,0:0:0:0:
448,192,159334,1,0,0:0:0:0:
320,192,159422,1,0,0:0:0:0:
192,192,159511,1,0,0:0:0:0:
64,192,159687,1,0,0:0:0:0:
448,192,159864,1,0,0:0:0:0:
320,192,159864,1,0,0:0:0:0:
192,192,160040,1,0,0:0:0:0:
192,192,160217,1,0,0:0:0:0:
64,192,160217,1,0,0:0:0:0:
320,192,160393,1,0,0:0:0:0:
192,192,160569,1,0,0:0:0:0:
64,192,160746,1,0,0:0:0:0:
192,192,160922,1,0,0:0:0:0:
448,192,160922,1,0,0:0:0:0:
320,192,161099,1,0,0:0:0:0:
192,192,161275,1,0,0:0:0:0:
64,192,161452,1,0,0:0:0:0:
448,192,161452,1,0,0:0:0:0:
320,192,161628,1,0,0:0:0:0:
192,192,161805,1,0,0:0:0:0:
320,192,161981,1,0,0:0:0:0:
448,192,162158,1,0,0:0:0:0:
192,192,162246,1,0,0:0:0:0:
64,192,162334,1,0,0:0:0:0:
320,192,162511,1,0,0:0:0:0:
448,192,162511,1,0,0:0:0:0:
320,192,162687,1,0,0:0:0:0:
448,192,162687,1,0,0:0:0:0:
192,192,162864,1,0,0:0:0:0:
320,192,163040,1,0,0:0:0:0:
64,192,163040,1,0,0:0:0:0:
448,192,163217,1,0,0:0:0:0:
64,192,163393,1,0,0:0:0:0:
192,192,163569,1,0,0:0:0:0:
448,192,163746,1,0,0:0:0:0:
320,192,163746,1,0,0:0:0:0:
64,192,163922,1,0,0:0:0:0:
320,192,164099,1,0,0:0:0:0:
64,192,164275,1,0,0:0:0:0:
192,192,164275,1,0,0:0:0:0:
320,192,164452,1,0,0:0:0:0:
448,192,164628,1,0,0:0:0:0:
192,192,164805,1,0,0:0:0:0:
320,192,164981,1,0,0:0:0:0:
192,192,165069,1,0,0:0:0:0:
64,192,165158,1,0,0:0:0:0:
448,192,165334,1,0,0:0:0:0:
192,192,165511,1,0,0:0:0:0:
320,192,165511,1,0,0:0:0:0:
448,192,165687,1,0,0:0:0:0:
64,192,165864,1,0,0:0:0:0:
192,192,165864,1,0,0:0:0:0:
320,192,166040,1,0,0:0:0:0:
448,192,166217,1,0,0:0:0:0:
192,192,166393,1,0,0:0:0:0:
448,192,166569,1,0,0:0:0:0:
64,192,166569,1,0,0:0:0:0:
320,192,166746,1,0,0:0:0:0:
192,192,166922,1,0,0:0:0:0:
64,192,167099,1,0,0:0:0:0:
320,192,167099,1,0,0:0:0:0:
448,192,167275,1,0,0:0:0:0:
192,192,167452,1,0,0:0:0:0:
448,192,167628,1,0,0:0:0:0:
192,192,167805,1,0,0:0:0:0:
448,192,167981,1,0,0:0:0:0:
320,192,167981,1,0,0:0:0:0:
320,192,168158,1,0,0:0:0:0:
448,192,168158,1,0,0:0:0:0:
192,192,168334,1,0,0:0:0:0:
192,192,168511,1,0,0:0:0:0:
448,192,168687,1,0,0:0:0:0:
64,192,168687,1,0,0:0:0:0:
320,192,168775,1,0,0:0:0:0:
192,192,168864,1,0,0:0:0:0:
64,192,169040,1,0,0:0:0:0:
192,192,169128,1,0,0:0:0:0:
320,192,169217,1,0,0:0:0:0:
192,192,169393,1,0,0:0:0:0:
448,192,169393,1,0,0:0:0:0:
64,192,169569,1,0,0:0:0:0:
320,192,169746,1,0,0:0:0:0:
64,192,169922,1,0,0:0:0:0:
448,192,169922,1,0,0:0:0:0:
192,192,170099,1,0,0:0:0:0:
448,192,170275,1,0,0:0:0:0:
320,192,170452,1,0,0:0:0:0:
64,192,170628,1,0,0:0:0:0:
192,192,170717,1,0,0:0:0:0:
320,192,170805,1,0,0:0:0:0:
192,192,170981,1,0,0:0:0:0:
448,192,171158,1,0,0:0:0:0:
320,192,171158,1,0,0:0:0:0:
192,192,171334,1,0,0:0:0:0:
64,192,171511,1,0,0:0:0:0:
448,192,171511,1,0,0:0:0:0:
192,192,171687,1,0,0:0:0:0:
320,192,171864,1,0,0:0:0:0:
448,192,171952,1,0,0:0:0:0:
64,192,172040,1,0,0:0:0:0:
192,192,172128,1,0,0:0:0:0:
448,192,172217,1,0,0:0:0:0:
320,192,172217,1,0,0:0:0:0:
192,192,172393,1,0,0:0:0:0:
448,192,172569,1,0,0:0:0:0:
320,192,172746,1,0,0:0:0:0:
64,192,172746,1,0,0:0:0:0:
192,192,172922,1,0,0:0:0:0:
320,192,173099,1,0,0:0:0:0:
192,192,173275,1,0,0:0:0:0:
448,192,173452,1,0,0:0:0:0:
320,192,173540,1,0,0:0:0:0:
64,192,173628,1,0,0:0:0:0:
320,192,173805,1,0,0:0:0:0:
448,192,173805,1,0,0:0:0:0:
320,192,173981,1,0,0:0:0:0:
448,192,173981,1,0,0:0:0:0:
192,192,174158,1,0,0:0:0:0:
64,192,174334,1,0,0:0:0:0:
320,192,174334,1,0,0:0:0:0:
448,192,174511,1,0,0:0:0:0:
192,192,174687,1,0,0:0:0:0:
64,192,174687,1,0,0:0:0:0:
320,192,175040,1,0,0:0:0:0:
448,192,175040,1,0,0:0:0:0:
192,192,175217,1,0,0:0:0:0:
448,192,175393,1,0,0:0:0:0:
64,192,175569,1,0,0:0:0:0:
320,192,175569,1,0,0:0:0:0:
192,192,175746,1,0,0:0:0:0:
448,192,175922,1,0,0:0:0:0:
320,192,176099,1,0,0:0:0:0:
64,192,176275,1,0,0:0:0:0:
192,192,176364,1,0,0:0:0:0:
320,192,176452,1,0,0:0:0:0:
448,192,176628,1,0,0:0:0:0:
64,192,176805,1,0,0:0:0:0:
192,192,176805,1,0,0:0:0:0:
320,192,176981,1,0,0:0:0:0:
448,192,177158,1,0,0:0:0:0:
192,192,177158,1,0,0:0:0:0:
64,192,177334,1,0,0:0:0:0:
192,192,177511,1,0,0:0:0:0:
320,192,177687,1,0,0:0:0:0:
192,192,177775,1,0,0:0:0:0:
64,192,177864,1,0,0:0:0:0:
448,192,177864,1,0,0:0:0:0:
192,192,178040,1,0,0:0:0:0:
448,192,178217,1,0,0:0:0:0:
320,192,178393,1,0,0:0:0:0:
64,192,178393,1,0,0:0:0:0:
192,192,178569,1,0,0:0:0:0:
448,192,178746,1,0,0:0:0:0:
64,192,178922,1,0,0:0:0:0:
192,192,178922,1,0,0:0:0:0:
320,192,179099,1,0,0:0:0:0:
64,192,179187,1,0,0:0:0:0:
192,192,179275,1,0,0:0:0:0:
448,192,179275,1,0,0:0:0:0:
320,192,179452,1,0,0:0:0:0:
448,192,179452,1,0,0:0:0:0:
64,192,179628,1,0,0:0:0:0:
192,192,179805,1,0,0:0:0:0:
320,192,179981,1,0,0:0:0:0:
64,192,179981,1,0,0:0:0:0:
448,192,180158,1,0,0:0:0:0:
320,192,180334,1,0,0:0:0:0:
64,192,180422,1,0,0:0:0:0:
192,192,180511,1,0,0:0:0:0:
320,192,180599,1,0,0:0:0:0:
64,192,180687,1,0,0:0:0:0:
448,192,180687,1,0,0:0:0:0:
192,192,181040,1,0,0:0:0:0:
192,192,181569,1,0,0:0:0:0:
320,192,181922,1,0,0:0:0:0:
192,192,182099,1,0,0:0:0:0:
192,192,182628,1,0,0:0:0:0:
64,192,183511,1,0,0:0:0:0:
448,192,183511,1,0,0:0:0:0:
320,192,183864,1,0,0:0:0:0:
320,192,184393,1,0,0:0:0:0:
192,192,184746,1,0,0:0:0:0:
448,192,184834,1,0,0:0:0:0:
320,192,184922,1,0,0:0:0:0:
320,192,185452,1,0,0:0:0:0:
192,192,186334,1,0,0:0:0:0:
448,192,186334,1,0,0:0:0:0:
64,192,186687,1,0,0:0:0:0:
64,192,187217,1,0,0:0:0:0:
320,192,187569,1,0,0:0:0:0:
192,192,187658,1,0,0:0:0:0:
64,192,187746,1,0,0:0:0:0:
64,192,188275,1,0,0:0:0:0:
320,192,189158,1,0,0:0:0:0:
64,192,189158,1,0,0:0:0:0:
448,192,189511,1,0,0:0:0:0:
448,192,190040,1,0,0:0:0:0:
320,192,190393,1,0,0:0:0:0:
192,192,190481,1,0,0:0:0:0:
448,192,190569,1,0,0:0:0:0:
448,192,191099,1,0,0:0:0:0:
64,192,191981,1,0,0:0:0:0:
448,192,191981,1,0,0:0:0:0:
320,192,192334,1,0,0:0:0:0:
320,192,192864,1,0,0:0:0:0:
192,192,193217,1,0,0:0:0:0:
448,192,193305,1,0,0:0:0:0:
320,192,193393,1,0,0:0:0:0:
320,192,193922,1,0,0:0:0:0:
448,192,194805,1,0,0:0:0:0:
64,192,194805,1,0,0:0:0:0:
192,192,195158,1,0,0:0:0:0:
192,192,195687,1,0,0:0:0:0:
320,192,196040,1,0,0:0:0:0:
64,192,196128,1,0,0:0:0:0:
192,192,196217,1,0,0:0:0:0:
448,192,196217,1,0,0:0:0:0:
192,192,196746,1,0,0:0:0:0:
64,192,197275,1,0,0:0:0:0:
192,192,197364,1,0,0:0:0:0:
320,192,197452,1,0,0:0:0:0:
448,192,197540,1,0,0:0:0:0:
192,192,197628,1,0,0:0:0:0:
64,192,197628,1,0,0:0:0:0:
448,192,197981,1,0,0:0:0:0:
448,192,198511,1,0,0:0:0:0:
192,192,198864,1,0,0:0:0:0:
320,192,198952,1,0,0:0:0:0:
448,192,199040,1,0,0:0:0:0:
448,192,199569,1,0,0:0:0:0:
320,192,200099,1,0,0:0:0:0:
192,192,200452,1,0,0:0:0:0:
448,192,200452,128,0,202569:0:0:0:0:
64,192,201334,1,0,0:0:0:0:
64,192,201864,1,0,0:0:0:0:
64,192,202393,1,0,0:0:0:0:
192,192,202569,128,0,203275:0:0:0:0:
320,192,202569,1,0,0:0:0:0:
64,192,203275,1,0,0:0:0:0:
64,192,203805,1,0,0:0:0:0:
320,192,203981,128,0,204687:0:0:0:0:
448,192,204687,128,0,206099:0:0:0:0:
64,192,205040,1,0,0:0:0:0:
192,192,206099,128,0,207511:0:0:0:0:
64,192,206099,1,0,0:0:0:0:
320,192,206628,1,0,0:0:0:0:
320,192,207158,1,0,0:0:0:0:
448,192,207511,128,0,208922:0:0:0:0:
64,192,207687,1,0,0:0:0:0:
320,192,207864,1,0,0:0:0:0:
192,192,208217,1,0,0:0:0:0:
64,192,208922,128,0,211746:0:0:0:0:
192,192,208922,1,0,0:0:0:0:
320,192,209452,1,0,0:0:0:0:
192,192,209981,128,0,211746:0:0:0:0:
448,192,209981,1,0,0:0:0:0:
320,192,210687,1,0,0:0:0:0:
448,192,211040,1,0,0:0:0:0:
448,192,211746,128,0,214569:0:0:0:0:
320,192,211746,1,0,0:0:0:0:
320,192,212275,1,0,0:0:0:0:
64,192,212805,1,0,0:0:0:0:
320,192,212981,1,0,0:0:0:0:
192,192,213069,1,0,0:0:0:0:
64,192,213158,1,0,0:0:0:0:
64,192,213334,1,0,0:0:0:0:
320,192,213864,1,0,0:0:0:0:
64,192,214569,1,0,0:0:0:0:
64,192,214746,1,0,0:0:0:0:
192,192,214922,1,0,0:0:0:0:
192,192,215099,1,0,0:0:0:0:
320,192,215275,1,0,0:0:0:0:
448,192,215275,1,0,0:0:0:0:
320,192,215452,1,0,0:0:0:0:
448,192,215628,1,0,0:0:0:0:
448,192,215805,1,0,0:0:0:0:
64,192,215981,1,0,0:0:0:0:
192,192,215981,1,0,0:0:0:0:
320,192,216158,1,0,0:0:0:0:
64,192,216334,1,0,0:0:0:0:
320,192,216511,1,0,0:0:0:0:
192,192,216687,1,0,0:0:0:0:
448,192,216687,1,0,0:0:0:0:
64,192,216864,1,0,0:0:0:0:
320,192,217040,1,0,0:0:0:0:
192,192,217217,1,0,0:0:0:0:
448,192,217393,1,0,0:0:0:0:
320,192,217393,1,0,0:0:0:0:
192,192,217569,1,0,0:0:0:0:
64,192,217746,1,0,0:0:0:0:
192,192,217922,1,0,0:0:0:0:
448,192,217922,1,0,0:0:0:0:
320,192,218099,1,0,0:0:0:0:
320,192,218275,1,0,0:0:0:0:
192,192,218452,1,0,0:0:0:0:
192,192,218628,1,0,0:0:0:0:
320,192,218805,1,0,0:0:0:0:
448,192,218805,1,0,0:0:0:0:
64,192,218981,1,0,0:0:0:0:
320,192,219158,1,0,0:0:0:0:
64,192,219334,1,0,0:0:0:0:
192,192,219511,1,0,0:0:0:0:
448,192,219511,1,0,0:0:0:0:
320,192,219687,1,0,0:0:0:0:
192,192,219864,1,0,0:0:0:0:
192,192,220040,1,0,0:0:0:0:
320,192,220217,1,0,0:0:0:0:
448,192,220217,1,0,0:0:0:0:
192,192,220393,1,0,0:0:0:0:
320,192,220569,1,0,0:0:0:0:
64,192,220746,1,0,0:0:0:0:
448,192,220746,1,0,0:0:0:0:
192,192,220922,1,0,0:0:0:0:
448,192,221099,1,0,0:0:0:0:
192,192,221275,1,0,0:0:0:0:
320,192,221275,1,0,0:0:0:0:
64,192,221452,1,0,0:0:0:0:
320,192,221628,1,0,0:0:0:0:
192,192,221805,1,0,0:0:0:0:
320,192,221981,1,0,0:0:0:0:
448,192,222158,1,0,0:0:0:0:
192,192,222334,1,0,0:0:0:0:
64,192,222511,1,0,0:0:0:0:
320,192,222687,1,0,0:0:0:0:
192,192,222864,1,0,0:0:0:0:
320,192,222952,1,0,0:0:0:0:
448,192,223040,1,0,0:0:0:0:
64,192,223040,1,0,0:0:0:0:
192,192,223217,1,0,0:0:0:0:
320,192,223393,1,0,0:0:0:0:
192,192,223569,1,0,0:0:0:0:
320,192,223746,1,0,0:0:0:0:
192,192,223922,1,0,0:0:0:0:
320,192,224099,1,0,0:0:0:0:
192,192,224275,1,0,0:0:0:0:
320,192,224452,1,0,0:0:0:0:
448,192,224540,1,0,0:0:0:0:
64,192,224628,1,0,0:0:0:0:
192,192,224717,1,0,0:0:0:0:
320,192,224805,1,0,0:0:0:0:
448,192,224893,1,0,0:0:0:0:
192,192,224981,1,0,0:0:0:0:
64,192,225069,1,0,0:0:0:0:
448,192,225158,1,0,0:0:0:0:
320,192,225246,1,0,0:0:0:0:
192,192,225334,1,0,0:0:0:0:
64,192,225422,1,0,0:0:0:0:
320,192,225511,1,0,0:0:0:0:
448,192,225599,1,0,0:0:0:0:
64,192,225687,1,0,0:0:0:0:
192,192,225775,1,0,0:0:0:0:
320,192,225864,1,0,0:0:0:0:
64,192,226217,128,0,227275:0:0:0:0:
448,192,227275,1,0,0:0:0:0:
320,192,227364,1,0,0:0:0:0:
192,192,227452,1,0,0:0:0:0:
64,192,227540,1,0,0:0:0:0:
448,192,227628,1,0,0:0:0:0:
320,192,227717,1,0,0:0:0:0:
192,192,227805,1,0,0:0:0:0:
64,192,227893,1,0,0:0:0:0:
448,192,227981,1,0,0:0:0:0:
192,192,228511,1,0,0:0:0:0:
320,192,228599,1,0,0:0:0:0:
448,192,228687,1,0,0:0:0:0:
64,192,228687,1,0,0:0:0:0:
192,192,229217,1,0,0:0:0:0:
64,192,229217,1,0,0:0:0:0:
320,192,229393,1,0,0:0:0:0:
192,192,229569,1,0,0:0:0:0:
320,192,229746,1,0,0:0:0:0:
192,192,229922,1,0,0:0:0:0:
320,192,230099,1,0,0:0:0:0:
64,192,230099,1,0,0:0:0:0:
448,192,230275,1,0,0:0:0:0:
320,192,230452,1,0,0:0:0:0:
448,192,230628,1,0,0:0:0:0:
192,192,230717,1,0,0:0:0:0:
320,192,230805,1,0,0:0:0:0:
64,192,230805,1,0,0:0:0:0:
448,192,230981,128,0,231511:0:0:0:0:
64,192,231511,1,0,0:0:0:0:
192,192,231511,1,0,0:0:0:0:
320,192,232040,1,0,0:0:0:0:
448,192,232040,1,0,0:0:0:0:
64,192,232569,1,0,0:0:0:0:
192,192,232569,1,0,0:0:0:0:
448,192,232746,1,0,0:0:0:0:
320,192,232834,1,0,0:0:0:0:
192,192,232922,1,0,0:0:0:0:
320,192,233275,1,0,0:0:0:0:
448,192,233275,1,0,0:0:0:0:
448,192,233452,1,0,0:0:0:0:
320,192,233452,1,0,0:0:0:0:
192,192,233628,1,0,0:0:0:0:
64,192,233628,128,0,234334:0:0:0:0:
320,192,234334,1,0,0:0:0:0:
448,192,234334,128,0,234864:0:0:0:0:
192,192,234864,1,0,0:0:0:0:
320,192,234864,128,0,235393:0:0:0:0:
192,192,235393,1,0,0:0:0:0:
64,192,235393,128,0,236099:0:0:0:0:
192,192,236099,1,0,0:0:0:0:
320,192,236452,1,0,0:0:0:0:
448,192,236452,1,0,0:0:0:0:
64,192,236628,128,0,237158:0:0:0:0:
448,192,236805,1,0,0:0:0:0:
192,192,236981,1,0,0:0:0:0:
320,192,237069,1,0,0:0:0:0:
192,192,237158,1,0,0:0:0:0:
448,192,237158,128,0,237687:0:0:0:0:
64,192,237687,1,0,0:0:0:0:
192,192,237687,128,0,238569:0:0:0:0:
320,192,238569,1,0,0:0:0:0:
448,192,238569,1,0,0:0:0:0:
448,192,238746,1,0,0:0:0:0:
320,192,238746,1,0,0:0:0:0:
192,192,238922,1,0,0:0:0:0:
64,192,239099,1,0,0:0:0:0:
448,192,239275,1,0,0:0:0:0:
320,192,239364,1,0,0:0:0:0:
192,192,239452,1,0,0:0:0:0:
64,192,239540,1,0,0:0:0:0:
320,192,239628,1,0,0:0:0:0:
192,192,239805,1,0,0:0:0:0:
320,192,239893,1,0,0:0:0:0:
448,192,239981,1,0,0:0:0:0:
64,192,239981,1,0,0:0:0:0:
192,192,240511,1,0,0:0:0:0:
320,192,240511,1,0,0:0:0:0:
448,192,240687,1,0,0:0:0:0:
64,192,240864,1,0,0:0:0:0:
448,192,241040,1,0,0:0:0:0:
64,192,241217,1,0,0:0:0:0:
320,192,241393,1,0,0:0:0:0:
192,192,241481,1,0,0:0:0:0:
64,192,241569,1,0,0:0:0:0:
320,192,241658,1,0,0:0:0:0:
448,192,241746,1,0,0:0:0:0:
64,192,241834,1,0,0:0:0:0:
192,192,241922,1,0,0:0:0:0:
320,192,242011,1,0,0:0:0:0:
448,192,242099,1,0,0:0:0:0:
64,192,242099,1,0,0:0:0:0:
192,192,242275,128,0,242805:0:0:0:0:
448,192,242805,1,0,0:0:0:0:
320,192,242805,128,0,243334:0:0:0:0:
192,192,243334,1,0,0:0:0:0:
64,192,243334,128,0,243864:0:0:0:0:
448,192,243864,1,0,0:0:0:0:
320,192,243864,1,0,0:0:0:0:
192,192,244040,1,0,0:0:0:0:
64,192,244128,1,0,0:0:0:0:
448,192,244217,1,0,0:0:0:0:
192,192,244569,1,0,0:0:0:0:
320,192,244569,1,0,0:0:0:0:
192,192,244746,1,0,0:0:0:0:
320,192,244746,1,0,0:0:0:0:
448,192,244922,1,0,0:0:0:0:
64,192,244922,128,0,245628:0:0:0:0:
192,192,245628,1,0,0:0:0:0:
448,192,245628,128,0,246158:0:0:0:0:
64,192,246158,1,0,0:0:0:0:
320,192,246158,128,0,246687:0:0:0:0:
64,192,246687,1,0,0:0:0:0:
192,192,246687,128,0,247393:0:0:0:0:
448,192,247393,1,0,0:0:0:0:
320,192,247393,1,0,0:0:0:0:
448,192,247746,1,0,0:0:0:0:
64,192,247746,128,0,248452:0:0:0:0:
192,192,248099,1,0,0:0:0:0:
320,192,248275,1,0,0:0:0:0:
448,192,248364,1,0,0:0:0:0:
192,192,248452,1,0,0:0:0:0:
320,192,248452,1,0,0:0:0:0:
448,192,248981,1,0,0:0:0:0:
192,192,248981,128,0,249687:0:0:0:0:
448,192,249687,1,0,0:0:0:0:
320,192,249775,1,0,0:0:0:0:
192,192,249864,1,0,0:0:0:0:
64,192,249864,1,0,0:0:0:0:
64,192,250040,1,0,0:0:0:0:
192,192,250040,128,0,250569:0:0:0:0:
448,192,250569,1,0,0:0:0:0:
320,192,250658,1,0,0:0:0:0:
192,192,250746,1,0,0:0:0:0:
64,192,250834,1,0,0:0:0:0:
320,192,250922,1,0,0:0:0:0:
192,192,251099,1,0,0:0:0:0:
320,192,251187,1,0,0:0:0:0:
64,192,251275,1,0,0:0:0:0:
448,192,251275,1,0,0:0:0:0:
320,192,251805,1,0,0:0:0:0:
448,192,251805,1,0,0:0:0:0:
192,192,251981,1,0,0:0:0:0:
320,192,252158,1,0,0:0:0:0:
192,192,252334,1,0,0:0:0:0:
320,192,252511,1,0,0:0:0:0:
192,192,252687,1,0,0:0:0:0:
448,192,252687,1,0,0:0:0:0:
64,192,252864,1,0,0:0:0:0:
192,192,253040,1,0,0:0:0:0:
64,192,253217,1,0,0:0:0:0:
320,192,253305,1,0,0:0:0:0:
192,192,253393,1,0,0:0:0:0:
448,192,253393,1,0,0:0:0:0:
64,192,253569,128,0,254099:0:0:0:0:
320,192,254099,1,0,0:0:0:0:
448,192,254099,1,0,0:0:0:0:
64,192,254628,1,0,0:0:0:0:
192,192,254628,1,0,0:0:0:0:
320,192,255158,1,0,0:0:0:0:
448,192,255158,1,0,0:0:0:0:
64,192,255334,1,0,0:0:0:0:
192,192,255422,1,0,0:0:0:0:
320,192,255511,1,0,0:0:0:0:
192,192,255864,1,0,0:0:0:0:
64,192,255864,1,0,0:0:0:0:
64,192,256040,1,0,0:0:0:0:
192,192,256040,1,0,0:0:0:0:
448,192,256217,128,0,256922:0:0:0:0:
320,192,256217,1,0,0:0:0:0:
192,192,256922,1,0,0:0:0:0:
64,192,256922,1,0,0:0:0:0:
448,192,257452,1,0,0:0:0:0:
192,192,257452,1,0,0:0:0:0:
320,192,257540,1,0,0:0:0:0:
64,192,257628,1,0,0:0:0:0:
192,192,257628,1,0,0:0:0:0:
320,192,257981,1,0,0:0:0:0:
448,192,257981,1,0,0:0:0:0:
192,192,258158,1,0,0:0:0:0:
64,192,258158,1,0,0:0:0:0:
448,192,258511,1,0,0:0:0:0:
192,192,258511,1,0,0:0:0:0:
320,192,258687,1,0,0:0:0:0:
64,192,258687,1,0,0:0:0:0:
448,192,258864,1,0,0:0:0:0:
192,192,259040,1,0,0:0:0:0:
64,192,259040,1,0,0:0:0:0:
448,192,259217,128,0,259746:0:0:0:0:
64,192,259393,1,0,0:0:0:0:
320,192,259569,1,0,0:0:0:0:
192,192,259658,1,0,0:0:0:0:
64,192,259746,128,0,260275:0:0:0:0:
320,192,259746,1,0,0:0:0:0:
320,192,260275,128,0,261158:0:0:0:0:
448,192,260275,1,0,0:0:0:0:
192,192,261158,1,0,0:0:0:0:
64,192,261158,1,0,0:0:0:0:
64,192,261334,1,0,0:0:0:0:
192,192,261334,1,0,0:0:0:0:
320,192,261511,1,0,0:0:0:0:
448,192,261687,1,0,0:0:0:0:
64,192,261864,1,0,0:0:0:0:
192,192,261952,1,0,0:0:0:0:
320,192,262040,1,0,0:0:0:0:
448,192,262128,1,0,0:0:0:0:
192,192,262217,1,0,0:0:0:0:
320,192,262393,1,0,0:0:0:0:
192,192,262481,1,0,0:0:0:0:
448,192,262569,1,0,0:0:0:0:
64,192,262569,1,0,0:0:0:0:
192,192,264687,1,0,0:0:0:0:
320,192,265393,1,0,0:0:0:0:
64,192,265922,1,0,0:0:0:0:
448,192,266452,1,0,0:0:0:0:
320,192,267511,1,0,0:0:0:0:
192,192,268217,1,0,0:0:0:0:
320,192,268746,1,0,0:0:0:0:
448,192,269275,1,0,0:0:0:0:
64,192,271040,128,0,273864:0:0:0:0:
