osu file format v14

[General]
AudioFilename: audio.mp3
AudioLeadIn: 0
PreviewTime: 54428
Countdown: 0
SampleSet: Soft
StackLeniency: 0.7
Mode: 3
LetterboxInBreaks: 1
EpilepsyWarning: 1
SpecialStyle: 0
WidescreenStoryboard: 1

[Editor]
DistanceSpacing: 0.5
BeatDivisor: 1
GridSize: 32
TimelineZoom: 1

[Metadata]
Title:Fetished Suicide (ft. FrankJavCee)
TitleUnicode:Fetished Suicide (ft. FrankJavCee)
Artist:Purple Clout
ArtistUnicode:Purple Clout
Creator:KillerfishyOsu
Version:EZ
Source:
Tags:
BeatmapID:1643871
BeatmapSetID:782912

[Difficulty]
HPDrainRate:4
CircleSize:4
OverallDifficulty:5
ApproachRate:3
SliderMultiplier:0.9
SliderTickRate:1

[Events]
//Background and Video events
0,0,"yoshi.jpg",0,0
//Break Periods
//Storyboard Layer 0 (Background)
//Storyboard Layer 1 (Fail)
//Storyboard Layer 2 (Pass)
//Storyboard Layer 3 (Foreground)
//Storyboard Sound Samples

[TimingPoints]
0,428.571428571429,4,2,0,100,1,0
41142,-100,4,2,0,95,0,0
70285,500,4,2,0,100,1,0
71289,600,4,2,0,100,1,0
72489,750,4,2,0,100,1,0
75477,535.714285714286,4,2,0,100,1,0

[Colours]
Combo1 : 128,128,192
Combo2 : 128,128,255

[HitObjects]
448,192,6857,128,0,12000:0:0:0:0:
320,192,8571,128,0,12000:0:0:0:0:
192,192,10285,128,0,12000:0:0:0:0:
64,192,12857,1,0,0:0:0:0:
192,192,14571,1,8,1:0:0:0:
320,192,15000,1,0,0:0:0:0:
192,192,15428,1,0,0:0:0:0:
64,192,15857,1,0,0:0:0:0:
320,192,16285,1,8,1:0:0:0:
192,192,16714,1,0,0:0:0:0:
320,192,17142,128,0,17571:0:0:0:0:
192,192,18000,1,8,1:0:0:0:
320,192,18000,1,8,1:0:0:0:
448,192,18428,1,0,0:0:0:0:
64,192,18428,1,0,0:0:0:0:
192,192,18857,128,0,20571:0:0:0:0:
320,192,19285,128,0,20571:0:0:0:0:
448,192,19714,128,8,20571:1:0:0:0:
64,192,20142,128,0,20571:0:0:0:0:
320,192,21000,128,0,22285:0:0:0:0:
192,192,22285,128,0,24000:0:0:0:0:
192,192,24428,1,0,0:0:0:0:
320,192,24857,1,8,1:0:0:0:
448,192,25285,1,0,0:0:0:0:
320,192,25714,1,0,0:0:0:0:
192,192,26142,1,0,0:0:0:0:
64,192,26571,1,8,1:0:0:0:
192,192,27000,1,0,0:0:0:0:
320,192,27000,1,0,0:0:0:0:
448,192,27428,128,0,30428:0:0:0:0:
320,192,30857,128,0,34285:0:0:0:0:
64,192,35142,1,8,1:0:0:0:
448,192,36000,1,0,0:0:0:0:
64,192,36857,1,8,1:0:0:0:
64,192,37285,1,0,0:0:0:0:
192,192,37714,128,0,40285:0:0:0:0:
64,192,41142,128,0,43714:0:0:0:0:
192,192,44571,128,0,47142:0:0:0:0:
320,192,48000,128,0,50571:0:0:0:0:
448,192,51428,128,0,54000:0:0:0:0:
320,192,54857,128,0,57000:0:0:0:0:
192,192,55714,1,8,1:0:0:0:
64,192,56571,1,0,0:0:0:0:
192,192,57000,1,0,0:0:0:0:
448,192,58285,128,0,60857:0:0:0:0:
64,192,59142,1,8,1:0:0:0:
192,192,59571,1,0,0:0:0:0:
320,192,60000,1,0,0:0:0:0:
64,192,61714,128,0,64285:0:0:0:0:
448,192,62571,1,8,1:0:0:0:
320,192,63428,1,0,0:0:0:0:
192,192,64285,1,8,1:0:0:0:
192,192,65142,128,0,68571:0:0:0:0:
320,192,66000,128,8,68571:1:0:0:0:
448,192,66857,128,0,68571:0:0:0:0:
64,192,67714,1,8,1:0:0:0:
320,192,69428,128,0,71889:0:0:0:0:
192,192,73989,1,0,0:0:0:0:
64,192,75477,5,8,0:0:0:0:
192,192,76548,1,8,1:0:0:0:
320,192,77619,1,8,0:0:0:0:
448,192,78691,1,8,1:0:0:0:
320,192,79762,1,8,0:0:0:0:
192,192,80834,1,8,1:0:0:0:
64,192,81369,1,8,0:0:0:0:
192,192,81905,1,8,0:0:0:0:
320,192,82977,1,8,1:0:0:0:
