osu file format v14

[General]
AudioFilename: 08 - DISCOTHEQUE.mp3
AudioLeadIn: 0
PreviewTime: -1
Countdown: 0
SampleSet: None
StackLeniency: 0.7
Mode: 0
LetterboxInBreaks: 0
WidescreenStoryboard: 1

[Editor]
DistanceSpacing: 0.8
BeatDivisor: 4
GridSize: 8
TimelineZoom: 1

[Metadata]
Title:DISCOTHEQUE (Super Anime Remix)
TitleUnicode:DISCOTHEQUE (Super Anime Remix)
Artist:Puriko
ArtistUnicode:Puriko
Creator:unberlin
Version:ckopoctb eXtra
Source:Rosairo + vampire
Tags:Rosairo + vampire, Anime, Remix, DISCOTHEQUE
BeatmapID:1739749
BeatmapSetID:466473

[Difficulty]
HPDrainRate:7
CircleSize:4
OverallDifficulty:8
ApproachRate:8.1
SliderMultiplier:1.99999990463257
SliderTickRate:0.5

[Events]
//Background and Video events
0,0,"OZ5vS.jpg",0,0
//Break Periods
//Storyboard Layer 0 (Background)
//Storyboard Layer 1 (Fail)
//Storyboard Layer 2 (Pass)
//Storyboard Layer 3 (Foreground)
//Storyboard Sound Samples

[TimingPoints]
3219.46779395544,389.61038961039,4,1,0,75,1,0
6336,-100,4,1,0,60,0,0
12375,-133.333333333333,4,2,0,70,0,0
28933,-117.647058823529,4,1,0,75,0,0
40622,-117.647058823529,4,3,0,60,0,0
68089,-117.647058823529,4,2,0,60,0,0
69453,-117.647058823529,4,1,0,70,0,0

[Colours]
Combo1 : 0,128,255
Combo2 : 0,255,128
Combo3 : 255,255,128
Combo4 : 128,255,255

[HitObjects]
256,192,3998,12,0,5946,0:0:0:0:
208,352,6336,6,0,L|224:144,1,199.999990463257
384,56,6920,5,0,0:0:0:0:
384,56,7018,1,0,0:0:0:0:
384,56,7115,1,0,0:0:0:0:
432,240,7310,5,0,0:0:0:0:
248,88,7505,1,0,0:0:0:0:
64,240,7699,2,0,L|168:224,1,99.9999952316285
368,320,8089,2,0,L|320:304,1,49.9999976158143
280,184,8284,2,0,L|400:232,1,99.9999952316285
168,336,8674,5,0,0:0:0:0:
168,336,8771,1,0,0:0:0:0:
168,336,8868,1,0,0:0:0:0:
128,64,9063,2,0,L|144:184,1,99.9999952316285
336,32,9453,5,0,0:0:0:0:
448,200,9648,1,0,0:0:0:0:
336,32,9842,1,0,0:0:0:0:
256,208,10037,1,0,0:0:0:0:
336,32,10232,1,0,0:0:0:0:
400,256,10427,5,0,0:0:0:0:
400,256,10524,1,0,0:0:0:0:
400,256,10622,1,0,0:0:0:0:
144,264,10816,2,0,L|216:248,2,49.9999976158143
248,72,11206,5,0,0:0:0:0:
248,72,11303,1,0,0:0:0:0:
248,72,11401,1,0,0:0:0:0:
72,184,11596,2,0,P|48:232|64:288,1,99.9999952316285
80,296,11888,1,0,0:0:0:0:
120,324,11985,1,0,0:0:0:0:
168,338,12082,1,0,0:0:0:0:
218,335,12180,1,0,0:0:0:0:
376,120,12375,6,0,L|368:224,1,74.9999992847443
176,176,12764,1,0,0:0:0:0:
176,176,12959,1,0,0:0:0:0:
288,0,13154,2,0,L|280:96,1,74.9999992847443
64,112,13544,1,0,0:0:0:0:
64,112,13738,1,0,0:0:0:0:
264,256,13933,2,0,L|312:248,1,37.4999996423721
440,288,14128,2,0,L|344:304,1,74.9999992847443
144,336,14518,5,0,0:0:0:0:
144,336,14615,1,0,0:0:0:0:
144,336,14712,1,0,0:0:0:0:
240,96,14907,2,0,P|288:128|288:160,1,74.9999992847443
64,240,15297,2,0,L|160:232,1,74.9999992847443
384,176,15687,5,0,0:0:0:0:
168,56,15881,1,0,0:0:0:0:
280,232,16076,1,0,0:0:0:0:
392,40,16271,1,0,0:0:0:0:
488,208,16466,5,0,0:0:0:0:
488,208,16563,1,0,0:0:0:0:
488,208,16661,2,0,P|480:264|440:288,1,74.9999992847443
176,192,17050,6,0,L|192:232,1,37.4999996423721
272,240,17245,2,0,L|248:280,1,37.4999996423721
296,344,17440,2,0,P|224:352|200:336,2,74.9999992847443
336,16,18024,2,0,L|328:176,1,149.999998569489
64,160,18609,5,0,0:0:0:0:
216,56,18803,1,0,0:0:0:0:
120,240,18998,1,0,0:0:0:0:
296,144,19193,1,0,0:0:0:0:
200,320,19388,1,0,0:0:0:0:
408,248,19583,5,0,0:0:0:0:
408,248,19680,1,0,0:0:0:0:
408,248,19777,2,0,P|416:192|408:144,2,74.9999992847443
128,120,20362,2,0,P|216:128|224:128,1,74.9999992847443
280,240,20751,1,0,0:0:0:0:
40,336,20946,1,0,0:0:0:0:
280,240,21141,2,0,P|216:240|192:224,1,74.9999992847443
32,104,21531,5,0,0:0:0:0:
264,32,21725,1,0,0:0:0:0:
32,96,21920,1,0,0:0:0:0:
352,112,22115,2,0,P|352:160|344:192,1,74.9999992847443
136,256,22505,2,0,B|136:304|136:304|192:288,1,74.9999992847443
416,304,22894,5,0,0:0:0:0:
400,96,23089,1,0,0:0:0:0:
416,304,23284,1,0,0:0:0:0:
160,128,23479,2,0,P|112:160|168:152,1,149.999998569489
240,256,24063,2,0,P|224:304|184:304,1,74.9999992847443
24,304,24453,2,0,L|112:288,2,74.9999992847443
176,56,25037,5,0,0:0:0:0:
212,52,25134,1,0,0:0:0:0:
245,70,25231,1,0,0:0:0:0:
263,102,25329,1,0,0:0:0:0:
272,128,25427,2,0,P|272:192|264:232,1,74.9999992847443
416,264,25816,2,0,P|400:304|384:304,1,37.4999996423721
272,336,26011,2,0,P|304:368|344:360,1,74.9999992847443
360,128,26401,5,0,0:0:0:0:
360,128,26498,1,0,0:0:0:0:
360,128,26596,1,0,0:0:0:0:
96,224,26790,2,0,L|192:240,1,74.9999992847443
360,256,27180,1,0,0:0:0:0:
160,80,27375,1,0,0:0:0:0:
144,304,27570,1,0,0:0:0:0:
336,64,27764,5,0,0:0:0:0:
372,71,27861,1,0,0:0:0:0:
403,91,27958,1,0,0:0:0:0:
425,122,28056,1,0,0:0:0:0:
440,152,28154,2,0,P|456:200|440:256,1,74.9999992847443
200,264,28544,2,0,L|304:248,1,74.9999992847443
112,88,28933,5,0,0:0:0:0:
272,144,29128,1,0,0:0:0:0:
64,248,29323,1,0,0:0:0:0:
336,304,29518,5,0,0:0:0:0:
336,304,29615,1,0,0:0:0:0:
336,304,29712,1,0,0:0:0:0:
256,48,29907,2,0,P|296:80|304:72,1,42.4999987840653
360,88,30102,2,0,P|344:152|304:160,1,84.9999975681305
128,240,30492,5,0,0:0:0:0:
123,281,30589,1,0,0:0:0:0:
141,319,30686,1,0,0:0:0:0:
177,341,30784,1,0,0:0:0:0:
208,352,30881,2,0,P|264:352|280:328,1,84.9999975681305
432,144,31271,2,0,P|448:208|440:240,2,84.9999975681305
168,128,31855,5,0,0:0:0:0:
320,208,32050,1,0,0:0:0:0:
88,224,32245,1,0,0:0:0:0:
288,112,32440,1,0,0:0:0:0:
96,56,32635,1,0,0:0:0:0:
240,8,32829,6,0,L|288:32,3,42.4999987840653
368,80,33219,2,0,L|384:128,4,42.4999987840653
224,304,33803,2,0,L|240:208,1,84.9999975681305
248,152,34096,1,0,0:0:0:0:
248,152,34193,1,0,0:0:0:0:
72,120,34388,6,0,B|72:88|72:88|80:96|80:96|64:96|64:96|72:80|72:80|88:96|88:96|56:96|56:96|72:72|72:72|96:96|96:96|88:88,1,169.999995136261
40,280,34972,2,0,P|56:336|96:344,1,84.9999975681305
352,272,35362,5,0,0:0:0:0:
208,360,35557,1,0,0:0:0:0:
280,168,35751,1,0,0:0:0:0:
384,344,35946,1,0,0:0:0:0:
424,128,36141,2,0,P|400:72|368:56,1,84.9999975681305
160,216,36531,2,0,L|224:200,1,42.4999987840653
312,224,36725,2,0,P|296:272|256:272,1,84.9999975681305
48,176,37115,2,0,P|64:104|96:96,1,84.9999975681305
288,32,37505,5,0,0:0:0:0:
368,208,37699,1,0,0:0:0:0:
184,184,37894,1,0,0:0:0:0:
392,80,38089,1,0,0:0:0:0:
432,304,38284,1,0,0:0:0:0:
256,264,38479,1,0,0:0:0:0:
440,88,38674,2,0,P|464:144|456:176,1,84.9999975681305
144,216,39063,2,0,L|208:216,3,42.4999987840653
296,160,39453,2,0,L|336:176,3,42.4999987840653
416,312,39842,6,0,P|400:360|312:368,1,127.499996352196
64,320,40232,2,0,L|168:312,1,84.9999975681305
208,64,40622,6,0,P|208:144|192:168,1,84.9999975681305
32,200,41011,1,0,0:0:0:0:
304,88,41206,1,0,0:0:0:0:
256,288,41401,2,0,P|304:304|344:288,1,84.9999975681305
432,72,41790,2,0,L|424:168,1,84.9999975681305
160,176,42180,5,0,0:0:0:0:
288,32,42375,1,0,0:0:0:0:
352,160,42570,1,0,0:0:0:0:
176,72,42764,1,0,0:0:0:0:
296,264,42959,1,0,0:0:0:0:
64,176,43154,1,0,0:0:0:0:
112,336,43349,2,0,P|144:376|192:376,1,84.9999975681305
392,264,43738,2,0,B|392:224|392:224|400:232|400:232|384:232|384:232|400:240|400:240|384:240|384:240|400:248|400:248|384:248|384:248|400:256|400:256|384:256|384:256|400:264,1,169.999995136261
200,152,44323,6,0,P|240:104|280:96,1,84.9999975681305
304,304,44712,5,0,0:0:0:0:
80,248,44907,1,0,0:0:0:0:
168,352,45102,5,0,0:0:0:0:
328,184,45297,1,0,0:0:0:0:
96,72,45492,2,0,P|152:96|176:80,1,84.9999975681305
400,16,45881,2,0,P|416:64|408:104,1,84.9999975681305
240,192,46271,2,0,L|224:232,1,42.4999987840653
128,256,46466,2,0,P|144:320|184:336,1,84.9999975681305
440,272,46855,2,0,L|352:280,1,84.9999975681305
176,128,47245,5,0,0:0:0:0:
264,272,47440,5,0,0:0:0:0:
176,128,47635,1,0,0:0:0:0:
264,272,47829,1,0,0:0:0:0:
336,96,48024,2,0,P|312:40|280:24,1,84.9999975681305
32,168,48414,2,0,L|96:160,1,42.4999987840653
104,232,48609,2,0,P|160:224|176:208,1,42.4999987840653
200,136,48803,2,0,P|240:176|240:224,1,84.9999975681305
328,376,49193,2,0,P|384:352|384:304,1,84.9999975681305
328,112,49583,5,0,0:0:0:0:
416,224,49777,1,0,0:0:0:0:
416,64,49972,1,0,0:0:0:0:
296,216,50167,1,0,0:0:0:0:
216,8,50362,2,0,P|184:64|184:88,1,84.9999975681305
248,288,50751,2,0,P|184:296|152:272,1,84.9999975681305
56,152,51141,5,0,0:0:0:0:
56,152,51238,1,0,0:0:0:0:
56,152,51336,1,0,0:0:0:0:
368,120,51531,2,0,L|272:128,1,84.9999975681305
104,40,51920,6,0,L|144:56,2,42.4999987840653
88,240,52310,2,0,P|80:304|112:344,1,84.9999975681305
144,352,52602,1,0,0:0:0:0:
144,352,52699,1,0,0:0:0:0:
288,248,52894,2,0,P|320:288|352:272,1,84.9999975681305
416,48,53284,2,0,L|408:144,1,84.9999975681305
136,120,53674,2,0,P|168:160|208:160,1,84.9999975681305
328,16,54063,5,0,0:0:0:0:
328,16,54258,1,0,0:0:0:0:
224,264,54453,2,0,P|168:264|152:240,1,84.9999975681305
104,32,54842,2,0,L|160:24,1,42.4999987840653
248,64,55037,2,0,L|152:88,1,84.9999975681305
32,232,55427,2,0,P|48:296|80:304,1,84.9999975681305
288,224,55816,5,0,0:0:0:0:
192,336,56011,1,0,0:0:0:0:
208,160,56206,1,0,0:0:0:0:
336,312,56401,1,0,0:0:0:0:
288,104,56596,1,0,0:0:0:0:
224,248,56790,1,0,0:0:0:0:
192,48,56985,1,0,0:0:0:0:
336,192,57180,1,0,0:0:0:0:
392,8,57375,2,0,L|376:96,1,84.9999975681305
160,168,57764,5,0,0:0:0:0:
160,168,57862,1,0,0:0:0:0:
160,168,57959,1,0,0:0:0:0:
400,280,58154,2,0,P|344:280|312:264,1,84.9999975681305
152,280,58544,1,0,0:0:0:0:
256,352,58738,1,0,0:0:0:0:
56,344,58933,1,0,0:0:0:0:
184,176,59128,1,0,0:0:0:0:
40,120,59323,2,0,P|24:168|32:216,1,84.9999975681305
320,144,59712,6,0,L|280:160,1,42.4999987840653
192,256,59907,2,0,L|240:248,1,42.4999987840653
360,256,60102,2,0,P|336:304|304:312,1,84.9999975681305
128,96,60492,2,0,B|160:48|160:48|176:80,1,84.9999975681305
384,136,60881,5,0,0:0:0:0:
384,136,60979,1,0,0:0:0:0:
384,136,61076,2,0,P|384:80|368:48,1,84.9999975681305
128,168,61466,2,0,L|200:160,2,42.4999987840653
296,296,61855,2,0,P|272:336|232:336,1,84.9999975681305
0,240,62245,2,0,L|88:240,1,84.9999975681305
280,128,62635,5,0,0:0:0:0:
120,48,62829,1,0,0:0:0:0:
400,16,63024,2,0,L|304:32,1,84.9999975681305
176,208,63414,1,0,0:0:0:0:
336,112,63609,1,0,0:0:0:0:
112,112,63803,1,0,0:0:0:0:
376,192,63998,2,0,P|384:248|344:272,1,84.9999975681305
112,320,64388,2,0,P|144:360|192:344,1,84.9999975681305
288,224,64777,5,0,0:0:0:0:
288,224,64875,1,0,0:0:0:0:
288,224,64972,1,0,0:0:0:0:
112,144,65167,2,0,B|80:96|80:96|216:120,1,169.999995136261
216,264,65751,2,0,L|208:320,2,42.4999987840653
360,56,66141,2,0,L|352:152,1,84.9999975681305
128,224,66531,5,0,0:0:0:0:
296,24,66725,1,0,0:0:0:0:
360,224,66920,1,0,0:0:0:0:
184,16,67115,2,0,L|192:112,1,84.9999975681305
224,344,67505,1,0,0:0:0:0:
224,344,67699,2,0,L|208:240,1,84.9999975681305
376,160,68089,6,0,P|432:184|400:184,1,212.499993920326
304,280,68674,2,0,P|352:328|376:320,1,84.9999975681305
496,288,69063,2,0,L|472:376,1,84.9999975681305
256,272,69453,1,0,0:0:0:0:
320,32,69648,1,0,0:0:0:0:
104,176,69842,1,0,0:0:0:0:
384,192,70037,1,0,0:0:0:0:
184,32,70232,1,0,0:0:0:0:
152,248,70427,1,0,0:0:0:0:
256,128,70622,5,0,0:0:0:0:
256,128,70719,1,0,0:0:0:0:
256,128,70816,1,0,0:0:0:0:
88,288,71011,2,0,P|112:336|152:336,1,84.9999975681305
376,264,71401,2,0,L|288:256,1,84.9999975681305
88,160,71790,1,0,0:0:0:0:
312,56,71985,1,0,0:0:0:0:
64,48,72180,2,0,P|104:80|152:80,1,84.9999975681305
312,224,72570,5,0,0:0:0:0:
312,224,72667,1,0,0:0:0:0:
312,224,72764,2,0,P|264:256|232:240,1,84.9999975681305
208,64,73154,2,0,L|208:112,4,42.4999987840653
144,352,73738,2,0,L|168:184,1,169.999995136261
