osu file format v14

[General]
AudioFilename: audio.mp3
AudioLeadIn: 0
PreviewTime: -1
Countdown: 0
SampleSet: Soft
StackLeniency: 0.3
Mode: 0
LetterboxInBreaks: 0
WidescreenStoryboard: 1

[Editor]
DistanceSpacing: 1.2
BeatDivisor: 4
GridSize: 4
TimelineZoom: 1.4

[Metadata]
Title:Secret Story (TV Size)
TitleUnicode:Secret Story (TV Size)
Artist:Purely Monster
ArtistUnicode:Purely Monster
Creator:kinematik
Version:Insane Love
Source:Ore ga Suki nano wa Imouto dakedo Imouto ja Nai
Tags:ore ga suki nano wa imouto dakedo imouto ja nai secret story purely monster
BeatmapID:1959071
BeatmapSetID:936167

[Difficulty]
HPDrainRate:6
CircleSize:4.5
OverallDifficulty:4.5
ApproachRate:9
SliderMultiplier:1.60000000596046
SliderTickRate:1

[Events]
//Background and Video events
0,0,"BG.jpg",0,0
//Break Periods
//Storyboard Layer 0 (Background)
//Storyboard Layer 1 (Fail)
//Storyboard Layer 2 (Pass)
//Storyboard Layer 3 (Foreground)
//Storyboard Sound Samples

[TimingPoints]
1863,338.983050847458,4,2,2,100,1,0
5930,-133.333333333333,4,2,2,100,0,0
10676,-100,4,2,2,100,0,0
14744,-133.333333333333,4,2,2,100,0,0
17117,-100,4,2,2,100,0,0
24066,-166.666666666667,4,2,2,100,0,0
25083,-83.3333333333333,4,2,2,100,0,0
26269,-76.9230769230769,4,2,2,100,0,0
26947,-100,4,2,2,100,0,0
28981,-66.6666666666667,4,2,2,100,0,0
29659,-100,4,2,2,100,0,0
37117,-133.333333333333,4,2,2,100,0,0
43222,-100,4,2,2,100,0,0
46608,-200,4,2,2,100,0,0
49320,-66.6666666666667,4,2,2,100,0,0
49659,-86.9565217391304,4,2,2,100,0,0
50507,-100,4,2,2,100,0,0
51863,-111.111111111111,4,2,2,100,0,0
53218,-125,4,2,2,100,0,0
53727,-100,4,2,2,100,0,0
79151,-142.857142857143,4,2,2,100,0,0
80507,-100,4,2,2,100,0,0

[HitObjects]
116,180,507,6,0,L|115:125,2,53.3333335320153
207,259,846,2,0,L|167:298,2,53.3333335320153
216,156,1185,2,0,L|255:116,2,53.3333335320153
304,236,1524,2,0,L|304:292,2,53.3333335320153
396,172,1863,5,4,0:0:0:0:
84,49,2879,5,4,0:0:0:0:
152,184,3049,1,4,0:0:0:0:
272,108,3388,5,0,0:0:0:0:
358,46,3557,1,0,0:0:0:0:
358,46,3727,1,0,0:0:0:0:
358,46,3896,2,0,P|383:89|391:129,1,80.000000298023
396,180,4235,2,0,B|397:227|381:274|358:277|281:275,1,160.000000596046
105,59,4913,5,0,0:0:0:0:
105,59,5252,1,0,0:0:0:0:
104,192,5591,2,0,P|168:188|200:160,1,80.000000298023
247,134,5930,2,0,B|298:133|283:154|307:155|308:179|359:179,1,120.000005024671
472,180,6439,1,0,0:0:0:0:
375,288,6778,1,0,0:0:0:0:
375,288,7117,1,0,0:0:0:0:
413,59,7625,5,0,0:0:0:0:
413,59,7964,1,0,0:0:0:0:
333,123,8642,6,0,P|318:140|300:147,3,30.0000012561679,4|0|0|0,0:0|0:0|0:0|0:0,0:0:0:0:
229,63,8981,2,0,P|210:46|191:41,3,30.0000012561679,4|0|0|0,0:0|0:0|0:0|0:0,0:0:0:0:
88,44,9320,1,4,0:0:0:0:
88,56,9404,1,4,0:0:0:0:
88,68,9489,1,4,0:0:0:0:
88,80,9574,1,4,0:0:0:0:
88,92,9658,5,4,0:0:0:0:
88,104,9743,1,4,0:0:0:0:
88,116,9828,1,4,0:0:0:0:
88,128,9913,1,4,0:0:0:0:
88,140,9998,6,0,L|88:216,1,60.0000025123357,4|0,0:0|0:0,0:0:0:0:
96,268,10337,2,0,P|108:308|144:320,1,60.0000025123357,4|0,0:0|0:0,0:0:0:0:
188,320,10676,2,0,L|256:256,1,80.000000298023,4|0,0:0|0:0,0:0:0:0:
344,180,11015,1,4,0:0:0:0:
344,180,11185,1,0,0:0:0:0:
276,116,11354,6,0,P|240:80|180:72,1,80.000000298023,4|0,0:0|0:0,0:0:0:0:
160,128,11693,2,0,P|164:180|184:216,1,80.000000298023,4|0,0:0|0:0,0:0:0:0:
236,228,12032,2,0,L|332:228,1,80.000000298023,4|0,0:0|0:0,0:0:0:0:
392,232,12371,2,0,P|436:264|432:296,1,80.000000298023,4|0,0:0|0:0,0:0:0:0:
368,336,12710,5,4,0:0:0:0:
328,272,12879,1,0,0:0:0:0:
280,336,13049,5,4,0:0:0:0:
240,272,13218,1,0,0:0:0:0:
196,336,13388,5,4,0:0:0:0:
156,272,13557,1,0,0:0:0:0:
112,336,13727,5,4,0:0:0:0:
156,272,13896,1,0,0:0:0:0:
196,336,14066,2,0,P|248:324|264:300,1,80.000000298023,4|0,0:0|0:0,0:0:0:0:
304,208,14405,1,4,0:0:0:0:
304,208,14574,5,0,0:0:0:0:
216,80,14744,1,4,0:0:0:0:
200,68,14857,2,0,P|168:60|136:68,1,40.0000016748905
100,148,15083,1,4,0:0:0:0:
112,164,15196,2,0,P|132:188|148:192,1,40.0000016748905
248,136,15422,5,4,0:0:0:0:
284,244,15591,1,4,0:0:0:0:
404,328,16608,6,0,L|404:204,1,120.000005024671
404,136,17117,2,0,P|384:80|356:68,1,80.000000298023
288,72,17456,2,0,P|244:116|240:152,1,80.000000298023
324,196,17795,2,0,P|304:240|268:264,1,80.000000298023
184,172,18134,5,4,0:0:0:0:
108,316,18303,1,4,0:0:0:0:
184,100,19320,6,0,P|128:100|184:104,1,160.000000596046
200,116,19829,2,0,P|212:192|200:216,1,80.000000298023
136,284,20168,1,0,0:0:0:0:
136,284,20337,1,0,0:0:0:0:
216,348,20507,1,0,0:0:0:0:
216,348,20676,1,0,0:0:0:0:
312,312,20846,6,0,P|364:280|384:256,1,80.000000298023,4|0,0:0|0:0,0:0:0:0:
416,160,21185,1,0,0:0:0:0:
416,160,21354,1,0,0:0:0:0:
416,160,21524,2,0,P|364:124|328:120,1,80.000000298023
240,108,21863,1,0,0:0:0:0:
240,108,22032,1,0,0:0:0:0:
136,160,22201,6,0,P|128:224|128:252,1,80.000000298023,4|0,0:0|0:0,0:0:0:0:
144,340,22540,2,0,P|208:316|232:300,1,80.000000298023
304,260,22879,5,0,0:0:0:0:
304,260,23049,1,0,0:0:0:0:
304,172,23218,1,0,0:0:0:0:
304,172,23388,1,0,0:0:0:0:
252,112,23557,2,0,P|192:88|164:88,1,80.000000298023,4|0,0:0|0:0,0:0:0:0:
60,184,23896,1,0,0:0:0:0:
160,296,24066,2,0,P|164:300|248:288,1,95.9999974279402,4|0,0:0|0:0,0:0:0:0:
336,176,24574,1,4,0:0:0:0:
388,356,24744,1,4,0:0:0:0:
146,131,25083,6,0,P|97:88|134:138,1,191.99999485588
259,168,25761,1,0,0:0:0:0:
168,261,25930,1,0,0:0:0:0:
296,296,26100,1,0,0:0:0:0:
296,296,26269,2,0,P|340:260|360:216,1,103.999995626688,4|0,0:0|0:0,0:0:0:0:
376,84,26608,1,0,0:0:0:0:
376,84,26778,1,0,0:0:0:0:
284,52,26947,6,0,P|232:52|196:68,1,80.000000298023
164,112,27286,2,0,P|164:164|152:192,1,80.000000298023
248,192,27625,2,0,P|292:196|328:224,1,80.000000298023
380,280,27964,1,0,0:0:0:0:
380,280,28134,1,0,0:0:0:0:
312,332,28303,2,0,P|276:352|264:320,3,80.000000298023
256,244,28981,6,0,P|248:156|232:104,1,120.000005024671,4|0,0:0|0:0,0:0:0:0:
164,20,29320,1,0,0:0:0:0:
164,20,29490,1,0,0:0:0:0:
96,96,29659,2,0,P|84:160|88:196,1,80.000000298023
148,208,29998,2,0,L|248:208,1,80.000000298023
320,208,30337,6,0,L|256:292,1,80.000000298023,4|0,0:0|0:0,0:0:0:0:
208,352,30676,1,4,0:0:0:0:
208,352,30846,1,0,0:0:0:0:
104,352,31015,2,0,P|52:332|48:284,1,80.000000298023,4|0,0:0|0:0,0:0:0:0:
52,208,31354,1,4,0:0:0:0:
52,208,31524,1,0,0:0:0:0:
139,62,31693,6,0,L|228:64,1,80.000000298023,4|0,0:0|0:0,0:0:0:0:
288,64,32032,2,0,L|384:64,1,80.000000298023
448,64,32371,5,0,0:0:0:0:
384,116,32540,1,0,0:0:0:0:
448,176,32710,5,0,0:0:0:0:
384,232,32879,1,0,0:0:0:0:
316,284,33049,2,0,P|272:276|248:220,1,80.000000298023,4|0,0:0|0:0,0:0:0:0:
252,68,33388,1,0,0:0:0:0:
252,68,33557,1,0,0:0:0:0:
252,68,33727,6,0,P|192:92|176:120,1,80.000000298023
100,200,34066,1,0,0:0:0:0:
100,200,34235,1,0,0:0:0:0:
180,304,34405,6,0,P|232:296|252:264,1,80.000000298023,4|0,0:0|0:0,0:0:0:0:
316,152,34744,1,4,0:0:0:0:
392,324,34913,1,4,0:0:0:0:
428,184,35252,5,4,0:0:0:0:
292,240,35422,1,4,0:0:0:0:
424,300,35591,2,0,B|408:360|304:352|264:348,1,160.000000596046,4|0,0:0|0:0,0:0:0:0:
200,312,36100,5,4,0:0:0:0:
268,272,36269,1,0,0:0:0:0:
200,232,36439,5,4,0:0:0:0:
268,188,36608,1,0,0:0:0:0:
200,144,36778,5,4,0:0:0:0:
268,96,36947,1,0,0:0:0:0:
272,276,37117,6,0,B|336:272|356:220|356:136,1,180.000007537007,4|0,0:0|0:0,0:0:0:0:
312,48,37795,1,0,0:0:0:0:
272,268,38134,1,0,0:0:0:0:
200,268,38473,6,0,B|152:268|116:212|120:120,1,180.000007537007,4|0,0:0|0:0,0:0:0:0:
120,44,39151,1,0,0:0:0:0:
248,120,39320,1,4,0:0:0:0:
248,120,39490,1,4,0:0:0:0:
408,44,39829,6,0,L|408:124,1,60.0000025123357,4|0,0:0|0:0,0:0:0:0:
408,192,40168,1,0,0:0:0:0:
408,192,40337,1,0,0:0:0:0:
408,284,40507,2,0,P|384:328|360:340,1,60.0000025123357,4|0,0:0|0:0,0:0:0:0:
304,332,40846,5,0,0:0:0:0:
256,264,41015,1,0,0:0:0:0:
208,332,41185,1,4,0:0:0:0:
80,184,41524,5,4,0:0:0:0:
252,56,41863,2,0,P|316:92|336:160,1,120.000005024671,4|0,0:0|0:0,0:0:0:0:
348,212,42371,6,0,P|320:264|260:272,1,120.000005024671,4|0,0:0|0:0,0:0:0:0:
132,268,42879,2,0,P|148:212|160:196,1,60.0000025123357,4|0,0:0|0:0,0:0:0:0:
96,160,43218,2,0,P|136:120|160:116,1,60.0000025123357,4|0,0:0|0:0,0:0:0:0:
132,52,43557,2,0,P|184:44|220:56,1,80.000000298023,4|0,0:0|0:0,0:0:0:0:
384,100,43896,6,0,L|412:180,1,80.000000298023,4|0,0:0|0:0,0:0:0:0:
420,240,44235,2,0,P|400:284|364:308,1,80.000000298023,4|0,0:0|0:0,0:0:0:0:
316,232,44574,2,0,P|272:204|232:204,1,80.000000298023,4|0,0:0|0:0,0:0:0:0:
244,296,44913,2,0,P|200:320|156:312,1,80.000000298023,4|0,0:0|0:0,0:0:0:0:
72,304,45252,5,0,0:0:0:0:
72,304,45422,1,0,0:0:0:0:
144,136,45591,1,4,0:0:0:0:
232,304,45930,1,0,0:0:0:0:
236,304,46100,1,0,0:0:0:0:
56,200,46269,1,4,0:0:0:0:
192,52,46608,6,0,P|300:72|368:136,1,200.000000745057,4|0,0:0|0:0,0:0:0:0:
376,296,47795,5,0,0:0:0:0:
304,208,47964,1,0,0:0:0:0:
304,208,48134,5,0,0:0:0:0:
224,292,48303,1,0,0:0:0:0:
224,292,48473,5,0,0:0:0:0:
156,156,48642,1,0,0:0:0:0:
120,304,48812,1,0,0:0:0:0:
236,196,48981,1,0,0:0:0:0:
88,216,49320,6,0,P|24:200|88:212,1,180.000007537007,4|0,0:0|0:0,0:0:0:0:
100,196,49659,2,0,P|108:136|136:92,1,92.0000020974872,4|0,0:0|0:0,0:0:0:0:
176,32,49998,2,0,L|216:4,4,46.0000010487436
108,88,50507,6,0,P|96:160|116:244,1,160.000000596046,4|0,0:0|0:0,0:0:0:0:
188,292,51015,1,4,0:0:0:0:
288,208,51185,1,0,0:0:0:0:
272,336,51354,1,4,0:0:0:0:
196,168,51524,1,0,0:0:0:0:
196,168,51693,1,0,0:0:0:0:
88,132,51863,6,0,B|100:80|168:64|208:64,1,143.99999614191,4|0,0:0|0:0,0:0:0:0:
284,56,52371,1,4,0:0:0:0:
204,184,52540,1,0,0:0:0:0:
196,32,52710,1,4,0:0:0:0:
292,148,52879,1,0,0:0:0:0:
148,104,53049,1,0,0:0:0:0:
148,104,53218,6,0,P|144:184|164:240,1,128.000000476837,4|0,0:0|0:0,0:0:0:0:
224,240,53727,2,0,P|276:212|304:168,1,80.000000298023,4|0,0:0|0:0,0:0:0:0:
360,108,54066,5,4,0:0:0:0:
360,108,54235,1,0,0:0:0:0:
440,208,54405,1,4,0:0:0:0:
440,212,54574,1,0,0:0:0:0:
312,216,54744,1,4,0:0:0:0:
388,316,54913,2,0,L|412:348,2,40.0000001490115
172,268,55252,2,0,B|212:216|292:208|336:200,1,160.000000596046,4|4,0:0|0:0,0:0:0:0:
400,248,55930,1,4,0:0:0:0:
456,120,56269,5,0,0:0:0:0:
396,40,56439,5,0,0:0:0:0:
336,120,56609,1,0,0:0:0:0:
272,40,56778,5,4,0:0:0:0:
272,40,56948,1,0,0:0:0:0:
208,192,57117,1,4,0:0:0:0:
208,192,57287,5,0,0:0:0:0:
208,192,57456,2,0,B|236:224|300:232|336:224|376:176,1,160.000000596046,4|0,0:0|0:0,0:0:0:0:
272,52,57964,1,0,0:0:0:0:
408,96,58134,5,4,0:0:0:0:
280,136,58303,1,0,0:0:0:0:
344,20,58473,1,0,0:0:0:0:
376,152,58642,1,0,0:0:0:0:
376,152,58812,6,0,P|364:220|352:256,1,80.000000298023,4|0,0:0|0:0,0:0:0:0:
320,316,59151,1,0,0:0:0:0:
320,316,59320,1,0,0:0:0:0:
232,280,59490,2,0,P|188:232|176:192,1,80.000000298023,4|0,0:0|0:0,0:0:0:0:
144,96,59829,5,0,0:0:0:0:
332,32,59998,2,0,P|384:100|400:184,1,160.000000596046,4|0,0:0|0:0,0:0:0:0:
324,328,60507,1,0,0:0:0:0:
308,168,60676,1,0,0:0:0:0:
416,280,60846,2,4,L|448:308,3,40.0000001490115
260,252,61185,1,0,0:0:0:0:
404,184,61354,6,0,P|360:96|296:56,1,160.000000596046,4|0,0:0|0:0,0:0:0:0:
248,52,61863,5,4,0:0:0:0:
216,140,62032,1,0,0:0:0:0:
176,52,62201,5,4,0:0:0:0:
140,136,62371,1,0,0:0:0:0:
108,52,62540,1,0,0:0:0:0:
108,52,62710,6,0,P|64:140|60:208,1,160.000000596046,4|0,0:0|0:0,0:0:0:0:
96,296,63218,5,4,0:0:0:0:
132,204,63388,1,0,0:0:0:0:
168,296,63557,5,4,0:0:0:0:
208,204,63727,1,0,0:0:0:0:
240,296,63896,1,0,0:0:0:0:
240,296,64066,6,0,B|320:288|352:216|356:188,1,160.000000596046,4|0,0:0|0:0,0:0:0:0:
356,112,64574,2,0,P|312:72|264:64,1,80.000000298023,4|0,0:0|0:0,0:0:0:0:
204,36,64913,5,4,0:0:0:0:
204,36,65083,1,0,0:0:0:0:
136,192,65252,1,4,0:0:0:0:
136,192,65422,5,0,0:0:0:0:
260,136,65591,1,4,0:0:0:0:
92,60,65761,2,0,L|56:32,2,40.0000001490115
196,188,66100,1,4,0:0:0:0:
376,52,66439,1,4,0:0:0:0:
384,312,66778,1,4,0:0:0:0:
248,296,67117,5,0,0:0:0:0:
248,296,67286,2,0,P|192:256|184:236,1,80.000000298023
152,152,67625,2,0,P|172:96|204:80,1,80.000000298023
260,104,67964,2,0,L|336:136,1,80.000000298023
444,184,68303,6,0,P|428:248|400:276,1,80.000000298023,4|0,0:0|0:0,0:0:0:0:
324,296,68642,2,0,P|268:292|224:268,1,80.000000298023
124,216,68981,1,0,0:0:0:0:
232,132,69151,1,0,0:0:0:0:
188,260,69320,5,0,0:0:0:0:
152,76,69490,2,0,P|200:48|304:60,1,160.000000596046,4|0,0:0|0:0,0:0:0:0:
420,136,69998,1,0,0:0:0:0:
296,216,70168,1,0,0:0:0:0:
348,72,70337,5,0,0:0:0:0:
368,260,70507,1,0,0:0:0:0:
248,120,70676,1,0,0:0:0:0:
476,100,70846,2,0,P|476:188|444:256,1,160.000000596046,4|0,0:0|0:0,0:0:0:0:
232,340,71354,1,0,0:0:0:0:
296,200,71524,1,0,0:0:0:0:
328,348,71693,5,0,0:0:0:0:
176,240,71863,1,0,0:0:0:0:
396,184,72032,1,0,0:0:0:0:
232,48,72371,1,4,0:0:0:0:
48,276,73388,5,4,0:0:0:0:
176,348,73557,1,4,0:0:0:0:
340,248,73896,5,0,0:0:0:0:
340,248,74066,2,0,P|336:176|328:148,1,80.000000298023
272,96,74405,2,0,P|224:80|184:80,1,80.000000298023
116,108,74744,2,0,L|116:288,1,160.000000596046
172,348,75422,5,0,0:0:0:0:
172,348,75761,1,0,0:0:0:0:
248,328,76100,2,0,P|300:288|320:248,1,80.000000298023
344,192,76439,2,0,B|252:160|304:144|204:112,1,160.000000596046
88,104,76947,5,0,0:0:0:0:
108,200,77286,1,0,0:0:0:0:
108,200,77625,1,0,0:0:0:0:
280,48,78134,5,0,0:0:0:0:
280,48,78473,1,0,0:0:0:0:
380,92,78812,2,0,P|400:144|392:176,1,80.000000298023
328,316,79151,5,4,0:0:0:0:
300,313,79235,1,0,0:0:0:0:
273,304,79320,1,0,0:0:0:0:
250,289,79405,1,0,0:0:0:0:
232,268,79490,2,0,L|208:244,3,27.9999992498159,4|0|0|0,0:0|0:0|0:0|0:0,0:0:0:0:
364,224,79829,2,4,L|368:184,3,27.9999992498159
444,336,80168,2,4,L|480:336,3,27.9999992498159
312,340,80507,6,0,L|224:340,1,80.000000298023,4|0,0:0|0:0,0:0:0:0:
156,336,80846,2,0,P|108:304|88:264,1,80.000000298023,4|0,0:0|0:0,0:0:0:0:
88,212,81185,2,0,L|128:124,1,80.000000298023,4|0,0:0|0:0,0:0:0:0:
196,292,81524,5,4,0:0:0:0:
224,208,81693,1,0,0:0:0:0:
260,268,81863,5,4,0:0:0:0:
288,184,82032,1,0,0:0:0:0:
328,244,82201,5,4,0:0:0:0:
356,160,82370,1,0,0:0:0:0:
420,212,82540,5,4,0:0:0:0:
288,184,82710,1,0,0:0:0:0:
288,296,82879,5,4,0:0:0:0:
332,152,83049,1,0,0:0:0:0:
400,280,83218,6,0,P|352:296|312:300,1,80.000000298023,4|0,0:0|0:0,0:0:0:0:
300,216,83557,2,0,P|232:208|192:212,1,80.000000298023,4|0,0:0|0:0,0:0:0:0:
240,292,83896,2,0,P|184:304|148:296,1,80.000000298023,4|0,0:0|0:0,0:0:0:0:
144,216,84235,2,0,P|112:180|96:128,1,80.000000298023,4|0,0:0|0:0,0:0:0:0:
236,52,84574,5,4,0:0:0:0:
320,188,84744,2,0,L|352:216,2,40.0000001490115
136,156,85083,1,4,0:0:0:0:
344,56,85422,1,4,0:0:0:0:
292,348,85761,1,4,0:0:0:0:
