osu file format v14

[General]
AudioFilename: audio.mp3
AudioLeadIn: 0
PreviewTime: -1
Countdown: 0
SampleSet: Soft
StackLeniency: 0.6
Mode: 0
LetterboxInBreaks: 0
WidescreenStoryboard: 1

[Editor]
DistanceSpacing: 1.5
BeatDivisor: 4
GridSize: 4
TimelineZoom: 1.9

[Metadata]
Title:Secret Story (TV Size)
TitleUnicode:Secret Story (TV Size)
Artist:Purely Monster
ArtistUnicode:Purely Monster
Creator:kinematik
Version:Hard Suki
Source:Ore ga Suki nano wa Imouto dakedo Imouto ja Nai
Tags:ore ga suki nano wa imouto dakedo imouto ja nai secret story purely monster
BeatmapID:1959070
BeatmapSetID:936167

[Difficulty]
HPDrainRate:5
CircleSize:3
OverallDifficulty:3.3
ApproachRate:8
SliderMultiplier:1.60000000596046
SliderTickRate:1

[Events]
//Background and Video events
0,0,"BG.jpg",0,0
//Break Periods
//Storyboard Layer 0 (Background)
//Storyboard Layer 1 (Fail)
//Storyboard Layer 2 (Pass)
//Storyboard Layer 3 (Foreground)
//Storyboard Sound Samples

[TimingPoints]
1863,338.983050847458,4,2,2,100,1,0
36439,-80,4,2,2,100,0,0
36778,-66.6666666666667,4,2,2,100,0,0
37117,-100,4,2,2,100,0,0
54066,-166.666666666667,4,2,2,100,0,0
54913,-100,4,2,2,100,0,0
58134,-166.666666666667,4,2,2,100,0,0
58812,-100,4,2,2,100,0,0
59494,-200,4,2,2,100,0,0
59998,-100,4,2,2,100,0,0
74744,-80,4,2,2,100,0,0
75252,-100,4,2,2,100,0,0

[HitObjects]
252,68,507,6,0,P|220:48|209:26,2,53.3333335320153
252,136,846,2,0,P|284:120|300:100,2,53.3333335320153
252,204,1185,2,0,P|220:184|209:162,2,53.3333335320153
252,272,1524,2,0,P|284:256|300:236,2,53.3333335320153
252,344,1863,1,4,0:0:0:0:
428,44,2879,5,4,0:0:0:0:
428,44,3049,1,4,0:0:0:0:
388,149,3388,5,0,0:0:0:0:
388,149,3557,2,0,P|322:138|292:118,1,80.000000298023
243,83,3896,2,0,P|193:57|158:58,1,80.000000298023
75,86,4235,2,0,B|73:154|118:210|107:273,1,160.000000596046
290,281,4913,6,0,P|339:239|363:170,1,120.000000447034
368,151,5252,2,0,P|346:73|282:86,1,160.000000596046
151,157,5930,5,0,0:0:0:0:
327,182,6269,1,0,0:0:0:0:
327,182,6439,1,0,0:0:0:0:
152,248,6778,5,0,0:0:0:0:
152,248,7117,1,0,0:0:0:0:
256,328,7625,6,0,P|334:302|366:258,1,120.000000447034
392,232,7964,2,0,B|428:189|409:133|350:120|314:149,1,160.000000596046
287,278,8642,6,0,L|245:297,3,40.0000001490115,4|0|0|0,0:0|0:0|0:0|0:0,0:0:0:0:
291,170,8981,2,0,L|255:213,3,40.0000001490115,4|0|0|0,0:0|0:0|0:0|0:0,0:0:0:0:
232,81,9320,2,0,L|228:136,3,40.0000001490115,4|0|0|0,0:0|0:0|0:0|0:0,0:0:0:0:
136,48,9659,2,0,L|168:98,3,40.0000001490115,4|0|0|0,0:0|0:0|0:0|0:0,0:0:0:0:
56,66,9998,6,0,P|44:125|61:166,1,80.000000298023,4|0,0:0|0:0,0:0:0:0:
110,201,10337,2,0,P|176:178|207:189,1,80.000000298023,4|0,0:0|0:0,0:0:0:0:
216,265,10676,2,0,P|161:289|115:281,1,80.000000298023,4|0,0:0|0:0,0:0:0:0:
110,201,11015,2,0,P|176:178|207:189,1,80.000000298023,4|0,0:0|0:0,0:0:0:0:
321,233,11354,6,0,P|345:172|338:133,1,80.000000298023,4|0,0:0|0:0,0:0:0:0:
271,133,11693,2,0,P|246:81|218:63,1,80.000000298023
128,96,12032,1,4,0:0:0:0:
128,96,12201,1,0,0:0:0:0:
88,216,12371,1,0,0:0:0:0:
88,216,12540,1,0,0:0:0:0:
147,308,12710,6,0,L|226:274,1,80.000000298023,4|0,0:0|0:0,0:0:0:0:
298,239,13049,2,0,P|325:196|325:157,1,80.000000298023,4|0,0:0|0:0,0:0:0:0:
258,85,13388,2,0,P|232:126|232:169,1,80.000000298023,4|0,0:0|0:0,0:0:0:0:
298,239,13727,2,0,P|325:196|325:157,1,80.000000298023,4|0,0:0|0:0,0:0:0:0:
247,109,14066,6,0,L|161:130,1,80.000000298023,4|0,0:0|0:0,0:0:0:0:
95,172,14405,2,0,P|84:227|104:263,1,80.000000298023
216,304,14744,1,4,0:0:0:0:
216,304,14913,1,0,0:0:0:0:
320,216,15083,1,0,0:0:0:0:
320,216,15252,1,0,0:0:0:0:
192,154,15422,5,4,0:0:0:0:
290,274,15591,1,4,0:0:0:0:
375,220,16608,6,0,B|325:165|357:125|298:75,1,160.000000596046
216,55,17117,2,0,P|161:48|113:63,1,80.000000298023
56,136,17456,1,0,0:0:0:0:
56,136,17625,1,0,0:0:0:0:
200,200,17795,1,0,0:0:0:0:
200,200,17964,1,0,0:0:0:0:
160,48,18134,5,4,0:0:0:0:
105,228,18303,1,4,0:0:0:0:
171,303,19320,6,0,B|235:225|235:270|287:193,1,160.000000596046
351,126,19829,2,0,P|320:68|281:60,1,80.000000298023
174,48,20168,1,0,0:0:0:0:
174,48,20337,1,0,0:0:0:0:
145,182,20507,1,0,0:0:0:0:
145,182,20676,1,0,0:0:0:0:
264,172,20846,6,0,P|280:124|264:84,1,80.000000298023
207,57,21185,2,0,P|144:58|120:82,1,80.000000298023
116,160,21524,2,0,P|176:163|208:180,1,80.000000298023
201,260,21863,2,0,P|228:295|270:313,1,80.000000298023
374,256,22201,6,0,P|387:204|372:163,1,80.000000298023,4|0,0:0|0:0,0:0:0:0:
268,112,22540,2,0,P|232:154|232:188,1,80.000000298023
239,285,22879,1,0,0:0:0:0:
239,285,23049,1,0,0:0:0:0:
324,228,23218,1,0,0:0:0:0:
324,228,23388,1,0,0:0:0:0:
333,134,23557,6,0,P|282:104|233:103,1,80.000000298023,4|0,0:0|0:0,0:0:0:0:
142,105,23896,1,0,0:0:0:0:
142,105,24066,2,0,B|116:180|163:185|121:275,1,160.000000596046,4|0,0:0|0:0,0:0:0:0:
149,322,24574,2,4,P|186:351|219:349,1,80.000000298023
256,192,25083,12,0,25930,0:0:0:0:
376,130,26269,6,0,P|344:78|299:64,1,80.000000298023,4|0,0:0|0:0,0:0:0:0:
246,57,26608,2,0,L|161:75,1,80.000000298023
87,135,26947,2,0,P|92:195|115:223,1,80.000000298023
207,196,27286,2,0,P|256:175|295:176,1,80.000000298023
402,199,27625,6,0,L|367:284,1,80.000000298023,4|0,0:0|0:0,0:0:0:0:
283,324,27964,2,0,P|224:308|195:279,1,80.000000298023
184,184,28303,1,0,0:0:0:0:
184,184,28473,1,0,0:0:0:0:
268,96,28642,1,0,0:0:0:0:
268,96,28812,1,0,0:0:0:0:
370,126,28981,6,0,P|372:185|352:222,1,80.000000298023,4|0,0:0|0:0,0:0:0:0:
330,282,29320,2,0,P|277:303|239:298,1,80.000000298023
184,212,29659,1,0,0:0:0:0:
184,212,29829,1,0,0:0:0:0:
212,100,29998,1,0,0:0:0:0:
212,100,30168,1,0,0:0:0:0:
288,20,30337,6,0,P|334:35|366:64,1,80.000000298023,4|0,0:0|0:0,0:0:0:0:
413,150,30676,2,0,P|406:214|387:243,1,80.000000298023,4|0,0:0|0:0,0:0:0:0:
284,280,31015,1,4,0:0:0:0:
284,280,31185,1,0,0:0:0:0:
168,220,31354,1,4,0:0:0:0:
168,220,31524,1,0,0:0:0:0:
118,103,31693,6,0,P|169:81|227:79,1,80.000000298023,4|0,0:0|0:0,0:0:0:0:
201,166,32032,2,0,P|255:169|298:161,1,80.000000298023
291,80,32371,2,0,P|340:111|358:145,1,80.000000298023
275,182,32710,2,0,P|286:229|316:265,1,80.000000298023
327,331,33049,6,0,P|270:365|233:361,1,80.000000298023,4|0,0:0|0:0,0:0:0:0:
179,315,33388,2,0,P|138:275|120:240,1,80.000000298023
180,116,33727,1,0,0:0:0:0:
180,116,33896,1,0,0:0:0:0:
288,52,34066,1,0,0:0:0:0:
288,52,34235,1,0,0:0:0:0:
413,68,34405,5,4,0:0:0:0:
413,68,34574,2,0,P|417:140|398:179,2,80.000000298023
327,185,35252,1,4,0:0:0:0:
327,185,35422,2,0,P|253:203|218:200,1,80.000000298023,0|4,0:0|0:0,0:0:0:0:
227,47,35930,5,0,0:0:0:0:
227,47,36100,2,0,P|275:56|334:92,1,80.000000298023
314,116,36439,2,0,P|247:130|191:157,1,100.000000372529
195,184,36778,2,0,P|266:196|329:229,1,120.000005024671
393,284,37117,6,0,B|302:349|270:248|163:296,1,240.000000894069,4|0,0:0|0:0,0:0:0:0:
72,331,37795,1,0,0:0:0:0:
72,331,38134,1,0,0:0:0:0:
69,119,38473,6,0,B|167:55|218:143|329:66,1,240.000000894069,4|0,0:0|0:0,0:0:0:0:
395,48,39151,1,0,0:0:0:0:
500,134,39320,1,4,0:0:0:0:
500,134,39490,1,4,0:0:0:0:
425,243,39829,6,0,P|372:269|326:268,1,80.000000298023,4|0,0:0|0:0,0:0:0:0:
269,216,40168,1,0,0:0:0:0:
269,216,40338,1,0,0:0:0:0:
311,117,40507,6,0,P|358:90|396:91,1,80.000000298023,4|0,0:0|0:0,0:0:0:0:
489,140,40846,1,0,0:0:0:0:
489,140,41016,1,0,0:0:0:0:
446,257,41185,1,4,0:0:0:0:
358,310,41524,6,0,P|261:337|182:321,1,160.000000596046,4|0,0:0|0:0,0:0:0:0:
121,265,42201,1,0,0:0:0:0:
121,265,42371,6,0,B|156:207|228:216|266:142,1,160.000000596046,4|0,0:0|0:0,0:0:0:0:
316,99,42879,2,0,P|341:61|387:39,1,80.000000298023,4|0,0:0|0:0,0:0:0:0:
438,106,43218,2,0,P|412:148|379:171,1,80.000000298023
307,194,43557,2,0,B|278:210|249:184|208:203,1,80.000000298023
129,210,43896,6,0,P|100:274|119:300,1,80.000000298023,4|0,0:0|0:0,0:0:0:0:
181,333,44235,2,0,P|239:324|268:299,1,80.000000298023
327,259,44574,2,0,P|352:214|355:171,1,80.000000298023,4|0,0:0|0:0,0:0:0:0:
352,103,44913,2,0,P|306:59|258:48,1,80.000000298023
199,173,45252,1,0,0:0:0:0:
199,173,45422,5,0,0:0:0:0:
119,34,45591,1,4,0:0:0:0:
112,240,45930,5,0,0:0:0:0:
112,240,46100,1,0,0:0:0:0:
197,87,46269,1,4,0:0:0:0:
260,317,46608,2,0,B|339:284|393:186|400:40,1,320.000001192092,4|0,0:0|0:0,0:0:0:0:
254,43,47794,5,0,0:0:0:0:
254,43,47964,2,0,P|194:52|164:70,1,80.000000298023
112,119,48303,2,0,P|108:171|123:206,1,80.000000298023
167,289,48642,2,0,P|216:295|224:244,2,80.000000298023
238,99,49320,5,4,0:0:0:0:
375,194,49659,1,4,0:0:0:0:
281,328,49998,2,0,L|300:370,4,40.0000001490115
160,275,50507,6,0,P|101:208|76:125,1,160.000000596046,4|0,0:0|0:0,0:0:0:0:
117,50,51015,2,0,P|177:23|211:28,1,80.000000298023,4|0,0:0|0:0,0:0:0:0:
292,57,51354,1,4,0:0:0:0:
243,184,51524,1,0,0:0:0:0:
243,184,51693,1,0,0:0:0:0:
243,184,51863,6,0,P|284:262|380:297,1,160.000000596046,4|0,0:0|0:0,0:0:0:0:
435,253,52371,2,0,P|450:197|441:159,1,80.000000298023,4|0,0:0|0:0,0:0:0:0:
377,84,52710,1,4,0:0:0:0:
336,205,52879,1,0,0:0:0:0:
336,205,53049,1,0,0:0:0:0:
336,205,53218,6,0,B|289:260|232:222|172:297,1,160.000000596046,4|0,0:0|0:0,0:0:0:0:
115,309,53727,2,0,P|56:284|50:242,1,80.000000298023,4|0,0:0|0:0,0:0:0:0:
76,157,54066,6,0,P|65:134|59:106,3,47.9999987139701,4|0|0|0,0:0|0:0|0:0|0:0,0:0:0:0:
150,275,54744,1,4,0:0:0:0:
225,148,54913,2,0,L|247:104,2,40.0000001490115
268,292,55252,2,0,P|367:267|404:228,1,120.000000447034
380,216,55591,2,0,P|315:231|238:207,1,120.000000447034
250,177,55930,6,0,B|311:117|332:155|383:89,1,160.000000596046
295,29,56439,2,0,P|237:28|195:40,1,80.000000298023
144,80,56778,2,0,P|112:121|104:160,1,80.000000298023
108,247,57117,2,0,P|158:290|195:298,1,80.000000298023
266,304,57456,2,0,B|339:307|338:246|419:224,1,160.000000596046,4|0,0:0|0:0,0:0:0:0:
426,103,58134,6,0,P|447:84|449:57,3,47.9999987139701
345,143,58812,2,0,P|290:174|244:168,1,80.000000298023,4|0,0:0|0:0,0:0:0:0:
243,92,59151,2,0,P|184:90|140:109,1,80.000000298023
76,171,59490,2,0,P|80:205|106:247,2,80.000000298023
143,65,59998,6,0,P|246:44|317:52,1,160.000000596046,4|0,0:0|0:0,0:0:0:0:
400,84,60507,2,0,P|426:137|430:171,1,80.000000298023
409,283,60846,6,0,L|437:316,4,40.0000001490115
301,255,61354,2,0,P|207:268|133:248,1,160.000000596046,4|0,0:0|0:0,0:0:0:0:
75,174,61863,2,0,P|113:117|151:100,1,80.000000298023,4|0,0:0|0:0,0:0:0:0:
239,182,62201,1,4,0:0:0:0:
288,56,62371,1,0,0:0:0:0:
288,56,62540,1,0,0:0:0:0:
288,56,62710,6,0,P|371:92|414:172,1,160.000000596046,4|0,0:0|0:0,0:0:0:0:
410,252,63218,2,0,P|393:312|351:328,1,80.000000298023,4|0,0:0|0:0,0:0:0:0:
276,340,63557,1,4,0:0:0:0:
212,207,63727,1,0,0:0:0:0:
212,207,63896,1,0,0:0:0:0:
212,207,64066,6,0,B|258:150|300:159|345:116,1,160.000000596046,4|0,0:0|0:0,0:0:0:0:
431,110,64574,2,0,P|469:169|465:206,1,80.000000298023,4|0,0:0|0:0,0:0:0:0:
412,293,64913,1,4,0:0:0:0:
412,293,65083,1,0,0:0:0:0:
281,318,65252,1,4,0:0:0:0:
281,318,65422,1,0,0:0:0:0:
191,185,65591,5,4,0:0:0:0:
138,327,65761,2,0,L|103:357,2,40.0000001490115
268,241,66100,2,0,P|340:207|370:167,1,120.000000447034,4|0,0:0|0:0,0:0:0:0:
364,138,66439,2,0,P|289:168|225:165,1,120.000000447034,4|0,0:0|0:0,0:0:0:0:
242,129,66778,6,0,P|296:114|354:26,1,160.000000596046,4|0,0:0|0:0,0:0:0:0:
230,15,67286,2,0,P|172:29|132:52,1,80.000000298023
64,131,67625,1,0,0:0:0:0:
64,131,67795,1,0,0:0:0:0:
92,251,67964,1,0,0:0:0:0:
92,251,68134,1,0,0:0:0:0:
210,304,68303,2,0,B|288:310|297:246|384:234,1,160.000000596046,4|0,0:0|0:0,0:0:0:0:
428,121,68981,5,0,0:0:0:0:
428,121,69151,1,0,0:0:0:0:
330,33,69320,1,0,0:0:0:0:
330,33,69490,6,0,B|255:40|251:88|172:90,1,160.000000596046,4|0,0:0|0:0,0:0:0:0:
100,126,69998,2,0,P|70:177|75:219,1,80.000000298023
123,283,70337,1,0,0:0:0:0:
192,180,70507,1,0,0:0:0:0:
192,180,70676,5,0,0:0:0:0:
238,289,70846,2,0,P|333:269|386:194,1,160.000000596046,4|0,0:0|0:0,0:0:0:0:
412,138,71354,2,0,P|379:89|352:71,1,80.000000298023
283,161,71693,1,0,0:0:0:0:
222,51,71863,1,0,0:0:0:0:
170,161,72032,1,0,0:0:0:0:
219,329,72371,5,4,0:0:0:0:
455,228,73388,1,4,0:0:0:0:
410,336,73557,1,4,0:0:0:0:
255,336,73897,5,0,0:0:0:0:
255,336,74066,2,0,P|181:324|160:303,1,80.000000298023
110,259,74405,2,0,P|90:199|107:151,1,80.000000298023
198,87,74744,6,0,B|271:131|272:203|347:246,1,200.000000745057
420,65,75422,6,0,P|370:46|300:53,1,120.000000447034
301,98,75761,2,0,B|262:133|192:140|146:114,1,160.000000596046
33,106,76439,5,0,0:0:0:0:
105,237,76778,1,0,0:0:0:0:
105,237,76947,1,0,0:0:0:0:
193,79,77286,5,0,0:0:0:0:
193,79,77625,1,0,0:0:0:0:
371,42,78134,6,0,P|416:115|412:178,1,120.000000447034
395,201,78473,2,0,B|365:264|304:245|267:311,1,160.000000596046
119,252,79151,6,0,L|139:295,3,40.0000001490115,4|0|0|0,0:0|0:0|0:0|0:0,0:0:0:0:
187,169,79490,2,0,L|182:227,3,40.0000001490115,4|0|0|0,0:0|0:0|0:0|0:0,0:0:0:0:
281,139,79829,2,0,L|246:189,3,40.0000001490115,4|0|0|0,0:0|0:0|0:0|0:0,0:0:0:0:
360,142,80168,2,0,P|391:125|393:90,3,40.0000001490115,4|0|0|0,0:0|0:0|0:0|0:0,0:0:0:0:
379,32,80507,6,0,P|315:30|269:48,1,80.000000298023,4|0,0:0|0:0,0:0:0:0:
218,53,80846,2,0,P|148:81|122:104,1,80.000000298023,4|0,0:0|0:0,0:0:0:0:
73,172,81185,1,4,0:0:0:0:
73,172,81354,1,0,0:0:0:0:
128,273,81524,1,4,0:0:0:0:
128,273,81693,1,0,0:0:0:0:
232,321,81863,6,0,P|301:325|326:316,1,80.000000298023,4|0,0:0|0:0,0:0:0:0:
366,264,82201,2,0,L|401:179,1,80.000000298023,4|0,0:0|0:0,0:0:0:0:
408,103,82540,2,0,P|373:52|332:39,1,80.000000298023,4|0,0:0|0:0,0:0:0:0:
287,94,82879,2,0,P|308:139|347:159,1,80.000000298023,4|0,0:0|0:0,0:0:0:0:
408,103,83218,6,0,P|373:52|332:39,1,80.000000298023,4|0,0:0|0:0,0:0:0:0:
269,38,83557,2,0,P|196:48|165:61,1,80.000000298023,4|0,0:0|0:0,0:0:0:0:
118,108,83896,2,0,P|98:166|95:207,1,80.000000298023,4|0,0:0|0:0,0:0:0:0:
136,267,84235,2,0,P|178:308|215:316,1,80.000000298023,4|0,0:0|0:0,0:0:0:0:
310,319,84574,5,4,0:0:0:0:
300,176,84744,2,0,L|264:144,2,40.0000001490115
425,201,85083,1,4,0:0:0:0:
364,328,85422,1,4,0:0:0:0:
252,192,85761,1,4,0:0:0:0:
