osu file format v14

[General]
AudioFilename: audio.mp3
AudioLeadIn: 0
PreviewTime: 156066
Countdown: 0
SampleSet: Soft
StackLeniency: 0.7
Mode: 3
LetterboxInBreaks: 0
SpecialStyle: 0
WidescreenStoryboard: 0

[Editor]
Bookmarks: 16236,32507,48778,65049,81321,105727,121998,139795,156066,172337,188609
DistanceSpacing: 1.2
BeatDivisor: 8
GridSize: 4
TimelineZoom: 1

[Metadata]
Title:Without You
TitleUnicode:Without You
Artist:Pure Gem
ArtistUnicode:Pure Gem
Creator:Percyqaz
Version:Hajimemashite
Source:
Tags:
BeatmapID:1858346
BeatmapSetID:889114

[Difficulty]
HPDrainRate:8
CircleSize:4
OverallDifficulty:8
ApproachRate:5
SliderMultiplier:1.4
SliderTickRate:1

[Events]
//Background and Video events
0,0,"64952352_p0_master1200.jpg",0,0
//Break Periods
//Storyboard Layer 0 (Background)
//Storyboard Layer 1 (Fail)
//Storyboard Layer 2 (Pass)
//Storyboard Layer 3 (Foreground)
//Storyboard Sound Samples

[TimingPoints]
2009,508.474576271186,4,2,0,5,1,0
139805,508.474576271186,4,2,0,5,1,0

[HitObjects]
64,192,15229,5,0,0:0:0:0:
320,192,15229,1,0,0:0:0:0:
320,192,15356,1,0,0:0:0:0:
64,192,15356,1,0,0:0:0:0:
192,192,15483,1,0,0:0:0:0:
448,192,15483,1,0,0:0:0:0:
320,192,15610,1,0,0:0:0:0:
448,192,15737,1,0,0:0:0:0:
192,192,15737,1,0,0:0:0:0:
64,192,15737,1,0,0:0:0:0:
320,192,15992,1,0,0:0:0:0:
448,192,15992,1,0,0:0:0:0:
64,192,16161,1,0,0:0:0:0:
192,192,16161,1,0,0:0:0:0:
192,192,16246,1,0,0:0:0:0:
448,192,16246,1,0,0:0:0:0:
320,192,16373,1,0,0:0:0:0:
64,192,16373,1,0,0:0:0:0:
320,192,16500,1,0,0:0:0:0:
192,192,16627,1,0,0:0:0:0:
64,192,16627,1,0,0:0:0:0:
64,192,16754,1,0,0:0:0:0:
320,192,16754,1,0,0:0:0:0:
448,192,16754,1,0,0:0:0:0:
192,192,16881,1,0,0:0:0:0:
64,192,17008,1,0,0:0:0:0:
448,192,17008,1,0,0:0:0:0:
448,192,17136,1,0,0:0:0:0:
192,192,17263,1,0,0:0:0:0:
320,192,17263,1,0,0:0:0:0:
448,192,17390,1,0,0:0:0:0:
448,192,17517,1,0,0:0:0:0:
448,192,17644,1,0,0:0:0:0:
320,192,17771,1,0,0:0:0:0:
64,192,17771,1,0,0:0:0:0:
192,192,17771,1,0,0:0:0:0:
192,192,17898,1,0,0:0:0:0:
448,192,17898,1,0,0:0:0:0:
64,192,18025,1,0,0:0:0:0:
320,192,18025,1,0,0:0:0:0:
192,192,18153,1,0,0:0:0:0:
192,192,18280,1,0,0:0:0:0:
448,192,18280,1,0,0:0:0:0:
64,192,18407,1,0,0:0:0:0:
320,192,18407,1,0,0:0:0:0:
320,192,18534,1,0,0:0:0:0:
192,192,18661,1,0,0:0:0:0:
64,192,18661,1,0,0:0:0:0:
64,192,18788,1,0,0:0:0:0:
320,192,18788,1,0,0:0:0:0:
448,192,18788,1,0,0:0:0:0:
320,192,18915,1,0,0:0:0:0:
192,192,19042,1,0,0:0:0:0:
448,192,19042,1,0,0:0:0:0:
192,192,19170,1,0,0:0:0:0:
64,192,19297,1,0,0:0:0:0:
320,192,19297,1,0,0:0:0:0:
192,192,19424,1,0,0:0:0:0:
192,192,19551,1,0,0:0:0:0:
192,192,19678,1,0,0:0:0:0:
64,192,19805,1,0,0:0:0:0:
320,192,19805,1,0,0:0:0:0:
448,192,19805,1,0,0:0:0:0:
192,192,19932,1,0,0:0:0:0:
448,192,19932,1,0,0:0:0:0:
320,192,20059,1,0,0:0:0:0:
64,192,20059,1,0,0:0:0:0:
192,192,20186,1,0,0:0:0:0:
192,192,20314,1,0,0:0:0:0:
448,192,20314,1,0,0:0:0:0:
320,192,20441,1,0,0:0:0:0:
320,192,20568,1,0,0:0:0:0:
64,192,20568,1,0,0:0:0:0:
320,192,20695,1,0,0:0:0:0:
448,192,20822,1,0,0:0:0:0:
192,192,20822,1,0,0:0:0:0:
64,192,20822,1,0,0:0:0:0:
192,192,20949,1,0,0:0:0:0:
320,192,20949,1,0,0:0:0:0:
448,192,21076,1,0,0:0:0:0:
64,192,21076,1,0,0:0:0:0:
192,192,21203,1,0,0:0:0:0:
320,192,21203,1,0,0:0:0:0:
320,192,21331,1,0,0:0:0:0:
448,192,21331,1,0,0:0:0:0:
192,192,21458,128,0,21585:0:0:0:0:
64,192,21458,128,0,21585:0:0:0:0:
320,192,21585,1,0,0:0:0:0:
448,192,21712,1,0,0:0:0:0:
192,192,21712,1,0,0:0:0:0:
64,192,21839,1,0,0:0:0:0:
320,192,21839,1,0,0:0:0:0:
448,192,21839,1,0,0:0:0:0:
192,192,21966,1,0,0:0:0:0:
64,192,22093,1,0,0:0:0:0:
448,192,22093,1,0,0:0:0:0:
448,192,22220,1,0,0:0:0:0:
64,192,22220,1,0,0:0:0:0:
192,192,22347,1,0,0:0:0:0:
64,192,22347,1,0,0:0:0:0:
320,192,22475,1,0,0:0:0:0:
320,192,22602,1,0,0:0:0:0:
448,192,22602,1,0,0:0:0:0:
192,192,22729,1,0,0:0:0:0:
64,192,22729,1,0,0:0:0:0:
64,192,22856,1,0,0:0:0:0:
320,192,22856,1,0,0:0:0:0:
448,192,22856,1,0,0:0:0:0:
192,192,22983,1,0,0:0:0:0:
64,192,23110,1,0,0:0:0:0:
448,192,23110,1,0,0:0:0:0:
192,192,23237,1,0,0:0:0:0:
64,192,23364,1,0,0:0:0:0:
192,192,23364,1,0,0:0:0:0:
320,192,23492,128,0,23619:0:0:0:0:
448,192,23492,128,0,23619:0:0:0:0:
192,192,23619,1,0,0:0:0:0:
320,192,23746,1,0,0:0:0:0:
448,192,23873,1,0,0:0:0:0:
320,192,23873,1,0,0:0:0:0:
64,192,23873,1,0,0:0:0:0:
192,192,24000,1,0,0:0:0:0:
192,192,24127,1,0,0:0:0:0:
192,192,24254,1,0,0:0:0:0:
64,192,24381,1,0,0:0:0:0:
448,192,24381,1,0,0:0:0:0:
320,192,24508,1,0,0:0:0:0:
192,192,24508,1,0,0:0:0:0:
320,192,24636,1,0,0:0:0:0:
192,192,24763,1,0,0:0:0:0:
64,192,24763,1,0,0:0:0:0:
64,192,24890,1,0,0:0:0:0:
320,192,24890,1,0,0:0:0:0:
448,192,24890,1,0,0:0:0:0:
192,192,25017,1,0,0:0:0:0:
64,192,25144,1,0,0:0:0:0:
448,192,25144,1,0,0:0:0:0:
448,192,25271,1,0,0:0:0:0:
192,192,25398,1,0,0:0:0:0:
320,192,25398,1,0,0:0:0:0:
448,192,25525,1,0,0:0:0:0:
448,192,25653,1,0,0:0:0:0:
448,192,25780,1,0,0:0:0:0:
320,192,25907,1,0,0:0:0:0:
64,192,25907,1,0,0:0:0:0:
192,192,25907,1,0,0:0:0:0:
192,192,26034,1,0,0:0:0:0:
448,192,26034,1,0,0:0:0:0:
64,192,26161,1,0,0:0:0:0:
320,192,26161,1,0,0:0:0:0:
192,192,26288,1,0,0:0:0:0:
192,192,26415,1,0,0:0:0:0:
448,192,26415,1,0,0:0:0:0:
64,192,26542,1,0,0:0:0:0:
320,192,26542,1,0,0:0:0:0:
320,192,26670,1,0,0:0:0:0:
192,192,26797,1,0,0:0:0:0:
64,192,26797,1,0,0:0:0:0:
64,192,26924,1,0,0:0:0:0:
320,192,26924,1,0,0:0:0:0:
448,192,26924,1,0,0:0:0:0:
320,192,27051,1,0,0:0:0:0:
192,192,27178,1,0,0:0:0:0:
448,192,27178,1,0,0:0:0:0:
192,192,27305,1,0,0:0:0:0:
64,192,27432,1,0,0:0:0:0:
320,192,27432,1,0,0:0:0:0:
192,192,27559,1,0,0:0:0:0:
192,192,27686,1,0,0:0:0:0:
192,192,27814,1,0,0:0:0:0:
64,192,27941,1,0,0:0:0:0:
320,192,27941,1,0,0:0:0:0:
448,192,27941,1,0,0:0:0:0:
192,192,28068,1,0,0:0:0:0:
448,192,28068,1,0,0:0:0:0:
320,192,28195,1,0,0:0:0:0:
64,192,28195,1,0,0:0:0:0:
192,192,28322,1,0,0:0:0:0:
192,192,28449,1,0,0:0:0:0:
448,192,28449,1,0,0:0:0:0:
320,192,28576,1,0,0:0:0:0:
320,192,28703,1,0,0:0:0:0:
64,192,28703,1,0,0:0:0:0:
320,192,28831,1,0,0:0:0:0:
448,192,28958,1,0,0:0:0:0:
192,192,28958,1,0,0:0:0:0:
64,192,28958,1,0,0:0:0:0:
192,192,29085,1,0,0:0:0:0:
320,192,29085,1,0,0:0:0:0:
448,192,29212,1,0,0:0:0:0:
64,192,29212,1,0,0:0:0:0:
192,192,29339,1,0,0:0:0:0:
320,192,29339,1,0,0:0:0:0:
320,192,29466,1,0,0:0:0:0:
448,192,29466,1,0,0:0:0:0:
192,192,29593,128,0,29720:0:0:0:0:
64,192,29593,128,0,29720:0:0:0:0:
320,192,29720,1,0,0:0:0:0:
448,192,29847,1,0,0:0:0:0:
192,192,29847,1,0,0:0:0:0:
64,192,29975,1,0,0:0:0:0:
320,192,29975,1,0,0:0:0:0:
448,192,29975,1,0,0:0:0:0:
192,192,30102,1,0,0:0:0:0:
64,192,30229,1,0,0:0:0:0:
448,192,30229,1,0,0:0:0:0:
448,192,30356,1,0,0:0:0:0:
64,192,30356,1,0,0:0:0:0:
192,192,30483,1,0,0:0:0:0:
64,192,30483,1,0,0:0:0:0:
320,192,30610,1,0,0:0:0:0:
320,192,30737,1,0,0:0:0:0:
448,192,30737,1,0,0:0:0:0:
192,192,30864,1,0,0:0:0:0:
64,192,30864,1,0,0:0:0:0:
64,192,30992,1,0,0:0:0:0:
320,192,30992,1,0,0:0:0:0:
448,192,30992,1,0,0:0:0:0:
192,192,31119,1,0,0:0:0:0:
64,192,31246,1,0,0:0:0:0:
448,192,31246,1,0,0:0:0:0:
192,192,31373,1,0,0:0:0:0:
64,192,31500,1,0,0:0:0:0:
192,192,31500,1,0,0:0:0:0:
320,192,31627,128,0,31754:0:0:0:0:
448,192,31627,128,0,31754:0:0:0:0:
192,192,31754,1,0,0:0:0:0:
320,192,31881,1,0,0:0:0:0:
448,192,32008,1,0,0:0:0:0:
64,192,32008,1,0,0:0:0:0:
320,192,32072,1,0,0:0:0:0:
192,192,32136,1,0,0:0:0:0:
192,192,32263,1,0,0:0:0:0:
192,192,32390,1,0,0:0:0:0:
320,192,32517,1,0,0:0:0:0:
448,192,32517,1,0,0:0:0:0:
192,192,32644,1,0,0:0:0:0:
64,192,32771,1,0,0:0:0:0:
320,192,32771,1,0,0:0:0:0:
192,192,32898,1,0,0:0:0:0:
64,192,32898,1,0,0:0:0:0:
320,192,33025,1,0,0:0:0:0:
448,192,33025,1,0,0:0:0:0:
64,192,33280,1,0,0:0:0:0:
320,192,33280,1,0,0:0:0:0:
192,192,33407,1,0,0:0:0:0:
448,192,33407,128,0,33788:0:0:0:0:
64,192,33534,1,0,0:0:0:0:
192,192,33534,1,0,0:0:0:0:
320,192,33661,1,0,0:0:0:0:
320,192,33788,1,0,0:0:0:0:
320,192,33915,1,0,0:0:0:0:
192,192,34042,1,0,0:0:0:0:
64,192,34042,1,0,0:0:0:0:
320,192,34170,1,0,0:0:0:0:
192,192,34297,1,0,0:0:0:0:
64,192,34297,1,0,0:0:0:0:
320,192,34551,1,0,0:0:0:0:
448,192,34551,1,0,0:0:0:0:
320,192,34678,1,0,0:0:0:0:
320,192,34805,1,0,0:0:0:0:
192,192,34932,1,0,0:0:0:0:
448,192,34932,128,0,35314:0:0:0:0:
192,192,35059,1,0,0:0:0:0:
64,192,35059,1,0,0:0:0:0:
320,192,35186,1,0,0:0:0:0:
320,192,35314,1,0,0:0:0:0:
64,192,35314,1,0,0:0:0:0:
192,192,35441,1,0,0:0:0:0:
64,192,35568,1,0,0:0:0:0:
320,192,35568,1,0,0:0:0:0:
192,192,35695,1,0,0:0:0:0:
448,192,35695,1,0,0:0:0:0:
192,192,35822,1,0,0:0:0:0:
192,192,35949,1,0,0:0:0:0:
64,192,36076,1,0,0:0:0:0:
448,192,36076,1,0,0:0:0:0:
320,192,36140,1,0,0:0:0:0:
192,192,36203,1,0,0:0:0:0:
64,192,36267,1,0,0:0:0:0:
448,192,36331,1,0,0:0:0:0:
320,192,36331,1,0,0:0:0:0:
192,192,36394,1,0,0:0:0:0:
448,192,36458,1,0,0:0:0:0:
320,192,36500,1,0,0:0:0:0:
64,192,36500,1,0,0:0:0:0:
192,192,36585,1,0,0:0:0:0:
64,192,36585,1,0,0:0:0:0:
320,192,36712,1,0,0:0:0:0:
448,192,36712,1,0,0:0:0:0:
320,192,36839,1,0,0:0:0:0:
64,192,36839,1,0,0:0:0:0:
192,192,36966,1,0,0:0:0:0:
448,192,36966,1,0,0:0:0:0:
64,192,37093,1,0,0:0:0:0:
192,192,37093,1,0,0:0:0:0:
320,192,37093,1,0,0:0:0:0:
320,192,37220,1,0,0:0:0:0:
448,192,37220,1,0,0:0:0:0:
192,192,37347,1,0,0:0:0:0:
64,192,37347,1,0,0:0:0:0:
320,192,37475,1,0,0:0:0:0:
448,192,37475,1,0,0:0:0:0:
448,192,37602,1,0,0:0:0:0:
192,192,37602,1,0,0:0:0:0:
320,192,37729,1,0,0:0:0:0:
64,192,37729,1,0,0:0:0:0:
192,192,37856,1,0,0:0:0:0:
64,192,37983,1,0,0:0:0:0:
64,192,38110,1,0,0:0:0:0:
320,192,38110,1,0,0:0:0:0:
448,192,38110,1,0,0:0:0:0:
192,192,38237,1,0,0:0:0:0:
448,192,38364,1,0,0:0:0:0:
320,192,38364,1,0,0:0:0:0:
320,192,38492,1,0,0:0:0:0:
192,192,38619,1,0,0:0:0:0:
64,192,38619,1,0,0:0:0:0:
320,192,38746,1,0,0:0:0:0:
320,192,38873,1,0,0:0:0:0:
64,192,38873,1,0,0:0:0:0:
320,192,39000,1,0,0:0:0:0:
448,192,39000,1,0,0:0:0:0:
192,192,39127,1,0,0:0:0:0:
448,192,39127,1,0,0:0:0:0:
64,192,39127,1,0,0:0:0:0:
64,192,39254,1,0,0:0:0:0:
320,192,39254,1,0,0:0:0:0:
192,192,39381,1,0,0:0:0:0:
448,192,39381,1,0,0:0:0:0:
320,192,39508,1,0,0:0:0:0:
320,192,39636,1,0,0:0:0:0:
448,192,39636,1,0,0:0:0:0:
192,192,39763,1,0,0:0:0:0:
64,192,39763,1,0,0:0:0:0:
320,192,39890,1,0,0:0:0:0:
64,192,39890,1,0,0:0:0:0:
192,192,40017,1,0,0:0:0:0:
448,192,40017,1,0,0:0:0:0:
320,192,40144,1,0,0:0:0:0:
448,192,40144,1,0,0:0:0:0:
64,192,40144,1,0,0:0:0:0:
192,192,40271,1,0,0:0:0:0:
192,192,40398,1,0,0:0:0:0:
192,192,40525,1,0,0:0:0:0:
320,192,40653,1,0,0:0:0:0:
448,192,40653,1,0,0:0:0:0:
320,192,40780,1,0,0:0:0:0:
320,192,40907,1,0,0:0:0:0:
64,192,40907,1,0,0:0:0:0:
64,192,41034,1,0,0:0:0:0:
192,192,41034,1,0,0:0:0:0:
320,192,41161,1,0,0:0:0:0:
192,192,41161,1,0,0:0:0:0:
448,192,41161,1,0,0:0:0:0:
64,192,41288,1,0,0:0:0:0:
64,192,41415,1,0,0:0:0:0:
320,192,41415,1,0,0:0:0:0:
320,192,41542,1,0,0:0:0:0:
192,192,41542,1,0,0:0:0:0:
64,192,41670,1,0,0:0:0:0:
192,192,41670,1,0,0:0:0:0:
448,192,41670,1,0,0:0:0:0:
320,192,41797,1,0,0:0:0:0:
320,192,41924,1,0,0:0:0:0:
320,192,42051,1,0,0:0:0:0:
192,192,42178,1,0,0:0:0:0:
64,192,42178,1,0,0:0:0:0:
448,192,42178,1,0,0:0:0:0:
320,192,42305,1,0,0:0:0:0:
192,192,42432,1,0,0:0:0:0:
448,192,42432,1,0,0:0:0:0:
64,192,42559,1,0,0:0:0:0:
320,192,42686,1,0,0:0:0:0:
64,192,42686,1,0,0:0:0:0:
320,192,42814,1,0,0:0:0:0:
320,192,42941,1,0,0:0:0:0:
192,192,43068,1,0,0:0:0:0:
448,192,43068,1,0,0:0:0:0:
192,192,43195,1,0,0:0:0:0:
64,192,43195,1,0,0:0:0:0:
320,192,43195,1,0,0:0:0:0:
448,192,43322,1,0,0:0:0:0:
192,192,43449,1,0,0:0:0:0:
192,192,43576,1,0,0:0:0:0:
64,192,43703,1,0,0:0:0:0:
320,192,43703,1,0,0:0:0:0:
192,192,43831,1,0,0:0:0:0:
448,192,43831,1,0,0:0:0:0:
192,192,43958,1,0,0:0:0:0:
320,192,43958,1,0,0:0:0:0:
192,192,44085,1,0,0:0:0:0:
64,192,44212,1,0,0:0:0:0:
448,192,44212,1,0,0:0:0:0:
320,192,44212,1,0,0:0:0:0:
192,192,44275,1,0,0:0:0:0:
64,192,44339,1,0,0:0:0:0:
320,192,44403,1,0,0:0:0:0:
192,192,44466,1,0,0:0:0:0:
448,192,44530,1,0,0:0:0:0:
320,192,44593,1,0,0:0:0:0:
448,192,44657,1,0,0:0:0:0:
192,192,44720,1,0,0:0:0:0:
64,192,44720,1,0,0:0:0:0:
320,192,44847,1,0,0:0:0:0:
448,192,44847,1,0,0:0:0:0:
320,192,44975,1,0,0:0:0:0:
64,192,44975,1,0,0:0:0:0:
192,192,45102,1,0,0:0:0:0:
448,192,45102,1,0,0:0:0:0:
64,192,45229,1,0,0:0:0:0:
192,192,45229,1,0,0:0:0:0:
320,192,45229,1,0,0:0:0:0:
320,192,45356,1,0,0:0:0:0:
448,192,45356,1,0,0:0:0:0:
192,192,45483,1,0,0:0:0:0:
64,192,45483,1,0,0:0:0:0:
320,192,45610,1,0,0:0:0:0:
448,192,45610,1,0,0:0:0:0:
448,192,45737,1,0,0:0:0:0:
192,192,45737,1,0,0:0:0:0:
320,192,45864,1,0,0:0:0:0:
64,192,45864,1,0,0:0:0:0:
448,192,45992,1,0,0:0:0:0:
192,192,46119,1,0,0:0:0:0:
64,192,46246,1,0,0:0:0:0:
320,192,46246,1,0,0:0:0:0:
448,192,46246,1,0,0:0:0:0:
192,192,46373,1,0,0:0:0:0:
448,192,46500,1,0,0:0:0:0:
320,192,46500,1,0,0:0:0:0:
320,192,46627,1,0,0:0:0:0:
192,192,46754,1,0,0:0:0:0:
64,192,46754,1,0,0:0:0:0:
192,192,46881,1,0,0:0:0:0:
320,192,47008,1,0,0:0:0:0:
320,192,47136,1,0,0:0:0:0:
192,192,47263,1,0,0:0:0:0:
192,192,47390,1,0,0:0:0:0:
320,192,47390,1,0,0:0:0:0:
64,192,47517,1,0,0:0:0:0:
448,192,47517,128,0,47771:0:0:0:0:
320,192,47771,1,0,0:0:0:0:
64,192,47771,1,0,0:0:0:0:
192,192,47898,1,0,0:0:0:0:
448,192,47898,1,0,0:0:0:0:
64,192,48025,1,0,0:0:0:0:
320,192,48153,1,0,0:0:0:0:
64,192,48280,1,0,0:0:0:0:
448,192,48280,1,0,0:0:0:0:
448,192,48407,1,0,0:0:0:0:
64,192,48407,1,0,0:0:0:0:
192,192,48534,1,0,0:0:0:0:
64,192,48597,1,0,0:0:0:0:
320,192,48661,1,0,0:0:0:0:
448,192,48661,1,0,0:0:0:0:
64,192,48788,1,0,0:0:0:0:
192,192,48788,1,0,0:0:0:0:
64,192,48915,128,0,49042:0:0:0:0:
320,192,48915,1,0,0:0:0:0:
320,192,49042,1,0,0:0:0:0:
192,192,49170,1,0,0:0:0:0:
448,192,49170,1,0,0:0:0:0:
64,192,49297,1,0,0:0:0:0:
320,192,49297,1,0,0:0:0:0:
448,192,49297,1,0,0:0:0:0:
192,192,49424,128,0,49551:0:0:0:0:
64,192,49551,1,0,0:0:0:0:
320,192,49551,1,0,0:0:0:0:
192,192,49678,1,0,0:0:0:0:
448,192,49678,1,0,0:0:0:0:
192,192,49805,1,0,0:0:0:0:
64,192,49805,1,0,0:0:0:0:
320,192,49932,128,0,50059:0:0:0:0:
448,192,49932,1,0,0:0:0:0:
448,192,50059,1,0,0:0:0:0:
448,192,50186,1,0,0:0:0:0:
320,192,50314,1,0,0:0:0:0:
192,192,50314,1,0,0:0:0:0:
64,192,50314,1,0,0:0:0:0:
448,192,50441,128,0,50568:0:0:0:0:
320,192,50568,128,0,51076:0:0:0:0:
64,192,50568,1,0,0:0:0:0:
192,192,50695,1,0,0:0:0:0:
64,192,50822,1,0,0:0:0:0:
448,192,50822,1,0,0:0:0:0:
64,192,50949,1,0,0:0:0:0:
448,192,51076,128,0,51203:0:0:0:0:
192,192,51076,1,0,0:0:0:0:
64,192,51203,1,0,0:0:0:0:
320,192,51203,1,0,0:0:0:0:
64,192,51331,1,0,0:0:0:0:
192,192,51331,1,0,0:0:0:0:
448,192,51331,1,0,0:0:0:0:
320,192,51458,1,0,0:0:0:0:
448,192,51458,1,0,0:0:0:0:
192,192,51585,128,0,51712:0:0:0:0:
320,192,51712,128,0,51839:0:0:0:0:
448,192,51839,128,0,52093:0:0:0:0:
64,192,51839,1,0,0:0:0:0:
192,192,51966,1,0,0:0:0:0:
192,192,52093,1,0,0:0:0:0:
192,192,52220,1,0,0:0:0:0:
320,192,52347,128,0,52475:0:0:0:0:
448,192,52347,1,0,0:0:0:0:
64,192,52347,1,0,0:0:0:0:
448,192,52475,1,0,0:0:0:0:
192,192,52602,128,0,52983:0:0:0:0:
320,192,52602,1,0,0:0:0:0:
64,192,52729,1,0,0:0:0:0:
320,192,52856,1,0,0:0:0:0:
448,192,52856,1,0,0:0:0:0:
320,192,52983,1,0,0:0:0:0:
64,192,53110,128,0,53237:0:0:0:0:
192,192,53110,1,0,0:0:0:0:
448,192,53237,1,0,0:0:0:0:
192,192,53237,1,0,0:0:0:0:
320,192,53364,128,0,53492:0:0:0:0:
64,192,53364,1,0,0:0:0:0:
448,192,53364,1,0,0:0:0:0:
192,192,53492,1,0,0:0:0:0:
192,192,53619,128,0,54000:0:0:0:0:
448,192,53619,1,0,0:0:0:0:
320,192,53746,1,0,0:0:0:0:
64,192,53746,1,0,0:0:0:0:
64,192,53873,1,0,0:0:0:0:
448,192,53873,1,0,0:0:0:0:
320,192,54000,1,0,0:0:0:0:
448,192,54064,1,0,0:0:0:0:
64,192,54127,128,0,54381:0:0:0:0:
320,192,54254,1,0,0:0:0:0:
192,192,54381,1,0,0:0:0:0:
448,192,54381,1,0,0:0:0:0:
320,192,54381,1,0,0:0:0:0:
192,192,54508,1,0,0:0:0:0:
64,192,54636,128,0,54763:0:0:0:0:
320,192,54636,1,0,0:0:0:0:
320,192,54763,1,0,0:0:0:0:
448,192,54890,1,0,0:0:0:0:
64,192,54890,128,0,55017:0:0:0:0:
192,192,55017,1,0,0:0:0:0:
192,192,55144,1,0,0:0:0:0:
192,192,55271,1,0,0:0:0:0:
448,192,55271,1,0,0:0:0:0:
64,192,55398,1,0,0:0:0:0:
448,192,55398,1,0,0:0:0:0:
320,192,55398,128,0,55653:0:0:0:0:
64,192,55525,1,0,0:0:0:0:
192,192,55653,128,0,56415:0:0:0:0:
448,192,55653,1,0,0:0:0:0:
320,192,55780,1,0,0:0:0:0:
64,192,55780,1,0,0:0:0:0:
320,192,55907,1,0,0:0:0:0:
448,192,55907,1,0,0:0:0:0:
64,192,56034,1,0,0:0:0:0:
448,192,56034,1,0,0:0:0:0:
320,192,56161,1,0,0:0:0:0:
64,192,56288,1,0,0:0:0:0:
64,192,56415,1,0,0:0:0:0:
320,192,56415,1,0,0:0:0:0:
448,192,56415,1,0,0:0:0:0:
192,192,56542,1,0,0:0:0:0:
448,192,56670,1,0,0:0:0:0:
320,192,56670,1,0,0:0:0:0:
192,192,56797,1,0,0:0:0:0:
64,192,56797,1,0,0:0:0:0:
192,192,56924,1,0,0:0:0:0:
448,192,56924,128,0,57305:0:0:0:0:
320,192,57051,1,0,0:0:0:0:
320,192,57178,1,0,0:0:0:0:
192,192,57305,1,0,0:0:0:0:
448,192,57432,128,0,57814:0:0:0:0:
64,192,57432,1,0,0:0:0:0:
192,192,57432,1,0,0:0:0:0:
320,192,57559,1,0,0:0:0:0:
64,192,57686,1,0,0:0:0:0:
64,192,57814,1,0,0:0:0:0:
448,192,57941,128,0,58322:0:0:0:0:
320,192,57941,1,0,0:0:0:0:
192,192,58068,1,0,0:0:0:0:
192,192,58195,1,0,0:0:0:0:
192,192,58322,1,0,0:0:0:0:
320,192,58322,1,0,0:0:0:0:
320,192,58449,1,0,0:0:0:0:
448,192,58449,1,0,0:0:0:0:
64,192,58449,128,0,58703:0:0:0:0:
192,192,58576,1,0,0:0:0:0:
448,192,58703,1,0,0:0:0:0:
320,192,58703,128,0,58958:0:0:0:0:
192,192,58831,1,0,0:0:0:0:
64,192,58831,1,0,0:0:0:0:
448,192,58958,1,0,0:0:0:0:
192,192,58958,1,0,0:0:0:0:
320,192,59085,1,0,0:0:0:0:
320,192,59212,1,0,0:0:0:0:
192,192,59212,128,0,59720:0:0:0:0:
64,192,59339,1,0,0:0:0:0:
448,192,59466,1,0,0:0:0:0:
64,192,59466,1,0,0:0:0:0:
320,192,59466,1,0,0:0:0:0:
448,192,59593,1,0,0:0:0:0:
64,192,59720,128,0,59975:0:0:0:0:
320,192,59720,1,0,0:0:0:0:
192,192,59847,1,0,0:0:0:0:
192,192,59975,1,0,0:0:0:0:
448,192,59975,1,0,0:0:0:0:
320,192,60102,1,0,0:0:0:0:
448,192,60102,1,0,0:0:0:0:
64,192,60229,128,0,60356:0:0:0:0:
192,192,60229,1,0,0:0:0:0:
192,192,60356,1,0,0:0:0:0:
320,192,60483,1,0,0:0:0:0:
448,192,60483,1,0,0:0:0:0:
64,192,60483,1,0,0:0:0:0:
320,192,60610,1,0,0:0:0:0:
448,192,60737,1,0,0:0:0:0:
192,192,60737,128,0,61119:0:0:0:0:
64,192,60992,1,0,0:0:0:0:
320,192,60992,1,0,0:0:0:0:
448,192,61119,1,0,0:0:0:0:
320,192,61182,1,0,0:0:0:0:
192,192,61246,1,0,0:0:0:0:
64,192,61246,1,0,0:0:0:0:
320,192,61373,1,0,0:0:0:0:
448,192,61373,1,0,0:0:0:0:
448,192,61500,1,0,0:0:0:0:
64,192,61500,1,0,0:0:0:0:
192,192,61500,1,0,0:0:0:0:
192,192,61627,1,0,0:0:0:0:
320,192,61627,1,0,0:0:0:0:
64,192,61754,1,0,0:0:0:0:
320,192,61754,1,0,0:0:0:0:
192,192,61881,1,0,0:0:0:0:
448,192,61881,1,0,0:0:0:0:
448,192,62008,1,0,0:0:0:0:
320,192,62008,1,0,0:0:0:0:
192,192,62136,128,0,62263:0:0:0:0:
64,192,62136,128,0,62263:0:0:0:0:
320,192,62263,128,0,62390:0:0:0:0:
448,192,62390,1,0,0:0:0:0:
64,192,62517,1,0,0:0:0:0:
192,192,62517,1,0,0:0:0:0:
448,192,62517,1,0,0:0:0:0:
320,192,62644,1,0,0:0:0:0:
192,192,62771,1,0,0:0:0:0:
320,192,62835,128,0,63280:0:0:0:0:
64,192,62898,1,0,0:0:0:0:
192,192,63025,1,0,0:0:0:0:
448,192,63025,1,0,0:0:0:0:
64,192,63153,1,0,0:0:0:0:
448,192,63280,1,0,0:0:0:0:
192,192,63280,1,0,0:0:0:0:
320,192,63407,1,0,0:0:0:0:
64,192,63407,1,0,0:0:0:0:
448,192,63534,1,0,0:0:0:0:
64,192,63534,1,0,0:0:0:0:
192,192,63661,1,0,0:0:0:0:
448,192,63788,128,0,64297:0:0:0:0:
320,192,63915,1,0,0:0:0:0:
64,192,64042,1,0,0:0:0:0:
192,192,64042,1,0,0:0:0:0:
64,192,64170,1,0,0:0:0:0:
320,192,64170,1,0,0:0:0:0:
192,192,64297,128,0,64424:0:0:0:0:
192,192,64551,128,0,64678:0:0:0:0:
448,192,64551,1,0,0:0:0:0:
320,192,64805,128,0,64932:0:0:0:0:
192,192,65059,1,0,0:0:0:0:
448,192,65059,1,0,0:0:0:0:
64,192,65059,1,0,0:0:0:0:
320,192,65186,1,0,0:0:0:0:
64,192,65186,1,0,0:0:0:0:
320,192,65314,1,0,0:0:0:0:
192,192,65441,1,0,0:0:0:0:
64,192,65441,1,0,0:0:0:0:
64,192,65568,1,0,0:0:0:0:
320,192,65568,1,0,0:0:0:0:
448,192,65568,1,0,0:0:0:0:
320,192,65695,1,0,0:0:0:0:
64,192,65822,1,0,0:0:0:0:
448,192,65822,1,0,0:0:0:0:
448,192,65949,1,0,0:0:0:0:
192,192,66076,1,0,0:0:0:0:
320,192,66076,1,0,0:0:0:0:
448,192,66203,1,0,0:0:0:0:
448,192,66331,1,0,0:0:0:0:
448,192,66458,1,0,0:0:0:0:
320,192,66585,1,0,0:0:0:0:
64,192,66585,1,0,0:0:0:0:
192,192,66585,1,0,0:0:0:0:
192,192,66712,1,0,0:0:0:0:
448,192,66712,1,0,0:0:0:0:
64,192,66839,1,0,0:0:0:0:
320,192,66839,1,0,0:0:0:0:
192,192,66966,1,0,0:0:0:0:
192,192,67093,1,0,0:0:0:0:
448,192,67093,1,0,0:0:0:0:
64,192,67220,1,0,0:0:0:0:
320,192,67220,1,0,0:0:0:0:
320,192,67347,1,0,0:0:0:0:
192,192,67475,1,0,0:0:0:0:
64,192,67475,1,0,0:0:0:0:
64,192,67602,1,0,0:0:0:0:
320,192,67602,1,0,0:0:0:0:
448,192,67602,1,0,0:0:0:0:
320,192,67729,1,0,0:0:0:0:
192,192,67856,1,0,0:0:0:0:
448,192,67856,1,0,0:0:0:0:
192,192,67983,1,0,0:0:0:0:
64,192,68110,1,0,0:0:0:0:
320,192,68110,1,0,0:0:0:0:
192,192,68237,1,0,0:0:0:0:
192,192,68364,1,0,0:0:0:0:
192,192,68492,1,0,0:0:0:0:
64,192,68619,1,0,0:0:0:0:
320,192,68619,1,0,0:0:0:0:
448,192,68619,1,0,0:0:0:0:
192,192,68746,1,0,0:0:0:0:
448,192,68746,1,0,0:0:0:0:
320,192,68873,1,0,0:0:0:0:
64,192,68873,1,0,0:0:0:0:
192,192,69000,1,0,0:0:0:0:
192,192,69127,1,0,0:0:0:0:
448,192,69127,1,0,0:0:0:0:
320,192,69254,1,0,0:0:0:0:
320,192,69381,1,0,0:0:0:0:
64,192,69381,1,0,0:0:0:0:
320,192,69508,1,0,0:0:0:0:
448,192,69636,1,0,0:0:0:0:
192,192,69636,1,0,0:0:0:0:
64,192,69636,1,0,0:0:0:0:
192,192,69763,1,0,0:0:0:0:
320,192,69763,1,0,0:0:0:0:
448,192,69890,1,0,0:0:0:0:
64,192,69890,1,0,0:0:0:0:
192,192,70017,1,0,0:0:0:0:
320,192,70017,1,0,0:0:0:0:
320,192,70144,1,0,0:0:0:0:
448,192,70144,1,0,0:0:0:0:
192,192,70271,128,0,70398:0:0:0:0:
64,192,70271,128,0,70398:0:0:0:0:
320,192,70398,1,0,0:0:0:0:
448,192,70525,1,0,0:0:0:0:
192,192,70525,1,0,0:0:0:0:
64,192,70653,1,0,0:0:0:0:
320,192,70653,1,0,0:0:0:0:
448,192,70653,1,0,0:0:0:0:
192,192,70780,1,0,0:0:0:0:
64,192,70907,1,0,0:0:0:0:
448,192,70907,1,0,0:0:0:0:
448,192,71034,1,0,0:0:0:0:
64,192,71034,1,0,0:0:0:0:
192,192,71161,1,0,0:0:0:0:
64,192,71161,1,0,0:0:0:0:
320,192,71288,1,0,0:0:0:0:
320,192,71415,1,0,0:0:0:0:
448,192,71415,1,0,0:0:0:0:
192,192,71542,1,0,0:0:0:0:
64,192,71542,1,0,0:0:0:0:
64,192,71670,1,0,0:0:0:0:
320,192,71670,1,0,0:0:0:0:
448,192,71670,1,0,0:0:0:0:
192,192,71797,1,0,0:0:0:0:
64,192,71924,1,0,0:0:0:0:
448,192,71924,1,0,0:0:0:0:
192,192,72051,1,0,0:0:0:0:
64,192,72178,1,0,0:0:0:0:
192,192,72178,1,0,0:0:0:0:
320,192,72305,128,0,72432:0:0:0:0:
448,192,72305,128,0,72432:0:0:0:0:
192,192,72432,1,0,0:0:0:0:
320,192,72559,1,0,0:0:0:0:
448,192,72686,1,0,0:0:0:0:
320,192,72686,1,0,0:0:0:0:
64,192,72686,1,0,0:0:0:0:
192,192,72814,1,0,0:0:0:0:
192,192,72941,1,0,0:0:0:0:
192,192,73068,1,0,0:0:0:0:
64,192,73195,1,0,0:0:0:0:
448,192,73195,1,0,0:0:0:0:
320,192,73322,1,0,0:0:0:0:
192,192,73322,1,0,0:0:0:0:
320,192,73449,1,0,0:0:0:0:
192,192,73576,1,0,0:0:0:0:
64,192,73576,1,0,0:0:0:0:
64,192,73703,1,0,0:0:0:0:
320,192,73703,1,0,0:0:0:0:
448,192,73703,1,0,0:0:0:0:
192,192,73831,1,0,0:0:0:0:
64,192,73958,1,0,0:0:0:0:
448,192,73958,1,0,0:0:0:0:
448,192,74085,1,0,0:0:0:0:
192,192,74212,1,0,0:0:0:0:
320,192,74212,1,0,0:0:0:0:
448,192,74339,1,0,0:0:0:0:
448,192,74466,1,0,0:0:0:0:
448,192,74593,1,0,0:0:0:0:
320,192,74720,1,0,0:0:0:0:
64,192,74720,1,0,0:0:0:0:
192,192,74720,1,0,0:0:0:0:
192,192,74847,1,0,0:0:0:0:
448,192,74847,1,0,0:0:0:0:
64,192,74975,1,0,0:0:0:0:
320,192,74975,1,0,0:0:0:0:
192,192,75102,1,0,0:0:0:0:
192,192,75229,1,0,0:0:0:0:
448,192,75229,1,0,0:0:0:0:
64,192,75356,1,0,0:0:0:0:
320,192,75356,1,0,0:0:0:0:
320,192,75483,1,0,0:0:0:0:
192,192,75610,1,0,0:0:0:0:
64,192,75610,1,0,0:0:0:0:
64,192,75737,1,0,0:0:0:0:
320,192,75737,1,0,0:0:0:0:
448,192,75737,1,0,0:0:0:0:
320,192,75864,1,0,0:0:0:0:
192,192,75992,1,0,0:0:0:0:
448,192,75992,1,0,0:0:0:0:
192,192,76119,1,0,0:0:0:0:
64,192,76246,1,0,0:0:0:0:
320,192,76246,1,0,0:0:0:0:
192,192,76373,1,0,0:0:0:0:
192,192,76500,1,0,0:0:0:0:
192,192,76627,1,0,0:0:0:0:
64,192,76754,1,0,0:0:0:0:
320,192,76754,1,0,0:0:0:0:
448,192,76754,1,0,0:0:0:0:
192,192,76881,1,0,0:0:0:0:
448,192,76881,1,0,0:0:0:0:
320,192,77008,1,0,0:0:0:0:
64,192,77008,1,0,0:0:0:0:
192,192,77136,1,0,0:0:0:0:
192,192,77263,1,0,0:0:0:0:
448,192,77263,1,0,0:0:0:0:
320,192,77390,1,0,0:0:0:0:
320,192,77517,1,0,0:0:0:0:
64,192,77517,1,0,0:0:0:0:
320,192,77644,1,0,0:0:0:0:
448,192,77771,1,0,0:0:0:0:
192,192,77771,1,0,0:0:0:0:
64,192,77771,1,0,0:0:0:0:
192,192,77898,1,0,0:0:0:0:
320,192,77898,1,0,0:0:0:0:
448,192,78025,1,0,0:0:0:0:
64,192,78025,1,0,0:0:0:0:
192,192,78153,1,0,0:0:0:0:
320,192,78153,1,0,0:0:0:0:
320,192,78280,1,0,0:0:0:0:
448,192,78280,1,0,0:0:0:0:
192,192,78407,128,0,78534:0:0:0:0:
64,192,78407,128,0,78534:0:0:0:0:
320,192,78534,1,0,0:0:0:0:
448,192,78661,1,0,0:0:0:0:
192,192,78661,1,0,0:0:0:0:
64,192,78788,1,0,0:0:0:0:
320,192,78788,1,0,0:0:0:0:
448,192,78788,1,0,0:0:0:0:
192,192,78915,1,0,0:0:0:0:
64,192,79042,1,0,0:0:0:0:
448,192,79042,1,0,0:0:0:0:
448,192,79170,1,0,0:0:0:0:
64,192,79170,1,0,0:0:0:0:
192,192,79297,1,0,0:0:0:0:
64,192,79297,1,0,0:0:0:0:
320,192,79424,1,0,0:0:0:0:
320,192,79551,1,0,0:0:0:0:
448,192,79551,1,0,0:0:0:0:
192,192,79678,1,0,0:0:0:0:
64,192,79678,1,0,0:0:0:0:
64,192,79805,1,0,0:0:0:0:
448,192,79805,1,0,0:0:0:0:
192,192,79932,1,0,0:0:0:0:
448,192,80059,1,0,0:0:0:0:
320,192,80059,1,0,0:0:0:0:
192,192,80186,1,0,0:0:0:0:
64,192,80314,1,0,0:0:0:0:
320,192,80314,1,0,0:0:0:0:
64,192,80441,1,0,0:0:0:0:
320,192,80441,1,0,0:0:0:0:
192,192,80568,1,0,0:0:0:0:
64,192,80568,1,0,0:0:0:0:
448,192,80822,1,0,0:0:0:0:
64,192,80822,1,0,0:0:0:0:
320,192,80949,1,0,0:0:0:0:
192,192,81076,1,0,0:0:0:0:
448,192,81076,1,0,0:0:0:0:
64,192,81203,1,0,0:0:0:0:
192,192,81331,1,0,0:0:0:0:
448,192,81331,1,0,0:0:0:0:
320,192,81458,1,0,0:0:0:0:
320,192,81585,1,0,0:0:0:0:
320,192,81712,128,0,81839:0:0:0:0:
64,192,81712,128,0,81839:0:0:0:0:
192,192,81839,1,0,0:0:0:0:
192,192,81966,1,0,0:0:0:0:
192,192,82093,1,0,0:0:0:0:
448,192,82093,1,0,0:0:0:0:
320,192,82220,1,0,0:0:0:0:
320,192,82347,1,0,0:0:0:0:
320,192,82475,1,0,0:0:0:0:
448,192,82602,1,0,0:0:0:0:
192,192,82602,1,0,0:0:0:0:
192,192,82729,1,0,0:0:0:0:
448,192,82729,1,0,0:0:0:0:
320,192,82856,1,0,0:0:0:0:
448,192,82983,1,0,0:0:0:0:
192,192,82983,1,0,0:0:0:0:
320,192,83110,1,0,0:0:0:0:
64,192,83237,1,0,0:0:0:0:
320,192,83237,1,0,0:0:0:0:
192,192,83364,1,0,0:0:0:0:
192,192,83492,1,0,0:0:0:0:
192,192,83619,1,0,0:0:0:0:
192,192,83746,1,0,0:0:0:0:
192,192,83873,1,0,0:0:0:0:
64,192,84000,1,0,0:0:0:0:
320,192,84000,1,0,0:0:0:0:
192,192,84127,1,0,0:0:0:0:
192,192,84254,1,0,0:0:0:0:
64,192,84381,1,0,0:0:0:0:
320,192,84381,1,0,0:0:0:0:
192,192,84508,1,0,0:0:0:0:
192,192,84636,1,0,0:0:0:0:
64,192,84763,1,0,0:0:0:0:
320,192,84763,1,0,0:0:0:0:
192,192,84890,1,0,0:0:0:0:
192,192,85017,1,0,0:0:0:0:
64,192,85144,1,0,0:0:0:0:
320,192,85144,1,0,0:0:0:0:
192,192,85271,1,0,0:0:0:0:
192,192,85398,1,0,0:0:0:0:
192,192,85525,1,0,0:0:0:0:
192,192,85653,1,0,0:0:0:0:
192,192,85780,1,0,0:0:0:0:
192,192,85907,1,0,0:0:0:0:
192,192,86034,1,0,0:0:0:0:
64,192,86034,1,0,0:0:0:0:
448,192,86161,1,0,0:0:0:0:
448,192,86288,1,0,0:0:0:0:
192,192,86415,1,0,0:0:0:0:
64,192,86415,1,0,0:0:0:0:
448,192,86542,1,0,0:0:0:0:
448,192,86670,1,0,0:0:0:0:
64,192,86797,1,0,0:0:0:0:
192,192,86797,1,0,0:0:0:0:
448,192,86924,1,0,0:0:0:0:
448,192,87051,1,0,0:0:0:0:
192,192,87178,1,0,0:0:0:0:
64,192,87178,1,0,0:0:0:0:
448,192,87305,1,0,0:0:0:0:
448,192,87432,1,0,0:0:0:0:
448,192,87559,1,0,0:0:0:0:
448,192,87686,1,0,0:0:0:0:
448,192,87814,1,0,0:0:0:0:
448,192,87941,1,0,0:0:0:0:
448,192,88068,1,0,0:0:0:0:
448,192,88195,1,0,0:0:0:0:
64,192,88322,1,0,0:0:0:0:
192,192,88322,1,0,0:0:0:0:
448,192,88449,128,0,88703:0:0:0:0:
320,192,88449,128,0,88703:0:0:0:0:
192,192,88576,1,0,0:0:0:0:
192,192,88703,1,0,0:0:0:0:
192,192,88831,1,0,0:0:0:0:
320,192,88958,1,0,0:0:0:0:
448,192,88958,1,0,0:0:0:0:
320,192,89085,1,0,0:0:0:0:
192,192,89212,1,0,0:0:0:0:
192,192,89339,1,0,0:0:0:0:
192,192,89466,1,0,0:0:0:0:
448,192,89466,1,0,0:0:0:0:
320,192,89593,1,0,0:0:0:0:
320,192,89720,1,0,0:0:0:0:
64,192,89847,1,0,0:0:0:0:
320,192,89847,1,0,0:0:0:0:
192,192,89975,1,0,0:0:0:0:
64,192,89975,1,0,0:0:0:0:
448,192,89975,1,0,0:0:0:0:
192,192,90102,1,0,0:0:0:0:
192,192,90229,1,0,0:0:0:0:
448,192,90229,1,0,0:0:0:0:
320,192,90356,1,0,0:0:0:0:
320,192,90483,1,0,0:0:0:0:
320,192,90610,1,0,0:0:0:0:
448,192,90737,1,0,0:0:0:0:
192,192,90737,1,0,0:0:0:0:
192,192,90864,1,0,0:0:0:0:
448,192,90864,1,0,0:0:0:0:
320,192,90992,1,0,0:0:0:0:
64,192,90992,1,0,0:0:0:0:
448,192,90992,1,0,0:0:0:0:
448,192,91119,1,0,0:0:0:0:
192,192,91119,1,0,0:0:0:0:
320,192,91246,1,0,0:0:0:0:
64,192,91373,1,0,0:0:0:0:
320,192,91373,1,0,0:0:0:0:
192,192,91500,1,0,0:0:0:0:
192,192,91627,1,0,0:0:0:0:
192,192,91754,1,0,0:0:0:0:
192,192,91881,1,0,0:0:0:0:
64,192,92008,1,0,0:0:0:0:
448,192,92008,1,0,0:0:0:0:
64,192,92136,1,0,0:0:0:0:
320,192,92136,1,0,0:0:0:0:
192,192,92263,1,0,0:0:0:0:
192,192,92390,1,0,0:0:0:0:
64,192,92517,1,0,0:0:0:0:
320,192,92517,1,0,0:0:0:0:
192,192,92644,1,0,0:0:0:0:
192,192,92771,1,0,0:0:0:0:
64,192,92898,1,0,0:0:0:0:
320,192,92898,1,0,0:0:0:0:
64,192,93025,1,0,0:0:0:0:
448,192,93025,1,0,0:0:0:0:
192,192,93153,1,0,0:0:0:0:
64,192,93280,1,0,0:0:0:0:
320,192,93280,1,0,0:0:0:0:
192,192,93407,1,0,0:0:0:0:
192,192,93534,1,0,0:0:0:0:
192,192,93661,1,0,0:0:0:0:
192,192,93788,1,0,0:0:0:0:
192,192,93915,1,0,0:0:0:0:
448,192,94042,1,0,0:0:0:0:
64,192,94042,1,0,0:0:0:0:
192,192,94170,1,0,0:0:0:0:
64,192,94170,1,0,0:0:0:0:
448,192,94297,1,0,0:0:0:0:
448,192,94424,1,0,0:0:0:0:
192,192,94551,1,0,0:0:0:0:
64,192,94551,1,0,0:0:0:0:
448,192,94678,1,0,0:0:0:0:
448,192,94805,1,0,0:0:0:0:
64,192,94932,1,0,0:0:0:0:
192,192,94932,1,0,0:0:0:0:
448,192,95059,1,0,0:0:0:0:
64,192,95059,1,0,0:0:0:0:
448,192,95186,1,0,0:0:0:0:
192,192,95314,1,0,0:0:0:0:
64,192,95314,1,0,0:0:0:0:
448,192,95441,1,0,0:0:0:0:
448,192,95568,1,0,0:0:0:0:
448,192,95695,1,0,0:0:0:0:
448,192,95822,1,0,0:0:0:0:
448,192,95949,1,0,0:0:0:0:
64,192,96076,1,0,0:0:0:0:
448,192,96076,1,0,0:0:0:0:
448,192,96203,1,0,0:0:0:0:
448,192,96331,1,0,0:0:0:0:
64,192,96458,1,0,0:0:0:0:
192,192,96458,1,0,0:0:0:0:
448,192,96585,128,0,96839:0:0:0:0:
320,192,96585,128,0,96839:0:0:0:0:
192,192,96712,1,0,0:0:0:0:
192,192,96839,1,0,0:0:0:0:
192,192,96966,1,0,0:0:0:0:
320,192,97093,1,0,0:0:0:0:
448,192,97093,1,0,0:0:0:0:
64,192,97093,1,0,0:0:0:0:
320,192,97220,1,0,0:0:0:0:
320,192,97347,1,0,0:0:0:0:
320,192,97475,1,0,0:0:0:0:
192,192,97602,1,0,0:0:0:0:
448,192,97602,1,0,0:0:0:0:
320,192,97729,1,0,0:0:0:0:
320,192,97856,1,0,0:0:0:0:
64,192,97983,1,0,0:0:0:0:
320,192,97983,1,0,0:0:0:0:
64,192,98110,1,0,0:0:0:0:
448,192,98110,1,0,0:0:0:0:
192,192,98237,1,0,0:0:0:0:
192,192,98364,1,0,0:0:0:0:
448,192,98364,1,0,0:0:0:0:
320,192,98492,1,0,0:0:0:0:
320,192,98619,1,0,0:0:0:0:
320,192,98746,1,0,0:0:0:0:
448,192,98873,1,0,0:0:0:0:
192,192,98873,1,0,0:0:0:0:
192,192,99000,1,0,0:0:0:0:
448,192,99000,1,0,0:0:0:0:
64,192,99127,1,0,0:0:0:0:
448,192,99127,1,0,0:0:0:0:
448,192,99254,1,0,0:0:0:0:
192,192,99254,1,0,0:0:0:0:
320,192,99381,1,0,0:0:0:0:
64,192,99508,1,0,0:0:0:0:
320,192,99508,1,0,0:0:0:0:
192,192,99636,1,0,0:0:0:0:
192,192,99763,1,0,0:0:0:0:
192,192,99890,1,0,0:0:0:0:
192,192,100017,1,0,0:0:0:0:
64,192,100144,1,0,0:0:0:0:
448,192,100144,1,0,0:0:0:0:
64,192,100271,1,0,0:0:0:0:
320,192,100271,1,0,0:0:0:0:
192,192,100398,1,0,0:0:0:0:
192,192,100525,1,0,0:0:0:0:
64,192,100653,1,0,0:0:0:0:
320,192,100653,1,0,0:0:0:0:
192,192,100780,1,0,0:0:0:0:
192,192,100907,1,0,0:0:0:0:
64,192,101034,1,0,0:0:0:0:
320,192,101034,1,0,0:0:0:0:
64,192,101161,1,0,0:0:0:0:
448,192,101161,1,0,0:0:0:0:
192,192,101288,1,0,0:0:0:0:
64,192,101415,1,0,0:0:0:0:
320,192,101415,1,0,0:0:0:0:
192,192,101542,1,0,0:0:0:0:
192,192,101670,1,0,0:0:0:0:
192,192,101797,1,0,0:0:0:0:
320,192,101924,1,0,0:0:0:0:
320,192,102051,1,0,0:0:0:0:
448,192,102178,1,0,0:0:0:0:
64,192,102178,1,0,0:0:0:0:
192,192,102305,1,0,0:0:0:0:
64,192,102305,1,0,0:0:0:0:
448,192,102432,1,0,0:0:0:0:
448,192,102559,1,0,0:0:0:0:
192,192,102686,1,0,0:0:0:0:
64,192,102686,1,0,0:0:0:0:
64,192,102814,1,0,0:0:0:0:
448,192,102941,1,0,0:0:0:0:
320,192,103068,1,0,0:0:0:0:
448,192,103068,1,0,0:0:0:0:
192,192,103195,1,0,0:0:0:0:
192,192,103322,1,0,0:0:0:0:
320,192,103449,1,0,0:0:0:0:
448,192,103449,1,0,0:0:0:0:
448,192,103576,1,0,0:0:0:0:
64,192,103703,1,0,0:0:0:0:
64,192,103831,1,0,0:0:0:0:
192,192,103831,1,0,0:0:0:0:
320,192,103958,1,0,0:0:0:0:
448,192,103958,1,0,0:0:0:0:
320,192,104085,1,0,0:0:0:0:
64,192,104085,1,0,0:0:0:0:
192,192,104212,1,0,0:0:0:0:
192,192,104339,1,0,0:0:0:0:
448,192,104466,1,0,0:0:0:0:
448,192,104593,1,0,0:0:0:0:
192,192,104720,1,0,0:0:0:0:
448,192,104847,1,0,0:0:0:0:
64,192,105229,1,0,0:0:0:0:
192,192,105314,1,0,0:0:0:0:
320,192,105398,1,0,0:0:0:0:
448,192,105483,1,0,0:0:0:0:
192,192,105568,1,0,0:0:0:0:
320,192,105653,1,0,0:0:0:0:
448,192,105737,1,0,0:0:0:0:
192,192,105737,1,0,0:0:0:0:
64,192,105737,1,0,0:0:0:0:
320,192,105864,1,0,0:0:0:0:
448,192,105864,1,0,0:0:0:0:
192,192,105992,1,0,0:0:0:0:
64,192,105992,1,0,0:0:0:0:
64,192,106119,1,0,0:0:0:0:
320,192,106119,1,0,0:0:0:0:
448,192,106119,1,0,0:0:0:0:
192,192,106246,1,0,0:0:0:0:
320,192,106246,1,0,0:0:0:0:
448,192,106246,1,0,0:0:0:0:
64,192,106373,1,0,0:0:0:0:
192,192,106373,1,0,0:0:0:0:
64,192,106500,1,0,0:0:0:0:
320,192,106500,1,0,0:0:0:0:
448,192,106500,1,0,0:0:0:0:
320,192,106627,1,0,0:0:0:0:
192,192,106627,1,0,0:0:0:0:
64,192,106754,1,0,0:0:0:0:
192,192,106754,1,0,0:0:0:0:
448,192,106754,1,0,0:0:0:0:
320,192,106881,1,0,0:0:0:0:
448,192,106881,1,0,0:0:0:0:
64,192,106881,1,0,0:0:0:0:
320,192,107008,1,0,0:0:0:0:
64,192,107136,1,0,0:0:0:0:
192,192,107136,1,0,0:0:0:0:
64,192,107263,1,0,0:0:0:0:
320,192,107263,1,0,0:0:0:0:
448,192,107263,1,0,0:0:0:0:
448,192,107390,1,0,0:0:0:0:
192,192,107390,1,0,0:0:0:0:
320,192,107390,1,0,0:0:0:0:
192,192,107517,1,0,0:0:0:0:
448,192,107517,1,0,0:0:0:0:
320,192,107517,1,0,0:0:0:0:
448,192,107644,1,0,0:0:0:0:
192,192,107644,1,0,0:0:0:0:
320,192,107644,1,0,0:0:0:0:
192,192,107771,1,0,0:0:0:0:
320,192,107771,1,0,0:0:0:0:
448,192,107771,1,0,0:0:0:0:
320,192,107898,1,0,0:0:0:0:
64,192,107898,1,0,0:0:0:0:
64,192,108025,1,0,0:0:0:0:
192,192,108025,1,0,0:0:0:0:
448,192,108153,1,0,0:0:0:0:
448,192,108280,1,0,0:0:0:0:
192,192,108280,1,0,0:0:0:0:
64,192,108280,1,0,0:0:0:0:
64,192,108407,1,0,0:0:0:0:
320,192,108407,1,0,0:0:0:0:
448,192,108534,1,0,0:0:0:0:
192,192,108534,1,0,0:0:0:0:
320,192,108534,1,0,0:0:0:0:
192,192,108661,1,0,0:0:0:0:
448,192,108788,1,0,0:0:0:0:
320,192,108788,1,0,0:0:0:0:
64,192,108788,1,0,0:0:0:0:
192,192,108915,1,0,0:0:0:0:
448,192,108915,1,0,0:0:0:0:
64,192,108915,1,0,0:0:0:0:
192,192,109042,1,0,0:0:0:0:
320,192,109042,1,0,0:0:0:0:
64,192,109170,1,0,0:0:0:0:
320,192,109170,1,0,0:0:0:0:
64,192,109297,1,0,0:0:0:0:
192,192,109297,1,0,0:0:0:0:
448,192,109297,1,0,0:0:0:0:
320,192,109424,1,0,0:0:0:0:
64,192,109551,1,0,0:0:0:0:
320,192,109551,1,0,0:0:0:0:
448,192,109678,1,0,0:0:0:0:
192,192,109678,1,0,0:0:0:0:
320,192,109805,1,0,0:0:0:0:
192,192,109805,1,0,0:0:0:0:
64,192,109805,1,0,0:0:0:0:
64,192,109932,1,0,0:0:0:0:
192,192,110059,1,0,0:0:0:0:
448,192,110059,1,0,0:0:0:0:
320,192,110186,1,0,0:0:0:0:
64,192,110186,1,0,0:0:0:0:
64,192,110314,1,0,0:0:0:0:
192,192,110314,1,0,0:0:0:0:
448,192,110314,1,0,0:0:0:0:
192,192,110441,1,0,0:0:0:0:
320,192,110441,1,0,0:0:0:0:
64,192,110568,1,0,0:0:0:0:
448,192,110568,1,0,0:0:0:0:
320,192,110695,1,0,0:0:0:0:
192,192,110695,1,0,0:0:0:0:
64,192,110822,1,0,0:0:0:0:
192,192,110822,1,0,0:0:0:0:
320,192,110822,1,0,0:0:0:0:
64,192,110949,1,0,0:0:0:0:
192,192,111076,1,0,0:0:0:0:
448,192,111076,1,0,0:0:0:0:
448,192,111203,1,0,0:0:0:0:
192,192,111331,1,0,0:0:0:0:
64,192,111331,1,0,0:0:0:0:
320,192,111331,1,0,0:0:0:0:
320,192,111458,1,0,0:0:0:0:
64,192,111585,1,0,0:0:0:0:
192,192,111585,1,0,0:0:0:0:
448,192,111585,1,0,0:0:0:0:
64,192,111712,1,0,0:0:0:0:
192,192,111712,1,0,0:0:0:0:
448,192,111712,1,0,0:0:0:0:
64,192,111839,1,0,0:0:0:0:
192,192,111839,1,0,0:0:0:0:
320,192,111839,1,0,0:0:0:0:
448,192,111966,128,0,112093:0:0:0:0:
320,192,111966,128,0,112093:0:0:0:0:
192,192,112093,1,0,0:0:0:0:
192,192,112220,1,0,0:0:0:0:
64,192,112347,1,0,0:0:0:0:
320,192,112347,1,0,0:0:0:0:
448,192,112347,1,0,0:0:0:0:
64,192,112475,1,0,0:0:0:0:
192,192,112475,1,0,0:0:0:0:
64,192,112602,1,0,0:0:0:0:
320,192,112602,1,0,0:0:0:0:
192,192,112602,1,0,0:0:0:0:
64,192,112729,1,0,0:0:0:0:
192,192,112729,1,0,0:0:0:0:
320,192,112729,1,0,0:0:0:0:
64,192,112856,1,0,0:0:0:0:
320,192,112856,1,0,0:0:0:0:
448,192,112856,1,0,0:0:0:0:
64,192,112983,1,0,0:0:0:0:
192,192,112983,1,0,0:0:0:0:
448,192,112983,1,0,0:0:0:0:
64,192,113110,1,0,0:0:0:0:
192,192,113110,1,0,0:0:0:0:
448,192,113110,1,0,0:0:0:0:
320,192,113237,1,0,0:0:0:0:
448,192,113237,1,0,0:0:0:0:
448,192,113364,1,0,0:0:0:0:
192,192,113364,1,0,0:0:0:0:
64,192,113364,1,0,0:0:0:0:
192,192,113492,1,0,0:0:0:0:
320,192,113492,1,0,0:0:0:0:
192,192,113619,1,0,0:0:0:0:
320,192,113619,1,0,0:0:0:0:
320,192,113746,1,0,0:0:0:0:
192,192,113746,1,0,0:0:0:0:
448,192,113873,1,0,0:0:0:0:
192,192,113873,1,0,0:0:0:0:
64,192,113873,1,0,0:0:0:0:
320,192,114000,1,0,0:0:0:0:
448,192,114000,1,0,0:0:0:0:
192,192,114127,1,0,0:0:0:0:
64,192,114127,1,0,0:0:0:0:
64,192,114254,1,0,0:0:0:0:
320,192,114254,1,0,0:0:0:0:
448,192,114254,1,0,0:0:0:0:
192,192,114381,1,0,0:0:0:0:
320,192,114381,1,0,0:0:0:0:
448,192,114381,1,0,0:0:0:0:
64,192,114508,1,0,0:0:0:0:
192,192,114508,1,0,0:0:0:0:
64,192,114636,1,0,0:0:0:0:
320,192,114636,1,0,0:0:0:0:
448,192,114636,1,0,0:0:0:0:
320,192,114763,1,0,0:0:0:0:
192,192,114763,1,0,0:0:0:0:
64,192,114890,1,0,0:0:0:0:
192,192,114890,1,0,0:0:0:0:
448,192,114890,1,0,0:0:0:0:
320,192,115017,1,0,0:0:0:0:
448,192,115017,1,0,0:0:0:0:
64,192,115017,1,0,0:0:0:0:
320,192,115144,1,0,0:0:0:0:
64,192,115271,1,0,0:0:0:0:
192,192,115271,1,0,0:0:0:0:
64,192,115398,1,0,0:0:0:0:
320,192,115398,1,0,0:0:0:0:
448,192,115398,1,0,0:0:0:0:
448,192,115525,1,0,0:0:0:0:
192,192,115525,1,0,0:0:0:0:
320,192,115525,1,0,0:0:0:0:
192,192,115653,1,0,0:0:0:0:
448,192,115653,1,0,0:0:0:0:
320,192,115653,1,0,0:0:0:0:
448,192,115780,1,0,0:0:0:0:
192,192,115780,1,0,0:0:0:0:
320,192,115780,1,0,0:0:0:0:
192,192,115907,1,0,0:0:0:0:
320,192,115907,1,0,0:0:0:0:
448,192,115907,1,0,0:0:0:0:
320,192,116034,1,0,0:0:0:0:
64,192,116034,1,0,0:0:0:0:
64,192,116161,1,0,0:0:0:0:
192,192,116161,1,0,0:0:0:0:
448,192,116288,1,0,0:0:0:0:
448,192,116415,1,0,0:0:0:0:
192,192,116415,1,0,0:0:0:0:
64,192,116415,1,0,0:0:0:0:
64,192,116542,1,0,0:0:0:0:
320,192,116542,1,0,0:0:0:0:
448,192,116670,1,0,0:0:0:0:
192,192,116670,1,0,0:0:0:0:
320,192,116670,1,0,0:0:0:0:
192,192,116797,1,0,0:0:0:0:
64,192,116797,1,0,0:0:0:0:
448,192,116924,1,0,0:0:0:0:
320,192,116924,1,0,0:0:0:0:
64,192,116924,1,0,0:0:0:0:
192,192,117051,1,0,0:0:0:0:
448,192,117051,1,0,0:0:0:0:
64,192,117051,1,0,0:0:0:0:
192,192,117178,1,0,0:0:0:0:
320,192,117178,1,0,0:0:0:0:
64,192,117305,1,0,0:0:0:0:
320,192,117305,1,0,0:0:0:0:
64,192,117432,1,0,0:0:0:0:
192,192,117432,1,0,0:0:0:0:
448,192,117432,1,0,0:0:0:0:
320,192,117559,1,0,0:0:0:0:
192,192,117686,1,0,0:0:0:0:
64,192,117686,1,0,0:0:0:0:
320,192,117814,1,0,0:0:0:0:
448,192,117814,1,0,0:0:0:0:
320,192,117941,1,0,0:0:0:0:
192,192,117941,1,0,0:0:0:0:
64,192,117941,1,0,0:0:0:0:
64,192,118068,1,0,0:0:0:0:
192,192,118195,1,0,0:0:0:0:
448,192,118195,1,0,0:0:0:0:
320,192,118322,1,0,0:0:0:0:
64,192,118322,1,0,0:0:0:0:
64,192,118449,1,0,0:0:0:0:
192,192,118449,1,0,0:0:0:0:
448,192,118449,1,0,0:0:0:0:
192,192,118576,1,0,0:0:0:0:
320,192,118576,1,0,0:0:0:0:
64,192,118703,1,0,0:0:0:0:
448,192,118703,1,0,0:0:0:0:
320,192,118831,1,0,0:0:0:0:
192,192,118831,1,0,0:0:0:0:
64,192,118958,1,0,0:0:0:0:
192,192,118958,1,0,0:0:0:0:
320,192,118958,1,0,0:0:0:0:
64,192,119085,1,0,0:0:0:0:
192,192,119212,1,0,0:0:0:0:
448,192,119212,1,0,0:0:0:0:
448,192,119339,1,0,0:0:0:0:
192,192,119466,1,0,0:0:0:0:
64,192,119466,1,0,0:0:0:0:
320,192,119466,1,0,0:0:0:0:
320,192,119593,1,0,0:0:0:0:
64,192,119720,1,0,0:0:0:0:
192,192,119720,1,0,0:0:0:0:
448,192,119720,1,0,0:0:0:0:
64,192,119847,1,0,0:0:0:0:
192,192,119847,1,0,0:0:0:0:
448,192,119847,1,0,0:0:0:0:
64,192,119975,1,0,0:0:0:0:
192,192,119975,1,0,0:0:0:0:
320,192,119975,1,0,0:0:0:0:
448,192,120102,128,0,120229:0:0:0:0:
320,192,120102,128,0,120229:0:0:0:0:
192,192,120229,1,0,0:0:0:0:
192,192,120356,1,0,0:0:0:0:
64,192,120483,1,0,0:0:0:0:
448,192,120483,1,0,0:0:0:0:
192,192,120610,1,0,0:0:0:0:
320,192,120610,1,0,0:0:0:0:
320,192,120737,1,0,0:0:0:0:
64,192,120737,1,0,0:0:0:0:
64,192,120864,1,0,0:0:0:0:
320,192,120864,1,0,0:0:0:0:
192,192,120992,1,0,0:0:0:0:
448,192,120992,1,0,0:0:0:0:
320,192,121246,1,0,0:0:0:0:
192,192,121436,1,0,0:0:0:0:
448,192,121500,1,0,0:0:0:0:
64,192,121500,1,0,0:0:0:0:
448,192,121754,1,0,0:0:0:0:
192,192,121754,1,0,0:0:0:0:
320,192,121881,1,0,0:0:0:0:
64,192,121881,1,0,0:0:0:0:
448,192,122008,1,0,0:0:0:0:
192,192,122008,1,0,0:0:0:0:
64,192,122008,1,0,0:0:0:0:
320,192,122136,1,0,0:0:0:0:
448,192,122136,1,0,0:0:0:0:
192,192,122263,1,0,0:0:0:0:
64,192,122263,1,0,0:0:0:0:
320,192,122263,1,0,0:0:0:0:
64,192,122390,1,0,0:0:0:0:
320,192,122390,1,0,0:0:0:0:
448,192,122390,1,0,0:0:0:0:
192,192,122517,1,0,0:0:0:0:
320,192,122517,1,0,0:0:0:0:
448,192,122517,1,0,0:0:0:0:
64,192,122644,1,0,0:0:0:0:
192,192,122644,1,0,0:0:0:0:
64,192,122771,1,0,0:0:0:0:
320,192,122771,1,0,0:0:0:0:
448,192,122771,1,0,0:0:0:0:
320,192,122898,1,0,0:0:0:0:
192,192,122898,1,0,0:0:0:0:
64,192,123025,1,0,0:0:0:0:
192,192,123025,1,0,0:0:0:0:
448,192,123025,1,0,0:0:0:0:
320,192,123153,1,0,0:0:0:0:
448,192,123153,1,0,0:0:0:0:
64,192,123153,1,0,0:0:0:0:
192,192,123280,1,0,0:0:0:0:
64,192,123343,1,0,0:0:0:0:
320,192,123407,1,0,0:0:0:0:
192,192,123470,1,0,0:0:0:0:
64,192,123534,1,0,0:0:0:0:
320,192,123534,1,0,0:0:0:0:
448,192,123534,1,0,0:0:0:0:
448,192,123661,1,0,0:0:0:0:
192,192,123661,1,0,0:0:0:0:
320,192,123661,1,0,0:0:0:0:
192,192,123788,1,0,0:0:0:0:
448,192,123788,1,0,0:0:0:0:
320,192,123788,1,0,0:0:0:0:
448,192,123915,1,0,0:0:0:0:
192,192,123915,1,0,0:0:0:0:
320,192,123915,1,0,0:0:0:0:
192,192,124042,1,0,0:0:0:0:
320,192,124042,1,0,0:0:0:0:
448,192,124042,1,0,0:0:0:0:
320,192,124170,1,0,0:0:0:0:
64,192,124170,1,0,0:0:0:0:
64,192,124297,1,0,0:0:0:0:
192,192,124297,1,0,0:0:0:0:
320,192,124297,1,0,0:0:0:0:
448,192,124424,1,0,0:0:0:0:
448,192,124551,1,0,0:0:0:0:
192,192,124551,1,0,0:0:0:0:
64,192,124551,1,0,0:0:0:0:
64,192,124678,1,0,0:0:0:0:
320,192,124678,1,0,0:0:0:0:
448,192,124805,1,0,0:0:0:0:
192,192,124805,1,0,0:0:0:0:
320,192,124805,1,0,0:0:0:0:
192,192,124932,1,0,0:0:0:0:
448,192,125059,1,0,0:0:0:0:
320,192,125059,1,0,0:0:0:0:
64,192,125059,1,0,0:0:0:0:
192,192,125186,1,0,0:0:0:0:
448,192,125186,1,0,0:0:0:0:
64,192,125186,1,0,0:0:0:0:
320,192,125314,1,0,0:0:0:0:
64,192,125314,1,0,0:0:0:0:
448,192,125377,1,0,0:0:0:0:
192,192,125441,1,0,0:0:0:0:
320,192,125504,1,0,0:0:0:0:
64,192,125568,1,0,0:0:0:0:
192,192,125568,1,0,0:0:0:0:
448,192,125568,1,0,0:0:0:0:
320,192,125695,1,0,0:0:0:0:
64,192,125822,1,0,0:0:0:0:
320,192,125822,1,0,0:0:0:0:
448,192,125949,1,0,0:0:0:0:
192,192,125949,1,0,0:0:0:0:
320,192,126076,1,0,0:0:0:0:
192,192,126076,1,0,0:0:0:0:
64,192,126076,1,0,0:0:0:0:
64,192,126203,1,0,0:0:0:0:
192,192,126331,1,0,0:0:0:0:
448,192,126331,1,0,0:0:0:0:
320,192,126331,1,0,0:0:0:0:
320,192,126458,1,0,0:0:0:0:
64,192,126458,1,0,0:0:0:0:
64,192,126585,1,0,0:0:0:0:
192,192,126585,1,0,0:0:0:0:
448,192,126585,1,0,0:0:0:0:
192,192,126712,1,0,0:0:0:0:
320,192,126712,1,0,0:0:0:0:
64,192,126839,1,0,0:0:0:0:
448,192,126839,1,0,0:0:0:0:
320,192,126839,1,0,0:0:0:0:
320,192,126966,1,0,0:0:0:0:
192,192,126966,1,0,0:0:0:0:
64,192,127093,1,0,0:0:0:0:
192,192,127093,1,0,0:0:0:0:
320,192,127093,1,0,0:0:0:0:
64,192,127220,1,0,0:0:0:0:
448,192,127220,1,0,0:0:0:0:
320,192,127347,1,0,0:0:0:0:
192,192,127411,1,0,0:0:0:0:
64,192,127475,1,0,0:0:0:0:
448,192,127538,1,0,0:0:0:0:
192,192,127602,1,0,0:0:0:0:
64,192,127602,1,0,0:0:0:0:
320,192,127602,1,0,0:0:0:0:
320,192,127729,1,0,0:0:0:0:
64,192,127856,1,0,0:0:0:0:
192,192,127856,1,0,0:0:0:0:
448,192,127856,1,0,0:0:0:0:
64,192,127983,1,0,0:0:0:0:
192,192,127983,1,0,0:0:0:0:
448,192,127983,1,0,0:0:0:0:
64,192,128110,1,0,0:0:0:0:
192,192,128110,1,0,0:0:0:0:
320,192,128110,1,0,0:0:0:0:
448,192,128237,128,0,128364:0:0:0:0:
320,192,128237,128,0,128364:0:0:0:0:
192,192,128364,1,0,0:0:0:0:
192,192,128492,1,0,0:0:0:0:
64,192,128619,1,0,0:0:0:0:
320,192,128619,1,0,0:0:0:0:
448,192,128619,1,0,0:0:0:0:
64,192,128746,1,0,0:0:0:0:
192,192,128746,1,0,0:0:0:0:
64,192,128873,1,0,0:0:0:0:
320,192,128873,1,0,0:0:0:0:
192,192,128873,1,0,0:0:0:0:
64,192,129000,1,0,0:0:0:0:
192,192,129000,1,0,0:0:0:0:
320,192,129000,1,0,0:0:0:0:
64,192,129127,1,0,0:0:0:0:
320,192,129127,1,0,0:0:0:0:
448,192,129127,1,0,0:0:0:0:
64,192,129254,1,0,0:0:0:0:
192,192,129254,1,0,0:0:0:0:
448,192,129254,1,0,0:0:0:0:
448,192,129381,1,0,0:0:0:0:
320,192,129381,1,0,0:0:0:0:
64,192,129445,1,0,0:0:0:0:
192,192,129508,1,0,0:0:0:0:
320,192,129572,1,0,0:0:0:0:
448,192,129636,1,0,0:0:0:0:
192,192,129636,1,0,0:0:0:0:
64,192,129636,1,0,0:0:0:0:
192,192,129763,1,0,0:0:0:0:
320,192,129763,1,0,0:0:0:0:
192,192,129890,1,0,0:0:0:0:
320,192,129890,1,0,0:0:0:0:
320,192,130017,1,0,0:0:0:0:
192,192,130017,1,0,0:0:0:0:
448,192,130144,1,0,0:0:0:0:
192,192,130144,1,0,0:0:0:0:
64,192,130144,1,0,0:0:0:0:
320,192,130271,1,0,0:0:0:0:
448,192,130271,1,0,0:0:0:0:
192,192,130398,1,0,0:0:0:0:
64,192,130398,1,0,0:0:0:0:
64,192,130525,1,0,0:0:0:0:
320,192,130525,1,0,0:0:0:0:
448,192,130525,1,0,0:0:0:0:
192,192,130653,1,0,0:0:0:0:
320,192,130653,1,0,0:0:0:0:
448,192,130653,1,0,0:0:0:0:
64,192,130780,1,0,0:0:0:0:
192,192,130780,1,0,0:0:0:0:
64,192,130907,1,0,0:0:0:0:
320,192,130907,1,0,0:0:0:0:
448,192,130907,1,0,0:0:0:0:
320,192,131034,1,0,0:0:0:0:
192,192,131034,1,0,0:0:0:0:
64,192,131161,1,0,0:0:0:0:
192,192,131161,1,0,0:0:0:0:
448,192,131161,1,0,0:0:0:0:
320,192,131288,1,0,0:0:0:0:
448,192,131288,1,0,0:0:0:0:
192,192,131415,1,0,0:0:0:0:
64,192,131415,1,0,0:0:0:0:
448,192,131479,1,0,0:0:0:0:
320,192,131542,1,0,0:0:0:0:
192,192,131606,1,0,0:0:0:0:
64,192,131670,1,0,0:0:0:0:
320,192,131670,1,0,0:0:0:0:
448,192,131670,1,0,0:0:0:0:
448,192,131797,1,0,0:0:0:0:
192,192,131797,1,0,0:0:0:0:
320,192,131797,1,0,0:0:0:0:
192,192,131924,1,0,0:0:0:0:
448,192,131924,1,0,0:0:0:0:
320,192,131924,1,0,0:0:0:0:
448,192,132051,1,0,0:0:0:0:
192,192,132051,1,0,0:0:0:0:
320,192,132051,1,0,0:0:0:0:
192,192,132178,1,0,0:0:0:0:
320,192,132178,1,0,0:0:0:0:
448,192,132178,1,0,0:0:0:0:
320,192,132305,1,0,0:0:0:0:
64,192,132305,1,0,0:0:0:0:
64,192,132432,1,0,0:0:0:0:
192,192,132432,1,0,0:0:0:0:
448,192,132559,1,0,0:0:0:0:
448,192,132686,1,0,0:0:0:0:
192,192,132686,1,0,0:0:0:0:
64,192,132686,1,0,0:0:0:0:
64,192,132814,1,0,0:0:0:0:
320,192,132814,1,0,0:0:0:0:
448,192,132941,1,0,0:0:0:0:
192,192,132941,1,0,0:0:0:0:
320,192,132941,1,0,0:0:0:0:
192,192,133068,1,0,0:0:0:0:
64,192,133068,1,0,0:0:0:0:
448,192,133195,1,0,0:0:0:0:
320,192,133195,1,0,0:0:0:0:
64,192,133195,1,0,0:0:0:0:
448,192,133322,1,0,0:0:0:0:
64,192,133322,1,0,0:0:0:0:
192,192,133386,1,0,0:0:0:0:
320,192,133449,1,0,0:0:0:0:
448,192,133449,1,0,0:0:0:0:
192,192,133513,1,0,0:0:0:0:
64,192,133576,1,0,0:0:0:0:
320,192,133640,1,0,0:0:0:0:
64,192,133703,1,0,0:0:0:0:
192,192,133703,1,0,0:0:0:0:
448,192,133703,1,0,0:0:0:0:
320,192,133831,1,0,0:0:0:0:
192,192,133958,1,0,0:0:0:0:
64,192,133958,1,0,0:0:0:0:
320,192,134085,1,0,0:0:0:0:
448,192,134085,1,0,0:0:0:0:
320,192,134212,1,0,0:0:0:0:
192,192,134212,1,0,0:0:0:0:
64,192,134212,1,0,0:0:0:0:
64,192,134339,1,0,0:0:0:0:
192,192,134466,1,0,0:0:0:0:
448,192,134466,1,0,0:0:0:0:
320,192,134466,1,0,0:0:0:0:
320,192,134593,1,0,0:0:0:0:
64,192,134593,1,0,0:0:0:0:
64,192,134720,1,0,0:0:0:0:
192,192,134720,1,0,0:0:0:0:
448,192,134720,1,0,0:0:0:0:
192,192,134847,1,0,0:0:0:0:
320,192,134847,1,0,0:0:0:0:
64,192,134975,1,0,0:0:0:0:
448,192,134975,1,0,0:0:0:0:
320,192,134975,1,0,0:0:0:0:
320,192,135102,1,0,0:0:0:0:
192,192,135102,1,0,0:0:0:0:
64,192,135229,1,0,0:0:0:0:
192,192,135229,1,0,0:0:0:0:
320,192,135229,1,0,0:0:0:0:
64,192,135356,1,0,0:0:0:0:
448,192,135356,1,0,0:0:0:0:
320,192,135483,1,0,0:0:0:0:
448,192,135483,1,0,0:0:0:0:
192,192,135547,1,0,0:0:0:0:
64,192,135610,1,0,0:0:0:0:
448,192,135674,1,0,0:0:0:0:
192,192,135737,1,0,0:0:0:0:
64,192,135737,1,0,0:0:0:0:
320,192,135737,1,0,0:0:0:0:
320,192,135864,1,0,0:0:0:0:
64,192,135992,1,0,0:0:0:0:
192,192,135992,1,0,0:0:0:0:
448,192,135992,1,0,0:0:0:0:
64,192,136119,1,0,0:0:0:0:
192,192,136119,1,0,0:0:0:0:
448,192,136119,1,0,0:0:0:0:
64,192,136246,1,0,0:0:0:0:
192,192,136246,1,0,0:0:0:0:
320,192,136246,1,0,0:0:0:0:
448,192,136373,128,0,136500:0:0:0:0:
320,192,136373,128,0,136500:0:0:0:0:
192,192,136500,1,0,0:0:0:0:
192,192,136627,1,0,0:0:0:0:
64,192,136754,1,0,0:0:0:0:
448,192,136754,1,0,0:0:0:0:
320,192,136754,1,0,0:0:0:0:
192,192,136881,1,0,0:0:0:0:
320,192,136881,1,0,0:0:0:0:
320,192,137008,1,0,0:0:0:0:
64,192,137008,1,0,0:0:0:0:
192,192,137008,1,0,0:0:0:0:
64,192,137136,1,0,0:0:0:0:
320,192,137136,1,0,0:0:0:0:
192,192,137263,1,0,0:0:0:0:
448,192,137263,1,0,0:0:0:0:
192,192,137390,1,0,0:0:0:0:
448,192,137390,1,0,0:0:0:0:
192,192,137517,1,0,0:0:0:0:
64,192,137517,1,0,0:0:0:0:
192,192,137644,1,0,0:0:0:0:
448,192,137644,1,0,0:0:0:0:
448,192,137771,1,0,0:0:0:0:
64,192,137771,1,0,0:0:0:0:
192,192,137898,1,0,0:0:0:0:
320,192,138025,1,0,0:0:0:0:
192,192,138153,1,0,0:0:0:0:
64,192,138280,1,0,0:0:0:0:
448,192,138280,1,0,0:0:0:0:
192,192,138407,1,0,0:0:0:0:
320,192,138534,1,0,0:0:0:0:
192,192,138661,1,0,0:0:0:0:
64,192,138788,1,0,0:0:0:0:
448,192,138788,1,0,0:0:0:0:
192,192,138915,1,0,0:0:0:0:
320,192,139042,1,0,0:0:0:0:
192,192,139170,1,0,0:0:0:0:
64,192,139297,1,0,0:0:0:0:
448,192,139297,1,0,0:0:0:0:
320,192,139360,1,0,0:0:0:0:
192,192,139424,1,0,0:0:0:0:
64,192,139487,1,0,0:0:0:0:
320,192,139551,1,0,0:0:0:0:
448,192,139614,1,0,0:0:0:0:
192,192,139678,1,0,0:0:0:0:
320,192,139742,1,0,0:0:0:0:
64,192,139805,1,0,0:0:0:0:
448,192,139805,1,0,0:0:0:0:
320,192,139932,1,0,0:0:0:0:
64,192,139932,1,0,0:0:0:0:
320,192,140059,1,0,0:0:0:0:
192,192,140186,1,0,0:0:0:0:
64,192,140186,1,0,0:0:0:0:
64,192,140313,1,0,0:0:0:0:
320,192,140313,1,0,0:0:0:0:
448,192,140313,1,0,0:0:0:0:
192,192,140440,1,0,0:0:0:0:
64,192,140567,1,0,0:0:0:0:
448,192,140567,1,0,0:0:0:0:
448,192,140694,1,0,0:0:0:0:
192,192,140821,1,0,0:0:0:0:
320,192,140821,1,0,0:0:0:0:
448,192,140949,1,0,0:0:0:0:
448,192,141076,1,0,0:0:0:0:
448,192,141203,1,0,0:0:0:0:
320,192,141330,1,0,0:0:0:0:
64,192,141330,1,0,0:0:0:0:
192,192,141330,1,0,0:0:0:0:
192,192,141457,1,0,0:0:0:0:
448,192,141457,1,0,0:0:0:0:
64,192,141584,1,0,0:0:0:0:
320,192,141584,1,0,0:0:0:0:
192,192,141711,1,0,0:0:0:0:
192,192,141838,1,0,0:0:0:0:
448,192,141838,1,0,0:0:0:0:
64,192,141966,1,0,0:0:0:0:
320,192,141966,1,0,0:0:0:0:
320,192,142093,1,0,0:0:0:0:
192,192,142220,1,0,0:0:0:0:
64,192,142220,1,0,0:0:0:0:
64,192,142347,1,0,0:0:0:0:
320,192,142347,1,0,0:0:0:0:
448,192,142347,1,0,0:0:0:0:
320,192,142474,1,0,0:0:0:0:
192,192,142601,1,0,0:0:0:0:
448,192,142601,1,0,0:0:0:0:
192,192,142728,1,0,0:0:0:0:
64,192,142855,1,0,0:0:0:0:
320,192,142855,1,0,0:0:0:0:
192,192,142982,1,0,0:0:0:0:
192,192,143110,1,0,0:0:0:0:
192,192,143237,1,0,0:0:0:0:
64,192,143364,1,0,0:0:0:0:
320,192,143364,1,0,0:0:0:0:
448,192,143364,1,0,0:0:0:0:
192,192,143491,1,0,0:0:0:0:
448,192,143491,1,0,0:0:0:0:
320,192,143618,1,0,0:0:0:0:
64,192,143618,1,0,0:0:0:0:
192,192,143745,1,0,0:0:0:0:
192,192,143872,1,0,0:0:0:0:
448,192,143872,1,0,0:0:0:0:
320,192,143999,1,0,0:0:0:0:
320,192,144127,1,0,0:0:0:0:
64,192,144127,1,0,0:0:0:0:
320,192,144254,1,0,0:0:0:0:
448,192,144381,1,0,0:0:0:0:
192,192,144381,1,0,0:0:0:0:
64,192,144381,1,0,0:0:0:0:
192,192,144508,1,0,0:0:0:0:
320,192,144508,1,0,0:0:0:0:
448,192,144635,1,0,0:0:0:0:
64,192,144635,1,0,0:0:0:0:
192,192,144762,1,0,0:0:0:0:
320,192,144762,1,0,0:0:0:0:
320,192,144889,1,0,0:0:0:0:
448,192,144889,1,0,0:0:0:0:
192,192,145016,128,0,145143:0:0:0:0:
64,192,145016,128,0,145143:0:0:0:0:
320,192,145143,1,0,0:0:0:0:
448,192,145271,1,0,0:0:0:0:
192,192,145271,1,0,0:0:0:0:
64,192,145398,1,0,0:0:0:0:
320,192,145398,1,0,0:0:0:0:
448,192,145398,1,0,0:0:0:0:
192,192,145525,1,0,0:0:0:0:
64,192,145652,1,0,0:0:0:0:
448,192,145652,1,0,0:0:0:0:
448,192,145779,1,0,0:0:0:0:
64,192,145779,1,0,0:0:0:0:
192,192,145906,1,0,0:0:0:0:
64,192,145906,1,0,0:0:0:0:
320,192,146033,1,0,0:0:0:0:
320,192,146160,1,0,0:0:0:0:
448,192,146160,1,0,0:0:0:0:
192,192,146288,1,0,0:0:0:0:
64,192,146288,1,0,0:0:0:0:
64,192,146415,1,0,0:0:0:0:
320,192,146415,1,0,0:0:0:0:
448,192,146415,1,0,0:0:0:0:
192,192,146542,1,0,0:0:0:0:
64,192,146669,1,0,0:0:0:0:
448,192,146669,1,0,0:0:0:0:
192,192,146796,1,0,0:0:0:0:
64,192,146923,1,0,0:0:0:0:
192,192,146923,1,0,0:0:0:0:
320,192,147050,128,0,147177:0:0:0:0:
448,192,147050,128,0,147177:0:0:0:0:
192,192,147177,1,0,0:0:0:0:
320,192,147305,1,0,0:0:0:0:
448,192,147432,1,0,0:0:0:0:
320,192,147432,1,0,0:0:0:0:
64,192,147432,1,0,0:0:0:0:
192,192,147559,1,0,0:0:0:0:
192,192,147686,1,0,0:0:0:0:
192,192,147813,1,0,0:0:0:0:
64,192,147940,1,0,0:0:0:0:
448,192,147940,1,0,0:0:0:0:
320,192,148067,1,0,0:0:0:0:
192,192,148067,1,0,0:0:0:0:
320,192,148194,1,0,0:0:0:0:
192,192,148321,1,0,0:0:0:0:
64,192,148321,1,0,0:0:0:0:
64,192,148449,1,0,0:0:0:0:
320,192,148449,1,0,0:0:0:0:
448,192,148449,1,0,0:0:0:0:
192,192,148576,1,0,0:0:0:0:
64,192,148703,1,0,0:0:0:0:
448,192,148703,1,0,0:0:0:0:
448,192,148830,1,0,0:0:0:0:
192,192,148957,1,0,0:0:0:0:
320,192,148957,1,0,0:0:0:0:
448,192,149084,1,0,0:0:0:0:
448,192,149211,1,0,0:0:0:0:
448,192,149338,1,0,0:0:0:0:
320,192,149466,1,0,0:0:0:0:
64,192,149466,1,0,0:0:0:0:
192,192,149466,1,0,0:0:0:0:
192,192,149593,1,0,0:0:0:0:
448,192,149593,1,0,0:0:0:0:
64,192,149720,1,0,0:0:0:0:
320,192,149720,1,0,0:0:0:0:
192,192,149847,1,0,0:0:0:0:
192,192,149974,1,0,0:0:0:0:
448,192,149974,1,0,0:0:0:0:
64,192,150101,1,0,0:0:0:0:
320,192,150101,1,0,0:0:0:0:
320,192,150228,1,0,0:0:0:0:
192,192,150355,1,0,0:0:0:0:
64,192,150355,1,0,0:0:0:0:
64,192,150482,1,0,0:0:0:0:
320,192,150482,1,0,0:0:0:0:
448,192,150482,1,0,0:0:0:0:
320,192,150610,1,0,0:0:0:0:
192,192,150737,1,0,0:0:0:0:
448,192,150737,1,0,0:0:0:0:
192,192,150864,1,0,0:0:0:0:
64,192,150991,1,0,0:0:0:0:
320,192,150991,1,0,0:0:0:0:
192,192,151118,1,0,0:0:0:0:
192,192,151245,1,0,0:0:0:0:
192,192,151372,1,0,0:0:0:0:
64,192,151499,1,0,0:0:0:0:
320,192,151499,1,0,0:0:0:0:
448,192,151499,1,0,0:0:0:0:
192,192,151627,1,0,0:0:0:0:
448,192,151627,1,0,0:0:0:0:
320,192,151754,1,0,0:0:0:0:
64,192,151754,1,0,0:0:0:0:
192,192,151881,1,0,0:0:0:0:
192,192,152008,1,0,0:0:0:0:
448,192,152008,1,0,0:0:0:0:
320,192,152135,1,0,0:0:0:0:
320,192,152262,1,0,0:0:0:0:
64,192,152262,1,0,0:0:0:0:
320,192,152389,1,0,0:0:0:0:
448,192,152516,1,0,0:0:0:0:
192,192,152516,1,0,0:0:0:0:
64,192,152516,1,0,0:0:0:0:
192,192,152643,1,0,0:0:0:0:
320,192,152643,1,0,0:0:0:0:
448,192,152771,1,0,0:0:0:0:
64,192,152771,1,0,0:0:0:0:
192,192,152898,1,0,0:0:0:0:
320,192,152898,1,0,0:0:0:0:
320,192,153025,1,0,0:0:0:0:
448,192,153025,1,0,0:0:0:0:
192,192,153152,128,0,153279:0:0:0:0:
64,192,153152,128,0,153279:0:0:0:0:
320,192,153279,1,0,0:0:0:0:
448,192,153406,1,0,0:0:0:0:
192,192,153406,1,0,0:0:0:0:
64,192,153533,1,0,0:0:0:0:
320,192,153533,1,0,0:0:0:0:
448,192,153533,1,0,0:0:0:0:
192,192,153660,1,0,0:0:0:0:
64,192,153788,1,0,0:0:0:0:
448,192,153788,1,0,0:0:0:0:
448,192,153915,1,0,0:0:0:0:
64,192,153915,1,0,0:0:0:0:
192,192,154042,1,0,0:0:0:0:
64,192,154042,1,0,0:0:0:0:
320,192,154169,1,0,0:0:0:0:
320,192,154296,1,0,0:0:0:0:
448,192,154296,1,0,0:0:0:0:
192,192,154423,1,0,0:0:0:0:
64,192,154423,1,0,0:0:0:0:
64,192,154550,1,0,0:0:0:0:
448,192,154550,1,0,0:0:0:0:
320,192,154677,1,0,0:0:0:0:
192,192,154805,1,0,0:0:0:0:
192,192,154932,1,0,0:0:0:0:
448,192,155059,1,0,0:0:0:0:
64,192,155059,1,0,0:0:0:0:
448,192,155186,1,0,0:0:0:0:
64,192,155186,1,0,0:0:0:0:
192,192,155313,1,0,0:0:0:0:
64,192,155313,1,0,0:0:0:0:
320,192,155440,1,0,0:0:0:0:
448,192,155567,1,0,0:0:0:0:
64,192,155567,1,0,0:0:0:0:
192,192,155694,1,0,0:0:0:0:
320,192,155821,1,0,0:0:0:0:
192,192,155949,1,0,0:0:0:0:
320,192,156076,1,0,0:0:0:0:
448,192,156076,1,0,0:0:0:0:
192,192,156203,1,0,0:0:0:0:
64,192,156330,1,0,0:0:0:0:
320,192,156330,1,0,0:0:0:0:
192,192,156457,1,0,0:0:0:0:
64,192,156457,1,0,0:0:0:0:
320,192,156584,1,0,0:0:0:0:
448,192,156584,1,0,0:0:0:0:
64,192,156838,1,0,0:0:0:0:
320,192,156838,1,0,0:0:0:0:
192,192,156966,1,0,0:0:0:0:
448,192,156966,128,0,157347:0:0:0:0:
64,192,157093,1,0,0:0:0:0:
192,192,157093,1,0,0:0:0:0:
320,192,157220,1,0,0:0:0:0:
320,192,157347,1,0,0:0:0:0:
320,192,157474,1,0,0:0:0:0:
192,192,157601,1,0,0:0:0:0:
64,192,157601,1,0,0:0:0:0:
320,192,157728,1,0,0:0:0:0:
192,192,157855,1,0,0:0:0:0:
64,192,157855,1,0,0:0:0:0:
320,192,158110,1,0,0:0:0:0:
448,192,158110,1,0,0:0:0:0:
320,192,158237,1,0,0:0:0:0:
320,192,158364,1,0,0:0:0:0:
192,192,158491,1,0,0:0:0:0:
448,192,158491,128,0,158872:0:0:0:0:
192,192,158618,1,0,0:0:0:0:
64,192,158618,1,0,0:0:0:0:
320,192,158745,1,0,0:0:0:0:
320,192,158872,1,0,0:0:0:0:
64,192,158872,1,0,0:0:0:0:
192,192,158999,1,0,0:0:0:0:
64,192,159127,1,0,0:0:0:0:
320,192,159127,1,0,0:0:0:0:
192,192,159254,1,0,0:0:0:0:
448,192,159254,1,0,0:0:0:0:
192,192,159381,1,0,0:0:0:0:
192,192,159508,1,0,0:0:0:0:
64,192,159635,1,0,0:0:0:0:
448,192,159635,1,0,0:0:0:0:
320,192,159699,1,0,0:0:0:0:
192,192,159762,1,0,0:0:0:0:
64,192,159826,1,0,0:0:0:0:
448,192,159889,1,0,0:0:0:0:
320,192,159889,1,0,0:0:0:0:
192,192,159953,1,0,0:0:0:0:
448,192,160016,1,0,0:0:0:0:
320,192,160059,1,0,0:0:0:0:
64,192,160059,1,0,0:0:0:0:
192,192,160143,1,0,0:0:0:0:
64,192,160143,1,0,0:0:0:0:
320,192,160271,1,0,0:0:0:0:
448,192,160271,1,0,0:0:0:0:
320,192,160398,1,0,0:0:0:0:
64,192,160398,1,0,0:0:0:0:
192,192,160525,1,0,0:0:0:0:
448,192,160525,1,0,0:0:0:0:
64,192,160652,1,0,0:0:0:0:
192,192,160652,1,0,0:0:0:0:
320,192,160652,1,0,0:0:0:0:
320,192,160779,1,0,0:0:0:0:
448,192,160779,1,0,0:0:0:0:
192,192,160906,1,0,0:0:0:0:
64,192,160906,1,0,0:0:0:0:
320,192,161033,1,0,0:0:0:0:
448,192,161033,1,0,0:0:0:0:
448,192,161160,1,0,0:0:0:0:
192,192,161160,1,0,0:0:0:0:
320,192,161288,1,0,0:0:0:0:
64,192,161288,1,0,0:0:0:0:
192,192,161415,1,0,0:0:0:0:
64,192,161542,1,0,0:0:0:0:
64,192,161669,1,0,0:0:0:0:
320,192,161669,1,0,0:0:0:0:
448,192,161669,1,0,0:0:0:0:
192,192,161796,1,0,0:0:0:0:
448,192,161923,1,0,0:0:0:0:
320,192,161923,1,0,0:0:0:0:
320,192,162050,1,0,0:0:0:0:
192,192,162177,1,0,0:0:0:0:
64,192,162177,1,0,0:0:0:0:
320,192,162304,1,0,0:0:0:0:
320,192,162432,1,0,0:0:0:0:
64,192,162432,1,0,0:0:0:0:
320,192,162559,1,0,0:0:0:0:
448,192,162559,1,0,0:0:0:0:
192,192,162686,1,0,0:0:0:0:
448,192,162686,1,0,0:0:0:0:
64,192,162686,1,0,0:0:0:0:
64,192,162813,1,0,0:0:0:0:
320,192,162813,1,0,0:0:0:0:
192,192,162940,1,0,0:0:0:0:
448,192,162940,1,0,0:0:0:0:
320,192,163067,1,0,0:0:0:0:
320,192,163194,1,0,0:0:0:0:
448,192,163194,1,0,0:0:0:0:
192,192,163321,1,0,0:0:0:0:
64,192,163321,1,0,0:0:0:0:
320,192,163449,1,0,0:0:0:0:
64,192,163449,1,0,0:0:0:0:
192,192,163576,1,0,0:0:0:0:
448,192,163576,1,0,0:0:0:0:
320,192,163703,1,0,0:0:0:0:
448,192,163703,1,0,0:0:0:0:
64,192,163703,1,0,0:0:0:0:
192,192,163830,1,0,0:0:0:0:
192,192,163957,1,0,0:0:0:0:
192,192,164084,1,0,0:0:0:0:
320,192,164211,1,0,0:0:0:0:
448,192,164211,1,0,0:0:0:0:
320,192,164338,1,0,0:0:0:0:
320,192,164466,1,0,0:0:0:0:
64,192,164466,1,0,0:0:0:0:
64,192,164593,1,0,0:0:0:0:
192,192,164593,1,0,0:0:0:0:
320,192,164720,1,0,0:0:0:0:
192,192,164720,1,0,0:0:0:0:
448,192,164720,1,0,0:0:0:0:
64,192,164847,1,0,0:0:0:0:
64,192,164974,1,0,0:0:0:0:
320,192,164974,1,0,0:0:0:0:
320,192,165101,1,0,0:0:0:0:
192,192,165101,1,0,0:0:0:0:
64,192,165228,1,0,0:0:0:0:
192,192,165228,1,0,0:0:0:0:
448,192,165228,1,0,0:0:0:0:
320,192,165355,1,0,0:0:0:0:
320,192,165482,1,0,0:0:0:0:
320,192,165610,1,0,0:0:0:0:
192,192,165737,1,0,0:0:0:0:
64,192,165737,1,0,0:0:0:0:
448,192,165737,1,0,0:0:0:0:
320,192,165864,1,0,0:0:0:0:
192,192,165991,1,0,0:0:0:0:
448,192,165991,1,0,0:0:0:0:
64,192,166118,1,0,0:0:0:0:
320,192,166245,1,0,0:0:0:0:
64,192,166245,1,0,0:0:0:0:
320,192,166372,1,0,0:0:0:0:
320,192,166499,1,0,0:0:0:0:
192,192,166627,1,0,0:0:0:0:
448,192,166627,1,0,0:0:0:0:
192,192,166754,1,0,0:0:0:0:
64,192,166754,1,0,0:0:0:0:
320,192,166754,1,0,0:0:0:0:
448,192,166881,1,0,0:0:0:0:
192,192,167008,1,0,0:0:0:0:
192,192,167135,1,0,0:0:0:0:
64,192,167262,1,0,0:0:0:0:
320,192,167262,1,0,0:0:0:0:
192,192,167389,1,0,0:0:0:0:
448,192,167389,1,0,0:0:0:0:
192,192,167516,1,0,0:0:0:0:
320,192,167516,1,0,0:0:0:0:
192,192,167643,1,0,0:0:0:0:
64,192,167771,1,0,0:0:0:0:
448,192,167771,1,0,0:0:0:0:
320,192,167771,1,0,0:0:0:0:
192,192,167834,1,0,0:0:0:0:
64,192,167898,1,0,0:0:0:0:
320,192,167961,1,0,0:0:0:0:
192,192,168025,1,0,0:0:0:0:
448,192,168088,1,0,0:0:0:0:
320,192,168152,1,0,0:0:0:0:
448,192,168216,1,0,0:0:0:0:
192,192,168279,1,0,0:0:0:0:
64,192,168279,1,0,0:0:0:0:
320,192,168406,1,0,0:0:0:0:
448,192,168406,1,0,0:0:0:0:
320,192,168533,1,0,0:0:0:0:
64,192,168533,1,0,0:0:0:0:
192,192,168660,1,0,0:0:0:0:
448,192,168660,1,0,0:0:0:0:
64,192,168788,1,0,0:0:0:0:
192,192,168788,1,0,0:0:0:0:
320,192,168788,1,0,0:0:0:0:
320,192,168915,1,0,0:0:0:0:
448,192,168915,1,0,0:0:0:0:
192,192,169042,1,0,0:0:0:0:
64,192,169042,1,0,0:0:0:0:
320,192,169169,1,0,0:0:0:0:
448,192,169169,1,0,0:0:0:0:
448,192,169296,1,0,0:0:0:0:
192,192,169296,1,0,0:0:0:0:
320,192,169423,1,0,0:0:0:0:
64,192,169423,1,0,0:0:0:0:
448,192,169550,1,0,0:0:0:0:
192,192,169677,1,0,0:0:0:0:
64,192,169804,1,0,0:0:0:0:
320,192,169804,1,0,0:0:0:0:
448,192,169804,1,0,0:0:0:0:
192,192,169932,1,0,0:0:0:0:
448,192,170059,1,0,0:0:0:0:
320,192,170059,1,0,0:0:0:0:
320,192,170186,1,0,0:0:0:0:
192,192,170313,1,0,0:0:0:0:
64,192,170313,1,0,0:0:0:0:
192,192,170440,1,0,0:0:0:0:
320,192,170567,1,0,0:0:0:0:
320,192,170694,1,0,0:0:0:0:
192,192,170821,1,0,0:0:0:0:
192,192,170949,1,0,0:0:0:0:
320,192,170949,1,0,0:0:0:0:
64,192,171076,1,0,0:0:0:0:
448,192,171076,128,0,171330:0:0:0:0:
320,192,171330,1,0,0:0:0:0:
64,192,171330,1,0,0:0:0:0:
192,192,171457,1,0,0:0:0:0:
448,192,171457,1,0,0:0:0:0:
64,192,171584,1,0,0:0:0:0:
320,192,171711,1,0,0:0:0:0:
64,192,171838,1,0,0:0:0:0:
448,192,171838,1,0,0:0:0:0:
192,192,171966,1,0,0:0:0:0:
64,192,172093,1,0,0:0:0:0:
448,192,172093,1,0,0:0:0:0:
320,192,172220,1,0,0:0:0:0:
64,192,172347,1,0,0:0:0:0:
192,192,172347,1,0,0:0:0:0:
64,192,172474,128,0,172601:0:0:0:0:
320,192,172474,1,0,0:0:0:0:
320,192,172601,1,0,0:0:0:0:
192,192,172728,1,0,0:0:0:0:
448,192,172728,1,0,0:0:0:0:
64,192,172855,1,0,0:0:0:0:
320,192,172855,1,0,0:0:0:0:
448,192,172855,1,0,0:0:0:0:
192,192,172982,128,0,173110:0:0:0:0:
64,192,173110,1,0,0:0:0:0:
320,192,173110,1,0,0:0:0:0:
192,192,173237,1,0,0:0:0:0:
448,192,173237,1,0,0:0:0:0:
192,192,173364,1,0,0:0:0:0:
64,192,173364,1,0,0:0:0:0:
320,192,173491,128,0,173618:0:0:0:0:
448,192,173491,1,0,0:0:0:0:
448,192,173618,1,0,0:0:0:0:
448,192,173745,1,0,0:0:0:0:
320,192,173872,1,0,0:0:0:0:
192,192,173872,1,0,0:0:0:0:
64,192,173872,1,0,0:0:0:0:
448,192,173999,128,0,174127:0:0:0:0:
320,192,174127,128,0,174635:0:0:0:0:
64,192,174127,1,0,0:0:0:0:
192,192,174254,1,0,0:0:0:0:
64,192,174381,1,0,0:0:0:0:
448,192,174381,1,0,0:0:0:0:
64,192,174508,1,0,0:0:0:0:
448,192,174635,128,0,174762:0:0:0:0:
192,192,174635,1,0,0:0:0:0:
64,192,174762,1,0,0:0:0:0:
320,192,174762,1,0,0:0:0:0:
64,192,174889,1,0,0:0:0:0:
192,192,174889,1,0,0:0:0:0:
448,192,174889,1,0,0:0:0:0:
320,192,175016,1,0,0:0:0:0:
448,192,175016,1,0,0:0:0:0:
192,192,175143,128,0,175271:0:0:0:0:
320,192,175271,128,0,175398:0:0:0:0:
448,192,175398,128,0,175652:0:0:0:0:
64,192,175398,1,0,0:0:0:0:
192,192,175525,1,0,0:0:0:0:
192,192,175652,1,0,0:0:0:0:
192,192,175779,1,0,0:0:0:0:
320,192,175906,128,0,176033:0:0:0:0:
448,192,175906,1,0,0:0:0:0:
64,192,175906,1,0,0:0:0:0:
448,192,176033,1,0,0:0:0:0:
192,192,176160,128,0,176542:0:0:0:0:
320,192,176160,1,0,0:0:0:0:
64,192,176288,1,0,0:0:0:0:
320,192,176415,1,0,0:0:0:0:
448,192,176415,1,0,0:0:0:0:
320,192,176542,1,0,0:0:0:0:
64,192,176669,128,0,176796:0:0:0:0:
192,192,176669,1,0,0:0:0:0:
448,192,176796,1,0,0:0:0:0:
192,192,176796,1,0,0:0:0:0:
320,192,176923,128,0,177050:0:0:0:0:
64,192,176923,1,0,0:0:0:0:
448,192,176923,1,0,0:0:0:0:
192,192,177050,1,0,0:0:0:0:
192,192,177177,128,0,177559:0:0:0:0:
448,192,177177,1,0,0:0:0:0:
320,192,177304,1,0,0:0:0:0:
64,192,177304,1,0,0:0:0:0:
64,192,177432,1,0,0:0:0:0:
448,192,177432,1,0,0:0:0:0:
320,192,177559,1,0,0:0:0:0:
448,192,177622,1,0,0:0:0:0:
64,192,177686,128,0,177940:0:0:0:0:
320,192,177813,1,0,0:0:0:0:
192,192,177940,1,0,0:0:0:0:
448,192,177940,1,0,0:0:0:0:
320,192,177940,1,0,0:0:0:0:
192,192,178067,1,0,0:0:0:0:
64,192,178194,128,0,178321:0:0:0:0:
320,192,178194,1,0,0:0:0:0:
320,192,178321,1,0,0:0:0:0:
448,192,178449,1,0,0:0:0:0:
64,192,178449,128,0,178576:0:0:0:0:
192,192,178576,1,0,0:0:0:0:
192,192,178703,1,0,0:0:0:0:
192,192,178830,1,0,0:0:0:0:
448,192,178830,1,0,0:0:0:0:
64,192,178957,1,0,0:0:0:0:
448,192,178957,1,0,0:0:0:0:
320,192,178957,128,0,179211:0:0:0:0:
64,192,179084,1,0,0:0:0:0:
192,192,179211,128,0,179974:0:0:0:0:
448,192,179211,1,0,0:0:0:0:
320,192,179338,1,0,0:0:0:0:
64,192,179338,1,0,0:0:0:0:
320,192,179466,1,0,0:0:0:0:
448,192,179466,1,0,0:0:0:0:
64,192,179593,1,0,0:0:0:0:
448,192,179593,1,0,0:0:0:0:
320,192,179720,1,0,0:0:0:0:
64,192,179847,1,0,0:0:0:0:
64,192,179974,1,0,0:0:0:0:
320,192,179974,1,0,0:0:0:0:
448,192,179974,1,0,0:0:0:0:
192,192,180101,1,0,0:0:0:0:
448,192,180228,1,0,0:0:0:0:
320,192,180228,1,0,0:0:0:0:
192,192,180355,1,0,0:0:0:0:
64,192,180355,1,0,0:0:0:0:
192,192,180482,1,0,0:0:0:0:
448,192,180482,128,0,180864:0:0:0:0:
320,192,180610,1,0,0:0:0:0:
320,192,180737,1,0,0:0:0:0:
192,192,180864,1,0,0:0:0:0:
448,192,180991,128,0,181372:0:0:0:0:
64,192,180991,1,0,0:0:0:0:
192,192,180991,1,0,0:0:0:0:
320,192,181118,1,0,0:0:0:0:
64,192,181245,1,0,0:0:0:0:
64,192,181372,1,0,0:0:0:0:
448,192,181499,128,0,181881:0:0:0:0:
320,192,181499,1,0,0:0:0:0:
192,192,181627,1,0,0:0:0:0:
192,192,181754,1,0,0:0:0:0:
192,192,181881,1,0,0:0:0:0:
320,192,181881,1,0,0:0:0:0:
320,192,182008,1,0,0:0:0:0:
448,192,182008,1,0,0:0:0:0:
64,192,182008,128,0,182262:0:0:0:0:
192,192,182135,1,0,0:0:0:0:
448,192,182262,1,0,0:0:0:0:
320,192,182262,128,0,182516:0:0:0:0:
192,192,182389,1,0,0:0:0:0:
64,192,182389,1,0,0:0:0:0:
448,192,182516,1,0,0:0:0:0:
192,192,182516,1,0,0:0:0:0:
320,192,182643,1,0,0:0:0:0:
320,192,182771,1,0,0:0:0:0:
192,192,182771,128,0,183279:0:0:0:0:
64,192,182898,1,0,0:0:0:0:
448,192,183025,1,0,0:0:0:0:
64,192,183025,1,0,0:0:0:0:
320,192,183025,1,0,0:0:0:0:
448,192,183152,1,0,0:0:0:0:
64,192,183279,128,0,183533:0:0:0:0:
320,192,183279,1,0,0:0:0:0:
192,192,183406,1,0,0:0:0:0:
192,192,183533,1,0,0:0:0:0:
448,192,183533,1,0,0:0:0:0:
320,192,183660,1,0,0:0:0:0:
448,192,183660,1,0,0:0:0:0:
64,192,183788,128,0,183915:0:0:0:0:
192,192,183788,1,0,0:0:0:0:
192,192,183915,1,0,0:0:0:0:
320,192,184042,1,0,0:0:0:0:
448,192,184042,1,0,0:0:0:0:
64,192,184042,1,0,0:0:0:0:
320,192,184169,1,0,0:0:0:0:
448,192,184296,1,0,0:0:0:0:
192,192,184296,128,0,184677:0:0:0:0:
64,192,184550,1,0,0:0:0:0:
320,192,184550,1,0,0:0:0:0:
448,192,184677,1,0,0:0:0:0:
320,192,184741,1,0,0:0:0:0:
192,192,184804,1,0,0:0:0:0:
64,192,184804,1,0,0:0:0:0:
320,192,184932,1,0,0:0:0:0:
448,192,184932,1,0,0:0:0:0:
448,192,185059,1,0,0:0:0:0:
64,192,185059,1,0,0:0:0:0:
192,192,185059,1,0,0:0:0:0:
192,192,185186,1,0,0:0:0:0:
320,192,185186,1,0,0:0:0:0:
64,192,185313,1,0,0:0:0:0:
320,192,185313,1,0,0:0:0:0:
192,192,185440,1,0,0:0:0:0:
448,192,185440,1,0,0:0:0:0:
448,192,185567,1,0,0:0:0:0:
320,192,185567,1,0,0:0:0:0:
192,192,185694,128,0,185821:0:0:0:0:
64,192,185694,128,0,185821:0:0:0:0:
320,192,185821,128,0,185949:0:0:0:0:
448,192,185949,1,0,0:0:0:0:
64,192,186076,1,0,0:0:0:0:
192,192,186076,1,0,0:0:0:0:
448,192,186076,1,0,0:0:0:0:
320,192,186203,1,0,0:0:0:0:
192,192,186330,1,0,0:0:0:0:
320,192,186393,128,0,186838:0:0:0:0:
64,192,186457,1,0,0:0:0:0:
192,192,186584,1,0,0:0:0:0:
448,192,186584,1,0,0:0:0:0:
64,192,186711,1,0,0:0:0:0:
448,192,186838,1,0,0:0:0:0:
192,192,186838,1,0,0:0:0:0:
320,192,186966,1,0,0:0:0:0:
64,192,186966,1,0,0:0:0:0:
448,192,187093,1,0,0:0:0:0:
64,192,187093,1,0,0:0:0:0:
192,192,187220,1,0,0:0:0:0:
448,192,187347,128,0,187855:0:0:0:0:
192,192,187474,1,0,0:0:0:0:
64,192,187601,1,0,0:0:0:0:
320,192,187601,1,0,0:0:0:0:
64,192,187728,1,0,0:0:0:0:
320,192,187728,1,0,0:0:0:0:
64,192,187855,1,0,0:0:0:0:
192,192,187855,1,0,0:0:0:0:
192,192,188110,128,0,188237:0:0:0:0:
448,192,188110,1,0,0:0:0:0:
64,192,188237,1,0,0:0:0:0:
320,192,188364,128,0,188491:0:0:0:0:
192,192,188491,1,0,0:0:0:0:
64,192,188618,1,0,0:0:0:0:
448,192,188618,1,0,0:0:0:0:
