osu file format v14

[General]
AudioFilename: audio.mp3
AudioLeadIn: 0
PreviewTime: 64406
Countdown: 0
SampleSet: Soft
StackLeniency: 0.7
Mode: 0
LetterboxInBreaks: 0
WidescreenStoryboard: 0

[Editor]
Bookmarks: 12406,17739,21739,23406,43073,44406,55073,171073,232573
DistanceSpacing: 1.5
BeatDivisor: 4
GridSize: 16
TimelineZoom: 1.199999

[Metadata]
Title:Killing Giants (feat. Richard Caddock)
TitleUnicode:Killing Giants (feat. Richard Caddock)
Artist:Puppet & Murtagh
ArtistUnicode:Puppet & Murtagh
Creator:Forzaken4K
Version:This is not goodbye.
Source:
Tags:Puppet Murtagh Killing Giants Richard Caddock
BeatmapID:1366135
BeatmapSetID:644613

[Difficulty]
HPDrainRate:7.2
CircleSize:4
OverallDifficulty:7
ApproachRate:9.2
SliderMultiplier:1.6
SliderTickRate:1

[Events]
//Background and Video events
0,0,"Killing Giants.png",0,0
//Break Periods
2,87073,95836
2,150606,161169
2,190273,192406
//Storyboard Layer 0 (Background)
//Storyboard Layer 1 (Fail)
//Storyboard Layer 2 (Pass)
//Storyboard Layer 3 (Foreground)
//Storyboard Sound Samples

[TimingPoints]
1740,333.333333333333,4,1,0,30,1,0
12406,-90.9090909090909,4,1,0,40,0,0
17739,-100,4,1,0,30,0,0
23406,-133.333333333333,4,2,0,20,0,0
44406,-83.3333333333333,4,1,1,50,0,0
45073,-90.9090909090909,4,1,1,50,0,0
46739,-90.9090909090909,4,1,2,50,0,0
47073,-83.3333333333333,4,1,1,50,0,0
47739,-90.9090909090909,4,1,1,50,0,0
49406,-90.9090909090909,4,1,2,50,0,0
49739,-83.3333333333333,4,1,1,50,0,0
50406,-90.9090909090909,4,1,1,50,0,0
52073,-90.9090909090909,4,1,2,50,0,0
52406,-83.3333333333333,4,1,1,50,0,0
53073,-90.9090909090909,4,1,1,50,0,0
54739,-90.9090909090909,4,1,2,50,0,0
55073,-76.9230769230769,4,1,1,50,0,0
55739,-83.3333333333333,4,1,1,50,0,0
57406,-83.3333333333333,4,1,2,50,0,0
57739,-76.9230769230769,4,1,1,50,0,0
58406,-83.3333333333333,4,1,1,50,0,0
60073,-83.3333333333333,4,1,2,50,0,0
60406,-76.9230769230769,4,1,1,50,0,0
61073,-83.3333333333333,4,1,1,50,0,0
62739,-83.3333333333333,4,1,2,50,0,0
63073,-76.9230769230769,4,1,1,50,0,0
63739,-83.3333333333333,4,1,1,50,0,0
65239,-83.3333333333333,4,1,3,50,0,0
65739,-71.4285714285714,4,1,1,50,0,1
66406,-76.9230769230769,4,1,1,50,0,1
68073,-76.9230769230769,4,1,2,50,0,1
68406,-71.4285714285714,4,1,1,50,0,1
69073,-76.9230769230769,4,1,1,50,0,1
70739,-76.9230769230769,4,1,2,50,0,1
71073,-71.4285714285714,4,1,1,50,0,1
71739,-76.9230769230769,4,1,1,50,0,1
73406,-76.9230769230769,4,1,2,50,0,1
73739,-76.9230769230769,4,1,1,50,0,1
76406,-66.6666666666667,4,1,1,60,0,1
77073,-71.4285714285714,4,1,1,60,0,1
78739,-71.4285714285714,4,1,2,60,0,1
79073,-66.6666666666667,4,1,1,60,0,1
79739,-71.4285714285714,4,1,1,60,0,1
81406,-71.4285714285714,4,1,2,60,0,1
81739,-66.6666666666667,4,1,1,60,0,1
82239,-71.4285714285714,4,1,1,60,0,1
84073,-71.4285714285714,4,1,2,60,0,1
84406,-66.6666666666667,4,1,1,60,0,1
85073,-71.4285714285714,4,1,1,60,0,1
87073,-71.4285714285714,4,1,1,60,0,0
97406,-100,4,1,0,30,0,0
100406,-100,4,1,0,35,0,0
103073,-100,4,1,0,40,0,0
105739,-100,4,1,0,45,0,0
107073,-100,4,1,1,20,0,0
107239,-100,4,1,1,25,0,0
107406,-100,4,1,1,30,0,0
107739,-100,4,1,1,40,0,0
108073,-100,4,1,1,50,0,0
108406,-66.6666666666667,4,3,1,55,0,0
108739,-66.6666666666667,4,3,2,60,0,0
109073,-100,4,3,2,60,0,0
109489,-100,4,3,2,5,0,0
109573,-100,4,3,1,60,0,0
109989,-100,4,3,2,5,0,0
110073,-133.333333333333,4,3,1,60,0,0
110323,-133.333333333333,4,3,2,5,0,0
110406,-80,4,3,2,60,0,0
110989,-80,4,3,2,5,0,0
111073,-100,4,3,1,60,0,0
111656,-100,4,3,2,5,0,0
111739,-100,4,3,2,60,0,0
112156,-100,4,3,2,5,0,0
112239,-100,4,3,1,60,0,0
112656,-100,4,3,2,5,0,0
112739,-133.333333333333,4,3,1,60,0,0
112989,-133.333333333333,4,3,2,5,0,0
113073,-80,4,3,2,60,0,0
113656,-80,4,3,2,5,0,0
113739,-100,4,1,1,55,0,0
114073,-100,4,1,1,50,0,0
116073,-100,4,1,2,50,0,0
116406,-100,4,1,1,50,0,0
116989,-100,4,1,1,5,0,0
117073,-100,4,1,1,50,0,0
117489,-100,4,1,1,5,0,0
117573,-100,4,1,1,50,0,0
118406,-100,4,1,1,25,0,0
118739,-100,4,1,1,30,0,0
118906,-100,4,1,1,40,0,0
119073,-66.6666666666667,4,3,1,55,0,0
119406,-66.6666666666667,4,3,2,60,0,0
119739,-100,4,3,2,60,0,0
120156,-100,4,3,2,5,0,0
120239,-100,4,3,1,60,0,0
120656,-100,4,3,2,5,0,0
120739,-133.333333333333,4,3,1,60,0,0
120989,-133.333333333333,4,3,2,5,0,0
121073,-79.9999999999999,4,3,2,60,0,0
121656,-79.9999999999999,4,3,2,5,0,0
121739,-100,4,3,1,60,0,0
122323,-100,4,3,2,5,0,0
122406,-100,4,3,2,60,0,0
122823,-100,4,3,2,5,0,0
122906,-100,4,3,1,60,0,0
123323,-100,4,3,2,5,0,0
123406,-133.333333333333,4,3,1,60,0,0
123656,-133.333333333333,4,3,2,5,0,0
123739,-79.9999999999999,4,3,2,60,0,0
124323,-79.9999999999999,4,3,2,5,0,0
124406,-100,4,1,1,55,0,0
124739,-100,4,1,1,50,0,0
126739,-100,4,1,2,50,0,0
127073,-100,4,1,1,50,0,0
127656,-100,4,1,1,5,0,0
127739,-100,4,1,1,50,0,0
128156,-100,4,1,1,5,0,0
128239,-100,4,1,1,50,0,0
129239,-100,4,1,3,50,0,0
129739,-66.6666666666667,4,1,1,50,0,0
130073,-66.6666666666667,4,1,1,55,0,0
130406,-100,4,3,2,60,0,0
130823,-100,4,3,2,5,0,0
130906,-100,4,3,1,60,0,0
131323,-100,4,3,2,5,0,0
131406,-133.333333333333,4,3,1,60,0,0
131656,-133.333333333333,4,3,2,5,0,0
131739,-79.9999999999999,4,3,2,60,0,0
132323,-79.9999999999999,4,3,2,5,0,0
132406,-100,4,3,1,60,0,0
132989,-100,4,3,2,5,0,0
133073,-100,4,3,2,60,0,0
133489,-100,4,3,2,5,0,0
133573,-100,4,3,1,60,0,0
133989,-100,4,3,2,5,0,0
134073,-133.333333333333,4,3,1,60,0,0
134323,-133.333333333333,4,3,2,5,0,0
134406,-79.9999999999999,4,3,2,60,0,0
134989,-79.9999999999999,4,3,2,5,0,0
135073,-100,4,1,1,55,0,0
135406,-100,4,1,1,50,0,0
135656,-100,4,1,1,5,0,0
135739,-100,4,1,1,50,0,0
137406,-100,4,1,2,50,0,0
137739,-100,4,1,1,50,0,0
138323,-100,4,1,1,5,0,0
138406,-100,4,1,1,50,0,0
139739,-100,4,1,3,50,0,0
140406,-66.6666666666667,4,1,1,50,0,0
140739,-66.6666666666667,4,1,1,55,0,0
141073,-100,4,3,2,60,0,0
141489,-100,4,3,2,5,0,0
141573,-100,4,3,1,60,0,0
141989,-100,4,3,2,5,0,0
142073,-133.333333333333,4,3,1,60,0,0
142323,-133.333333333333,4,3,2,5,0,0
142406,-79.9999999999999,4,3,2,60,0,0
142989,-79.9999999999999,4,3,2,5,0,0
143073,-100,4,3,1,60,0,0
143656,-100,4,3,2,5,0,0
143739,-100,4,3,2,60,0,0
144156,-100,4,3,2,5,0,0
144239,-100,4,3,1,60,0,0
144656,-100,4,3,2,5,0,0
144739,-133.333333333333,4,3,1,60,0,0
144989,-133.333333333333,4,3,2,5,0,0
145073,-79.9999999999999,4,3,2,60,0,0
145656,-79.9999999999999,4,3,2,5,0,0
145739,-100,4,1,1,55,0,0
146073,-100,4,1,1,50,0,0
148073,-100,4,1,2,50,0,0
148406,-100,4,1,1,50,0,0
148989,-100,4,1,1,5,0,0
149073,-100,4,1,1,50,0,0
172739,-133.333333333333,4,2,1,20,0,0
193739,-71.4285714285714,4,1,1,50,0,1
194406,-76.9230769230769,4,1,1,50,0,1
196073,-76.9230769230769,4,1,2,50,0,1
196406,-71.4285714285714,4,1,1,50,0,1
197073,-76.9230769230769,4,1,1,50,0,1
197989,-76.9230769230769,4,1,1,5,0,1
198073,-76.9230769230769,4,1,1,50,0,1
198573,-76.9230769230769,4,1,2,50,0,1
199073,-71.4285714285714,4,1,1,50,0,1
199739,-76.9230769230769,4,1,1,50,0,1
201406,-76.9230769230769,4,1,2,50,0,1
201739,-71.4285714285714,4,1,1,50,0,1
202239,-76.9230769230769,4,1,1,50,0,1
203323,-76.9230769230769,4,1,1,5,0,1
203406,-76.9230769230769,4,1,1,50,0,1
203906,-76.9230769230769,4,1,2,55,0,1
204406,-66.6666666666667,4,1,1,60,0,1
205073,-71.4285714285714,4,1,1,60,0,1
206739,-71.4285714285714,4,1,2,60,0,1
207073,-66.6666666666667,4,1,1,60,0,1
207739,-71.4285714285714,4,1,1,60,0,1
208656,-71.4285714285714,4,1,1,5,0,1
208739,-71.4285714285714,4,1,1,60,0,1
209239,-71.4285714285714,4,1,2,60,0,1
209739,-71.4285714285714,4,1,1,60,0,1
211906,-71.4285714285714,4,1,2,60,0,1
212406,-66.6666666666667,4,1,1,60,0,1
213073,-71.4285714285714,4,1,1,60,0,1
215073,-100,4,2,1,30,0,0
229073,-133.333333333333,4,2,1,20,0,0
229906,-133.333333333333,4,2,1,10,0,0
231073,-133.333333333333,4,2,1,5,0,0

[HitObjects]
172,284,1740,6,0,P|152:248|148:203,1,80,2|0,0:0|0:0,0:0:0:0:
187,140,2073,1,0,0:0:0:0:
314,43,2406,2,0,P|334:79|338:124,1,80,2|0,0:0|0:0,0:0:0:0:
299,187,2739,1,0,0:0:0:0:
417,79,2906,2,0,P|453:59|498:55,1,80,2|0,0:0|0:0,0:0:0:0:
476,133,3239,5,0,0:0:0:0:
453,209,3406,2,0,L|421:293,1,80,2|0,0:0|0:0,0:0:0:0:
307,344,3739,2,0,L|336:270,1,80,2|0,0:0|0:0,0:0:0:0:
299,187,4073,1,0,0:0:0:0:
284,173,4156,1,0,0:0:0:0:
273,156,4239,1,0,0:0:0:0:
266,137,4322,1,0,0:0:0:0:
263,118,4406,6,0,L|228:41,1,80,2|0,0:0|0:0,0:0:0:0:
151,29,4739,1,0,0:0:0:0:
50,153,5073,2,0,P|33:191|36:232,1,80,2|0,0:0|0:0,0:0:0:0:
112,206,5406,1,0,0:0:0:0:
125,127,5573,2,0,P|100:92|64:74,1,80,2|0,0:0|0:0,0:0:0:0:
112,206,5906,5,0,0:0:0:0:
146,278,6073,2,0,L|220:312,1,80,2|0,0:0|0:0,0:0:0:0:
275,254,6406,2,0,L|347:287,1,80,2|0,0:0|0:0,0:0:0:0:
404,344,6739,1,0,0:0:0:0:
423,339,6822,1,0,0:0:0:0:
440,329,6905,1,0,0:0:0:0:
455,316,6988,1,0,0:0:0:0:
466,299,7073,6,0,L|472:210,1,80,2|0,0:0|0:0,0:0:0:0:
490,60,7406,1,0,0:0:0:0:
348,133,7739,2,0,P|306:139|262:126,1,80,2|0,0:0|0:0,0:0:0:0:
313,62,8073,1,0,0:0:0:0:
304,221,8239,2,0,L|257:288,1,80,2|0,0:0|0:0,0:0:0:0:
184,320,8573,5,0,0:0:0:0:
109,286,8739,2,0,P|84:257|70:210,1,80,2|0,0:0|0:0,0:0:0:0:
126,138,9073,2,0,P|153:168|166:206,1,80,2|0,0:0|0:0,0:0:0:0:
26,126,9406,1,0,0:0:0:0:
30,106,9489,1,0,0:0:0:0:
38,88,9572,1,0,0:0:0:0:
50,72,9656,1,0,0:0:0:0:
64,58,9739,6,0,L|145:33,1,80,2|0,0:0|0:0,0:0:0:0:
220,47,10073,1,0,0:0:0:0:
336,156,10406,2,0,P|370:177|413:184,1,80,2|0,0:0|0:0,0:0:0:0:
397,104,10739,1,0,0:0:0:0:
321,76,10906,2,0,P|285:95|259:129,1,80,2|0,0:0|0:0,0:0:0:0:
273,205,11239,5,0,0:0:0:0:
318,270,11406,2,0,L|372:328,1,80,2|0,0:0|0:0,0:0:0:0:
238,279,11739,2,0,P|197:277|154:290,1,80,2|0,0:0|0:0,0:0:0:0:
349,198,12073,1,0,0:0:0:0:
363,184,12156,1,0,0:0:0:0:
378,170,12239,1,0,0:0:0:0:
392,157,12323,1,0,0:0:0:0:
407,143,12406,6,0,L|492:122,1,88.000002685547,2|0,0:0|0:0,0:0:0:0:
328,102,12739,2,0,B|283:99|283:99|201:68,1,132.00000402832
201,68,13073,2,0,L|110:90,1,88.000002685547,2|0,0:0|0:0,0:0:0:0:
28,241,13406,1,0,0:0:0:0:
94,182,13573,2,0,P|136:168|183:177,1,88.000002685547,2|0,0:0|0:0,0:0:0:0:
143,255,13906,5,0,0:0:0:0:
262,166,14073,2,0,P|219:160|178:174,1,88.000002685547,2|0,0:0|0:0,0:0:0:0:
313,240,14406,2,0,P|271:253|228:247,1,88.000002685547,2|0,0:0|0:0,0:0:0:0:
350,159,14739,1,0,0:0:0:0:
378,177,14822,1,0,0:0:0:0:
395,204,14905,1,0,0:0:0:0:
403,236,14989,1,0,0:0:0:0:
397,268,15073,6,0,L|396:357,1,88.000002685547,2|0,0:0|0:0,0:0:0:0:
478,196,15406,2,0,B|464:154|464:154|409:84,1,132.00000402832
409,85,15739,2,0,L|319:63,1,88.000002685547,2|0,0:0|0:0,0:0:0:0:
158,136,16073,1,0,0:0:0:0:
230,86,16239,2,0,P|249:46|250:2,1,88.000002685547,2|0,0:0|0:0,0:0:0:0:
164,24,16573,5,0,0:0:0:0:
93,76,16739,2,0,L|73:162,1,88.000002685547,2|0,0:0|0:0,0:0:0:0:
117,309,17073,2,0,L|137:223,1,88.000002685547,2|0,0:0|0:0,0:0:0:0:
209,273,17406,1,0,0:0:0:0:
239,288,17489,1,0,0:0:0:0:
271,288,17572,1,0,0:0:0:0:
302,277,17656,1,0,0:0:0:0:
326,256,17740,6,0,L|380:197,1,80,2|0,0:0|0:0,0:0:0:0:
455,169,18073,1,0,0:0:0:0:
295,173,18406,2,0,P|255:168|217:145,1,80,2|0,0:0|0:0,0:0:0:0:
280,94,18739,1,0,0:0:0:0:
154,193,18906,2,0,P|115:204|71:199,1,80,2|0,0:0|0:0,0:0:0:0:
221,148,19239,1,0,0:0:0:0:
123,284,19406,2,0,L|67:342,1,80,2|0,0:0|0:0,0:0:0:0:
76,200,19739,2,0,P|105:172|146:157,1,80,2|0,0:0|0:0,0:0:0:0:
231,240,20074,1,0,0:0:0:0:
249,247,20157,1,0,0:0:0:0:
268,255,20240,1,0,0:0:0:0:
286,262,20323,1,0,0:0:0:0:
305,270,20406,6,0,P|344:277|380:305,1,80,2|0,0:0|0:0,0:0:0:0:
313,350,20739,1,0,0:0:0:0:
376,202,21073,2,0,L|383:120,1,80,2|0,0:0|0:0,0:0:0:0:
257,22,21406,1,0,0:0:0:0:
291,153,21573,1,2,0:0:0:0:
256,192,21739,12,0,23073,0:0:0:0:
336,120,23406,6,0,P|281:140|223:128,2,120.000004577637,2|2|0,0:0|0:0|0:0,0:0:0:0:
275,54,24239,1,0,0:0:0:0:
183,49,24406,6,0,P|143:91|139:149,1,120.000004577637,2|2,0:0|0:0,0:0:0:0:
205,317,25073,2,0,L|196:197,1,120.000004577637,2|0,0:0|0:0,0:0:0:0:
125,263,25573,1,0,0:0:0:0:
275,252,25739,6,0,B|308:252|308:252|393:269,1,120.000004577637,2|2,0:0|0:0,0:0:0:0:
275,252,26406,2,0,P|297:198|350:158,1,120.000004577637,2|0,0:0|0:0,0:0:0:0:
430,187,26906,1,0,0:0:0:0:
258,132,27073,6,0,L|141:102,1,120.000004577637,2|2,0:0|0:0,0:0:0:0:
141,102,27739,2,0,L|84:120,1,60.0000022888184,2|0,0:0|0:0,0:0:0:0:
181,191,28239,2,0,B|234:218|234:218|255:238|255:238|226:244,1,120.000004577637,2|0,0:0|0:0,0:0:0:0:
141,102,28739,6,0,P|200:101|254:127,2,120.000004577637,2|2|0,0:0|0:0|0:0,0:0:0:0:
92,178,29573,1,0,0:0:0:0:
141,102,29739,6,0,L|257:60,1,120.000004577637,2|2,0:0|0:0,0:0:0:0:
429,104,30406,2,0,P|467:148|472:211,1,120.000004577637,2|0,0:0|0:0,0:0:0:0:
379,187,30906,1,0,0:0:0:0:
339,105,31073,6,0,P|358:50|410:14,2,120.000004577637,2|2|2,0:0|0:0|0:0,0:0:0:0:
411,269,32073,1,0,0:0:0:0:
258,173,32406,6,0,P|199:160|137:175,1,120.000004577637,2|2,0:0|0:0,0:0:0:0:
184,347,33073,2,0,L|199:289,1,60.0000022888184,2|0,0:0|0:0,0:0:0:0:
157,115,33573,2,0,L|125:230,1,120.000004577637,2|0,0:0|0:0,0:0:0:0:
60,152,34073,6,0,P|59:88|86:40,1,120.000004577637,2|2,0:0|0:0,0:0:0:0:
245,121,34739,1,2,0:0:0:0:
245,121,35073,6,0,L|350:182,1,120.000004577637,2|0,0:0|0:0,0:0:0:0:
443,121,35739,2,0,P|409:164|344:180,1,120.000004577637,2|0,0:0|0:0,0:0:0:0:
355,84,36239,1,0,0:0:0:0:
441,228,36406,6,0,B|456:287|456:287|457:356,2,120.000004577637,2|2|2,0:0|0:0|0:0,0:0:0:0:
344,299,37406,2,0,L|283:314,1,60.0000022888184,2|0,0:0|0:0,0:0:0:0:
195,320,37739,6,0,P|141:302|92:252,1,120.000004577637,2|2,0:0|0:0,0:0:0:0:
204,193,38406,1,2,0:0:0:0:
204,193,38573,2,0,L|272:213,1,60.0000022888184
117,172,38906,2,0,P|60:173|5:143,1,120.000004577637,2|2,0:0|0:0,0:0:0:0:
88,55,39406,6,0,P|144:45|203:66,1,120.000004577637,2|2,0:0|0:0,0:0:0:0:
202,65,40073,1,2,0:0:0:0:
439,100,40406,6,0,P|383:90|324:111,1,120.000004577637,2|2,0:0|0:0,0:0:0:0:
325,110,41073,1,2,0:0:0:0:
256,192,41406,12,0,43073,0:0:0:0:
115,136,44406,6,0,B|181:147|181:147|238:143|238:143|186:194,1,191.999994140625,4|0,0:1|0:0,0:0:0:0:
186,64,45073,2,0,P|230:58|273:71,1,88.000002685547,8|0,0:0|0:0,0:0:0:0:
189,190,45406,1,0,0:0:0:0:
271,70,45573,2,0,L|367:45,1,88.000002685547,0|0,3:0|0:0,0:0:0:0:
503,87,45906,5,0,0:0:0:0:
464,166,46073,2,0,P|431:195|384:203,1,88.000002685547,0|0,3:0|0:0,0:0:0:0:
356,47,46406,2,0,P|385:79|395:121,1,88.000002685547,8|0,0:0|0:0,0:0:0:0:
322,252,46739,1,2,0:0:0:0:
303,263,46823,1,0,0:0:0:0:
285,275,46905,1,2,0:0:0:0:
266,287,46989,1,0,0:0:0:0:
248,299,47073,6,0,B|175:321|106:293|106:293|157:271,1,191.999994140625,4|0,3:1|0:0,0:0:0:0:
244,135,47739,2,0,P|241:178|217:214,1,88.000002685547,8|0,0:0|0:0,0:0:0:0:
150,147,48073,1,0,0:0:0:0:
330,178,48239,2,0,P|379:173|416:144,1,88.000002685547,0|0,3:0|0:0,0:0:0:0:
342,84,48573,5,0,0:0:0:0:
400,249,48739,2,0,L|477:315,1,88.000002685547,0|0,3:0|0:0,0:0:0:0:
342,84,49073,2,0,L|275:26,1,88.000002685547,8|0,0:0|0:0,0:0:0:0:
187,26,49406,1,2,0:0:0:0:
165,31,49489,1,0,0:0:0:0:
144,38,49572,1,2,0:0:0:0:
125,49,49656,1,0,0:0:0:0:
107,62,49739,6,0,B|75:110|75:110|59:158|107:190|155:158|139:110,1,191.999994140625,4|0,3:1|0:0,0:0:0:0:
314,166,50406,2,0,P|271:174|230:160,1,88.000002685547,8|0,0:0|0:0,0:0:0:0:
278,93,50739,1,0,0:0:0:0:
187,233,50906,2,0,L|108:278,1,88.000002685547,0|0,3:0|0:0,0:0:0:0:
230,160,51239,5,0,0:0:0:0:
187,322,51406,2,0,P|155:351|112:362,1,88.000002685547,0|0,3:0|0:0,0:0:0:0:
257,278,51739,2,0,P|297:262|344:271,1,88.000002685547,8|0,0:0|0:0,0:0:0:0:
306,344,52073,1,2,0:0:0:0:
304,322,52156,1,0,0:0:0:0:
302,300,52239,1,2,0:0:0:0:
300,278,52323,1,0,0:0:0:0:
298,256,52406,6,0,B|280:206|248:171|248:171|304:185|340:153,1,191.999994140625,4|0,3:1|0:0,0:0:0:0:
171,153,53073,2,0,P|172:196|195:233,1,88.000002685547,8|0,0:0|0:0,0:0:0:0:
250,172,53406,1,0,0:0:0:0:
89,124,53573,2,0,L|2:139,1,88.000002685547,0|0,3:0|0:0,0:0:0:0:
171,153,53906,5,0,0:0:0:0:
32,60,54073,2,0,P|7:95|1:138,1,88.000002685547,0|0,3:0|0:0,0:0:0:0:
154,69,54406,2,0,L|238:34,1,88.000002685547,8|0,0:0|0:0,0:0:0:0:
323,30,54739,1,2,0:0:0:0:
345,30,54822,1,0,0:0:0:0:
367,32,54905,1,2,0:0:0:0:
389,35,54989,1,0,0:0:0:0:
410,39,55073,6,0,B|446:67|441:121|441:121|428:177|481:225,1,207.999990478516,4|0,3:1|0:0,0:0:0:0:
361,106,55739,2,0,P|312:104|263:130,1,95.9999970703126,8|0,0:0|0:0,0:0:0:0:
331,199,56073,1,0,0:0:0:0:
439,134,56239,2,0,P|439:84|417:42,1,95.9999970703126,0|0,3:0|0:0,0:0:0:0:
361,106,56573,5,0,0:0:0:0:
238,212,56739,2,0,L|172:292,1,95.9999970703126,0|0,3:0|0:0,0:0:0:0:
270,124,57073,2,0,B|288:79|288:79|292:30,1,95.9999970703126,8|0,0:0|0:0,0:0:0:0:
177,140,57406,1,2,0:0:0:0:
151,153,57489,1,0,0:0:0:0:
123,160,57572,1,2,0:0:0:0:
95,160,57656,1,0,0:0:0:0:
67,154,57739,6,0,B|37:82|37:82|45:151|13:219,1,207.999990478516,4|0,3:1|0:0,0:0:0:0:
72,287,58406,2,0,P|112:318|156:325,1,95.9999970703126,8|0,0:0|0:0,0:0:0:0:
234,269,58739,1,0,0:0:0:0:
177,140,58906,2,0,P|151:179|147:227,1,95.9999970703126,0|0,3:0|0:0,0:0:0:0:
155,325,59239,5,0,0:0:0:0:
234,269,59406,2,0,L|295:195,1,95.9999970703126,0|0,3:0|0:0,0:0:0:0:
317,31,59739,2,0,P|278:57|266:102,1,95.9999970703126,8|0,0:0|0:0,0:0:0:0:
330,285,60073,1,2,0:0:0:0:
354,270,60156,1,0,0:0:0:0:
374,249,60239,1,2,0:0:0:0:
386,223,60323,1,0,0:0:0:0:
390,195,60406,6,0,B|336:97|336:97|383:87|383:87|408:128,1,207.999990478516,4|0,3:1|0:0,0:0:0:0:
289,196,61073,2,0,P|241:195|194:168,1,95.9999970703126,8|0,0:0|0:0,0:0:0:0:
266,102,61406,1,0,0:0:0:0:
135,243,61573,2,0,P|87:242|40:215,1,95.9999970703126,0|0,3:0|0:0,0:0:0:0:
113,149,61906,5,0,0:0:0:0:
215,253,62073,2,0,L|274:329,1,95.9999970703126,0|0,3:0|0:0,0:0:0:0:
113,149,62406,2,0,P|90:108|85:56,1,95.9999970703126,8|0,0:0|0:0,0:0:0:0:
181,78,62739,1,2,0:0:0:0:
209,77,62822,1,0,0:0:0:0:
237,71,62905,1,2,0:0:0:0:
263,58,62989,1,0,0:0:0:0:
285,40,63073,6,0,B|443:27|443:27|410:76,1,207.999990478516,4|0,3:1|0:0,0:0:0:0:
369,221,63739,2,0,P|344:180|342:133,1,95.9999970703126,8|0,0:0|0:0,0:0:0:0:
437,152,64073,1,0,0:0:0:0:
294,279,64239,2,0,L|199:290,1,95.9999970703126,0|0,3:0|0:0,0:0:0:0:
103,270,64573,5,0,0:0:0:0:
278,206,64739,2,0,L|183:217,1,95.9999970703126,0|0,3:0|0:0,0:0:0:0:
46,79,65073,1,8,0:0:0:0:
107,186,65239,1,8,0:0:0:0:
219,54,65406,1,8,0:0:0:0:
9,172,65573,1,8,0:0:0:0:
232,45,65739,6,0,P|312:86|230:126,1,223.999993164063,4|0,0:0|0:0,0:0:0:0:
395,35,66406,2,0,P|408:85|398:138,1,103.999995239258,8|0,0:0|0:0,0:0:0:0:
311,192,66739,1,0,0:0:0:0:
223,133,66906,2,0,P|261:99|311:87,1,103.999995239258,0|0,3:0|0:0,0:0:0:0:
311,192,67239,5,0,0:0:0:0:
218,239,67406,2,0,L|115:253,1,103.999995239258,0|0,3:0|0:0,0:0:0:0:
311,192,67739,2,0,L|403:238,1,103.999995239258,8|0,0:0|0:0,0:0:0:0:
223,133,68073,1,2,0:0:0:0:
192,114,68156,1,0,0:0:0:0:
169,87,68239,1,2,0:0:0:0:
155,53,68322,1,0,0:0:0:0:
155,17,68406,6,0,B|98:31|98:31|13:112|13:112|63:124,1,223.999993164063,4|0,3:1|0:0,0:0:0:0:
109,325,69073,2,0,P|153:289|170:232,1,103.999995239258,8|0,0:0|0:0,0:0:0:0:
73,235,69406,1,0,0:0:0:0:
262,292,69573,2,0,P|311:297|366:275,1,103.999995239258,0|0,3:0|0:0,0:0:0:0:
401,182,69906,5,0,0:0:0:0:
331,105,70073,2,0,P|304:149|299:200,1,103.999995239258,0|0,3:0|0:0,0:0:0:0:
472,259,70406,2,0,P|498:214|503:163,1,103.999995239258,8|0,0:0|0:0,0:0:0:0:
441,66,70739,1,2,0:0:0:0:
407,50,70822,1,0,0:0:0:0:
374,35,70905,1,2,0:0:0:0:
341,23,70988,1,0,0:0:0:0:
304,21,71073,6,0,B|252:44|196:35|196:35|172:49|172:49|128:42|86:61,1,223.999993164063,4|0,3:1|0:0,0:0:0:0:
237,204,71739,2,0,P|189:221|134:208,1,103.999995239258,8|0,0:0|0:0,0:0:0:0:
47,157,72073,1,0,0:0:0:0:
301,132,72239,2,0,P|328:175|329:226,1,103.999995239258,0|0,3:0|0:0,0:0:0:0:
183,124,72573,5,0,0:0:0:0:
383,73,72739,2,0,B|434:69|434:69|495:78,1,103.999995239258,0|0,3:0|0:0,0:0:0:0:
426,269,73073,2,0,B|422:218|422:218|430:166,1,103.999995239258,8|0,0:0|0:0,0:0:0:0:
383,73,73406,1,2,0:0:0:0:
347,64,73489,1,0,0:0:0:0:
312,56,73572,1,2,0:0:0:0:
276,48,73655,1,0,0:0:0:0:
241,39,73739,6,0,B|131:66|131:66|179:80|201:124,1,207.999990478516,4|0,3:1|0:0,0:0:0:0:
107,168,74239,1,0,0:0:0:0:
196,222,74406,2,0,P|248:210|287:169,1,103.999995239258,8|0,0:0|0:0,0:0:0:0:
201,124,74739,1,0,0:0:0:0:
116,255,74906,2,0,P|100:306|116:360,1,103.999995239258,0|0,3:0|0:0,0:0:0:0:
196,307,75239,5,0,0:0:0:0:
196,222,75406,2,0,L|113:151,1,103.999995239258,0|0,3:0|0:0,0:0:0:0:
268,263,75739,2,0,P|316:278|375:271,1,103.999995239258,8|0,0:0|0:0,0:0:0:0:
442,198,76073,2,0,L|475:156,1,51.999997619629,8|0,0:0|0:0,0:0:0:0:
480,33,76239,2,0,L|448:74,1,51.999997619629,8|0,0:0|0:0,0:0:0:0:
325,120,76406,6,0,B|262:149|206:99|206:99|146:72|81:83,1,240.000009155274,4|0,3:1|0:0,0:0:0:0:
280,33,77073,2,0,P|325:69|324:119,1,111.999996582031,8|0,0:0|0:0,0:0:0:0:
212,104,77406,1,0,0:0:0:0:
361,225,77573,2,0,B|394:277|394:277|401:338,1,111.999996582031,0|0,3:0|0:0,0:0:0:0:
302,309,77906,5,0,0:0:0:0:
361,225,78073,2,0,P|406:183|463:174,1,111.999996582031,0|0,3:0|0:0,0:0:0:0:
262,217,78406,2,0,P|200:214|160:176,1,111.999996582031,8|0,0:0|0:0,0:0:0:0:
234,138,78739,1,2,0:0:0:0:
220,177,78822,1,0,0:0:0:0:
207,217,78905,1,2,0:0:0:0:
193,257,78988,1,0,0:0:0:0:
180,297,79073,6,0,P|91:333|121:243,1,240.000009155274,4|0,3:1|0:0,0:0:0:0:
344,329,79739,2,0,P|394:308|427:249,1,111.999996582031,8|0,0:0|0:0,0:0:0:0:
383,100,80073,1,0,0:0:0:0:
260,156,80239,2,0,P|285:205|334:231,1,111.999996582031,0|0,3:0|0:0,0:0:0:0:
383,100,80573,5,0,0:0:0:0:
162,67,80739,2,0,L|47:83,1,111.999996582031,0|0,3:0|0:0,0:0:0:0:
260,156,81073,2,0,P|289:106|290:43,1,111.999996582031,8|0,0:0|0:0,0:0:0:0:
117,153,81406,1,2,0:0:0:0:
91,182,81489,1,0,0:0:0:0:
72,216,81572,1,2,0:0:0:0:
58,252,81655,1,0,0:0:0:0:
43,289,81739,6,0,B|127:335|219:316|219:316|271:279,1,240.000009155274,4|0,3:1|0:0,0:0:0:0:
180,218,82239,1,0,0:0:0:0:
267,282,82406,2,0,P|320:270|373:286,1,111.999996582031,8|0,0:0|0:0,0:0:0:0:
318,367,82739,1,0,0:0:0:0:
467,312,82906,2,0,P|465:256|436:209,1,111.999996582031,0|0,3:0|0:0,0:0:0:0:
373,286,83239,5,0,0:0:0:0:
356,152,83406,2,0,L|367:36,1,111.999996582031,0|0,3:0|0:0,0:0:0:0:
164,159,83739,2,0,P|112:169|55:160,1,111.999996582031,8|0,0:0|0:0,0:0:0:0:
229,81,84073,1,2,0:0:0:0:
251,113,84156,1,0,0:0:0:0:
261,151,84239,1,2,0:0:0:0:
258,189,84322,1,0,0:0:0:0:
242,225,84406,6,0,B|197:280|120:273|120:273|168:297|195:353,1,240.000009155274,4|0,3:1|0:0,0:0:0:0:
301,322,85073,2,0,P|345:295|414:292,1,111.999996582031,8|0,0:0|0:0,0:0:0:0:
502,343,85406,1,0,0:0:0:0:
409,202,85573,2,0,P|390:149|405:93,1,111.999996582031,0|0,3:0|0:0,0:0:0:0:
486,144,85906,5,0,0:0:0:0:
306,155,86073,2,0,L|195:133,1,111.999996582031,0|0,3:0|0:0,0:0:0:0:
84,57,86406,1,8,0:0:0:0:
256,192,96406,12,0,97406,0:0:0:0:
470,105,97739,6,0,P|446:71|395:43,1,80,2|0,0:0|0:0,0:0:0:0:
336,27,98073,1,0,0:0:0:0:
196,104,98406,2,0,P|218:136|251:159,1,80,2|0,0:0|0:0,0:0:0:0:
329,181,98740,1,0,0:0:0:0:
169,189,98906,2,0,P|136:211|113:244,1,80,2|0,0:0|0:0,0:0:0:0:
190,267,99239,5,0,0:0:0:0:
79,151,99406,2,0,L|1:102,1,80,2|0,0:0|0:0,0:0:0:0:
37,290,99739,2,0,L|104:332,1,80,2|0,0:0|0:0,0:0:0:0:
183,350,100073,1,0,0:0:0:0:
202,347,100156,1,0,0:0:0:0:
221,341,100239,1,0,0:0:0:0:
239,332,100322,1,0,0:0:0:0:
255,319,100406,6,0,B|272:274|272:274|283:217|283:217|320:175,1,160,2|0,0:0|0:0,0:0:0:0:
437,284,101073,2,0,P|397:281|364:259,1,80,2|0,0:0|0:0,0:0:0:0:
424,203,101406,1,0,0:0:0:0:
332,337,101573,2,0,B|293:332|293:332|253:319,1,80,2|0,0:0|0:0,0:0:0:0:
189,271,101906,5,0,0:0:0:0:
131,214,102073,2,0,L|99:124,1,80,2|0,0:0|0:0,0:0:0:0:
134,6,102406,2,0,L|160:81,1,80,2|0,0:0|0:0,0:0:0:0:
194,154,102739,1,0,0:0:0:0:
212,160,102822,1,0,0:0:0:0:
232,163,102905,1,0,0:0:0:0:
252,163,102988,1,0,0:0:0:0:
272,159,103073,6,0,P|305:137|345:129,1,80,2|0,0:0|0:0,0:0:0:0:
427,278,103406,2,0,P|371:259|337:212,1,120
308,240,103739,1,2,0:0:0:0:
419,194,103906,2,0,B|457:202|457:202|498:229,1,80
431,102,104239,2,0,L|404:25,1,80,2|0,0:0|0:0,0:0:0:0:
419,194,104573,5,0,0:0:0:0:
343,129,104739,2,0,L|316:52,1,80,2|0,0:0|0:0,0:0:0:0:
219,182,105073,2,0,P|186:204|139:211,1,80,2|0,0:0|0:0,0:0:0:0:
121,41,105406,1,0,0:0:0:0:
134,57,105489,1,0,0:0:0:0:
143,74,105572,1,0,0:0:0:0:
149,94,105655,1,0,0:0:0:0:
151,114,105739,5,2,0:0:0:0:
56,243,105906,1,0,0:0:0:0:
62,108,106073,1,0,0:0:0:0:
219,286,106406,1,0,0:0:0:0:
116,348,106573,1,0,0:0:0:0:
160,32,106739,1,0,0:0:0:0:
292,188,106906,1,0,0:0:0:0:
56,243,107073,5,0,3:0:0:0:
250,95,107239,1,0,3:0:0:0:
219,286,107406,1,0,3:0:0:0:
239,78,107739,1,8,0:0:0:0:
372,278,108073,1,8,0:0:0:0:
153,206,108239,1,8,0:0:0:0:
396,66,108406,6,0,P|470:134|370:153,1,240.000009155274,4|0,3:1|0:0,0:0:0:0:
376,160,109073,2,0,B|328:128|280:160|280:160|232:192|168:160,1,200,8|0,0:0|0:0,0:0:0:0:
229,99,109573,2,0,P|134:108|115:202,1,200
176,247,110073,2,0,B|205:261|205:261|234:264|234:264|266:275,1,90.0000034332277
219,342,110406,2,0,B|266:365|313:337|313:337|339:342|339:342|363:337|363:337|386:344|386:344|412:338|412:338|461:330|503:349|503:349|476:294,1,350,8|0,0:0|0:0,0:0:0:0:
410,256,111073,6,0,B|353:268|331:191|393:164|432:196|432:196|420:139|485:147|463:71,1,280,0|0,0:0|0:0,0:0:0:0:
388,90,111739,2,0,B|329:96|329:96|247:89|247:89|183:97,1,200,8|0,0:0|0:0,0:0:0:0:
249,165,112239,2,0,P|212:239|169:169,1,200,0|0,0:0|0:0,0:0:0:0:
101,112,112739,2,0,P|80:150|74:195,1,90.0000034332277
74,282,113073,2,0,B|122:309|126:357|126:357|187:321|253:348|253:348|319:376|366:334,1,350,8|0,0:0|0:0,0:0:0:0:
302,279,113739,6,0,P|265:265|224:257,1,80,4|0,3:1|0:0,0:0:0:0:
378,253,114073,2,0,P|412:229|434:184,1,80
355,28,114406,2,0,P|312:91|341:163,1,160,8|0,0:0|0:0,0:0:0:0:
392,100,114906,1,0,3:0:0:0:
237,55,115073,6,0,B|197:49|197:49|145:54,1,80
20,106,115406,2,0,B|60:112|60:112|100:109,1,80,0|0,3:0|0:0,0:0:0:0:
193,131,115739,2,0,L|143:194,1,80,8|0,0:0|0:0,0:0:0:0:
73,339,116073,1,2,0:0:0:0:
104,314,116156,1,0,0:0:0:0:
142,302,116239,1,2,0:0:0:0:
182,304,116322,1,0,0:0:0:0:
219,319,116406,6,0,B|255:335|255:335|306:335,1,80,4|0,3:1|0:0,0:0:0:0:
467,262,116739,2,0,P|407:257|352:278,1,120,0|0,0:0|0:0,0:0:0:0:
277,256,117073,2,0,B|294:211|348:193|348:193|361:159|361:159|394:151|418:122,1,200,8|0,0:0|0:0,0:0:0:0:
352,81,117573,2,0,P|312:71|271:77,1,80,0|0,3:0|0:0,0:0:0:0:
233,163,117906,5,0,0:0:0:0:
114,81,118073,2,0,P|154:71|195:77,1,80,0|0,3:0|0:0,0:0:0:0:
277,256,118406,1,8,0:0:0:0:
268,65,118739,1,8,0:0:0:0:
415,124,118906,1,8,0:0:0:0:
157,158,119073,6,0,P|98:207|205:231,1,240.000009155274,4|0,3:1|0:0,0:0:0:0:
202,236,119739,2,0,B|246:242|246:242|358:213|358:213|341:248,1,200,8|0,0:0|0:0,0:0:0:0:
295,315,120239,2,0,P|390:311|436:227,1,200
410,150,120739,2,0,L|390:60,1,90.0000034332277
313,38,121073,2,0,B|217:54|217:54|121:54|121:54|25:70|25:70|89:86,1,350,8|0,0:0|0:0,0:0:0:0:
144,134,121739,6,0,B|187:172|187:172|195:202|219:229|219:229|227:260|227:260|251:287|259:318|259:318|302:356,1,280
183,325,122406,2,0,P|94:295|126:211,1,200,8|0,0:0|0:0,0:0:0:0:
196,243,122906,2,0,B|341:243|341:243|395:230,1,200
474,242,123406,2,0,P|457:282|420:307,1,90.0000034332277
394,230,123739,2,0,B|406:176|462:162|462:162|413:156|372:124|372:124|324:134|324:134|281:97|229:121,1,350,8|0,0:0|0:0,0:0:0:0:
268,193,124406,6,0,L|317:257,1,80,4|0,3:1|0:0,0:0:0:0:
166,201,124739,2,0,P|139:168|128:129,1,80
223,263,125073,2,0,P|218:305|198:340,1,80,8|0,0:0|0:0,0:0:0:0:
142,282,125406,1,0,0:0:0:0:
316,256,125573,2,0,P|358:260|393:280,1,80,0|0,3:0|0:0,0:0:0:0:
335,337,125906,5,0,0:0:0:0:
376,182,126073,2,0,L|390:103,1,80,0|0,3:0|0:0,0:0:0:0:
484,24,126406,2,0,L|470:103,1,80,8|0,0:0|0:0,0:0:0:0:
312,130,126739,1,2,0:0:0:0:
292,133,126822,1,0,0:0:0:0:
272,134,126905,1,2,0:0:0:0:
252,134,126988,1,0,0:0:0:0:
232,131,127073,6,0,L|155:94,1,80,4|0,3:1|0:0,0:0:0:0:
84,122,127406,2,0,P|48:164|50:227,1,120
70,303,127739,2,0,B|139:277|124:193|124:193|175:235,1,200,8|0,0:0|0:0,0:0:0:0:
189,312,128239,2,0,B|224:292|224:292|251:257,1,80,0|0,3:0|0:0,0:0:0:0:
234,181,128573,5,0,0:0:0:0:
289,330,128739,1,0,3:0:0:0:
466,167,128906,1,0,0:0:0:0:
468,64,129073,2,0,L|421:93,1,40,8|0,0:0|0:0,0:0:0:0:
352,221,129239,2,0,L|399:192,1,40,8|0,0:0|0:0,0:0:0:0:
414,13,129406,2,0,L|401:66,1,40,8|0,0:0|0:0,0:0:0:0:
406,273,129573,2,0,L|415:234,1,40,8|0,0:0|0:0,0:0:0:0:
252,96,129739,6,0,P|157:126|235:180,1,240.000009155274,4|0,3:1|0:0,0:0:0:0:
233,180,130406,2,0,B|263:212|300:218|300:218|326:251|326:251|412:261,1,200,8|0,0:0|0:0,0:0:0:0:
365,180,130906,2,0,P|464:194|491:286,1,200
429,338,131406,2,0,B|398:345|398:345|367:340|367:340|330:346,1,90.0000034332277
261,337,131739,2,0,B|170:302|65:339|65:339|134:302|168:231,1,350,8|0,0:0|0:0,0:0:0:0:
246,248,132406,6,0,B|296:241|332:205|332:205|382:199|382:199|425:142|497:143,1,280
469,227,133073,2,0,P|410:164|451:67,1,200,8|0,0:0|0:0,0:0:0:0:
377,30,133573,2,0,B|319:30|319:30|242:68|242:68|185:49,1,200
111,26,134073,2,0,L|85:118,1,90.0000034332277
48,192,134406,2,0,B|24:240|48:288|48:288|96:280|96:280|144:296|144:296|184:280|224:304|224:304|260:320|296:304,1,350,8|0,0:0|0:0,0:0:0:0:
259,229,135073,6,0,P|247:192|249:152,1,80,4|0,3:1|0:0,0:0:0:0:
303,72,135406,2,0,P|340:119|342:178,1,120
356,215,135739,1,8,0:0:0:0:
249,152,135906,1,0,0:0:0:0:
429,85,136073,1,0,0:0:0:0:
222,72,136239,2,0,P|181:78|136:67,1,80,0|0,0:0|3:0,0:0:0:0:
183,0,136573,5,0,0:0:0:0:
129,149,136739,2,0,P|104:182|64:206,1,80
143,70,137073,2,0,P|179:90|207:126,1,80,8|0,0:0|0:0,0:0:0:0:
191,198,137406,1,2,0:0:0:0:
186,217,137489,1,0,0:0:0:0:
190,236,137572,1,2,0:0:0:0:
187,256,137656,1,0,0:0:0:0:
190,276,137739,6,0,P|222:303|260:312,1,80,4|0,3:1|0:0,0:0:0:0:
333,343,138073,2,0,P|391:335|427:283,1,120
453,259,138406,2,0,L|426:175,1,80,8|0,0:0|0:0,0:0:0:0:
284,111,138739,1,0,0:0:0:0:
372,115,138906,2,0,P|413:109|448:87,1,80,0|0,0:0|3:0,0:0:0:0:
386,35,139239,5,0,0:0:0:0:
323,182,139406,2,0,L|323:262,1,80,0|0,0:0|3:0,0:0:0:0:
284,111,139739,2,0,L|274:68,1,40,8|0,0:0|0:0,0:0:0:0:
242,221,139906,2,0,L|232:264,1,40,8|0,0:0|0:0,0:0:0:0:
160,125,140073,2,0,L|150:82,1,40,8|0,0:0|0:0,0:0:0:0:
118,235,140240,2,0,L|108:278,1,40,8|0,0:0|0:0,0:0:0:0:
32,133,140406,6,0,P|44:43|151:88,1,240.000009155274,4|0,3:1|0:0,0:0:0:0:
150,86,141073,2,0,B|205:123|263:98|263:98|297:120|297:120|338:116,1,200,8|0,0:0|0:0,0:0:0:0:
319,37,141573,2,0,B|263:98|263:98|259:135|259:135|234:166|234:166|215:211,1,200
298,208,142073,2,0,P|283:251|242:280,1,90.0000034332277
169,267,142406,2,0,P|106:141|259:135,1,350,8|0,0:0|0:0,0:0:0:0:
339,139,143073,6,0,B|419:139|419:139|499:107|499:107|419:75|419:75|387:75,1,280
339,139,143739,2,0,B|310:214|310:214|281:242|281:242|270:283|233:303,1,200,8|0,0:0|0:0,0:0:0:0:
202,228,144239,2,0,L|401:262,1,200
456,204,144739,2,0,P|414:182|371:186,1,90.0000034332277
399,261,145073,2,0,B|456:204|456:204|476:155|476:155|447:90|470:36|470:36|437:69|370:65,1,350,8|0,0:0|0:0,0:0:0:0:
308,56,145739,6,0,L|221:51,1,80,4|0,3:1|0:0,0:0:0:0:
95,124,146073,2,0,P|135:124|171:108,1,80
118,47,146406,1,8,0:0:0:0:
54,194,146573,1,0,0:0:0:0:
32,76,146739,1,0,0:0:0:0:
84,269,146906,2,0,P|111:297|149:310,1,80,0|0,3:0|0:0,0:0:0:0:
224,338,147239,5,0,0:0:0:0:
238,198,147406,2,0,P|198:198|163:215,1,80,0|0,3:0|0:0,0:0:0:0:
325,241,147739,2,0,P|335:202|328:163,1,80,8|0,0:0|0:0,0:0:0:0:
234,33,148073,1,2,0:0:0:0:
239,52,148156,1,0,0:0:0:0:
245,71,148239,1,2,0:0:0:0:
251,90,148323,1,0,0:0:0:0:
257,109,148406,6,0,L|241:189,1,80,4|0,3:1|0:0,0:0:0:0:
387,52,148739,2,0,P|444:60|484:112,1,120
512,134,149073,2,0,L|495:216,1,80,8|0,0:0|0:0,0:0:0:0:
451,278,149406,1,0,0:0:0:0:
407,128,149573,2,0,P|413:167|401:204,1,80,0|0,3:0|0:0,0:0:0:0:
333,162,149906,5,0,0:0:0:0:
387,52,150073,1,0,3:0:0:0:
401,204,150239,1,0,0:0:0:0:
263,58,150406,1,8,0:0:0:0:
142,230,161739,6,0,P|106:212|56:209,1,80,2|0,0:0|0:0,0:0:0:0:
84,286,162073,1,0,0:0:0:0:
216,197,162406,2,0,P|227:158|225:116,1,80,2|0,0:0|0:0,0:0:0:0:
168,62,162739,1,0,0:0:0:0:
245,40,162906,2,0,P|284:51|326:49,1,80,2|0,0:0|0:0,0:0:0:0:
398,22,163239,5,0,0:0:0:0:
343,129,163406,2,0,L|308:203,1,80,2|0,0:0|0:0,0:0:0:0:
365,258,163739,2,0,L|330:330,1,80,2|0,0:0|0:0,0:0:0:0:
217,289,164073,1,0,0:0:0:0:
198,281,164156,1,0,0:0:0:0:
180,273,164239,1,0,0:0:0:0:
161,265,164323,1,0,0:0:0:0:
143,257,164406,6,0,L|61:211,1,80,2|0,0:0|0:0,0:0:0:0:
21,157,164739,1,0,0:0:0:0:
170,98,165073,2,0,P|210:88|257:97,1,80,2|0,0:0|0:0,0:0:0:0:
315,136,165406,1,0,0:0:0:0:
357,204,165573,2,0,P|317:214|270:205,1,80,2|0,0:0|0:0,0:0:0:0:
315,136,165906,5,0,0:0:0:0:
395,133,166073,2,0,P|422:161|436:198,1,80,2|0,0:0|0:0,0:0:0:0:
352,64,166406,2,0,P|325:36|311:0,1,80,2|0,0:0|0:0,0:0:0:0:
433,62,166739,1,0,0:0:0:0:
450,71,166822,1,0,0:0:0:0:
466,83,166905,1,0,0:0:0:0:
479,98,166989,1,0,0:0:0:0:
489,115,167073,6,0,P|461:143|447:180,1,80,2|0,0:0|0:0,0:0:0:0:
360,291,167406,2,0,P|311:320|248:320,1,120
209,320,167739,2,0,L|141:257,1,80,2|0,0:0|0:0,0:0:0:0:
78,229,168073,1,0,0:0:0:0:
144,185,168239,2,0,P|169:154|180:110,1,80,2|0,0:0|0:0,0:0:0:0:
99,116,168573,5,0,0:0:0:0:
256,142,168739,2,0,L|337:163,1,80,2|0,0:0|0:0,0:0:0:0:
390,105,169073,2,0,L|467:125,1,80,2|0,0:0|0:0,0:0:0:0:
322,61,169406,1,0,0:0:0:0:
304,52,169489,1,0,0:0:0:0:
285,45,169572,1,0,0:0:0:0:
265,42,169656,1,0,0:0:0:0:
245,40,169739,6,0,P|208:51|165:46,1,80,2|0,0:0|0:0,0:0:0:0:
55,91,170073,1,0,0:0:0:0:
201,154,170406,2,0,P|239:172|269:212,1,80,2|0,0:0|0:0,0:0:0:0:
191,235,170739,1,0,0:0:0:0:
387,193,170906,1,2,0:0:0:0:
256,192,171073,12,0,172406,0:0:0:0:
112,204,172739,6,0,L|65:162,1,60.0000022888184,2|0,0:0|0:0,0:0:0:0:
152,132,173073,2,0,P|208:141|273:113,1,120.000004577637,2|0,0:0|0:0,0:0:0:0:
309,40,173573,1,2,0:0:0:0:
375,99,173739,2,0,B|397:130|397:130|404:174|404:174|429:219,2,120.000004577637,2|2|2,0:0|0:0|0:0,0:0:0:0:
297,261,174739,2,0,P|279:285|250:310,1,60.0000022888184,2|0,0:0|0:0,0:0:0:0:
167,323,175073,2,0,L|46:329,2,120.000004577637,2|2|2,0:0|0:0|0:0,0:0:0:0:
346,342,176073,2,0,L|419:324,1,60.0000022888184,2|0,0:0|0:0,0:0:0:0:
454,252,176406,2,0,L|381:234,1,60.0000022888184,2|2,0:0|0:0,0:0:0:0:
233,158,176906,6,0,P|319:129|308:46,1,180.000006866455,2|0,0:0|0:0,0:0:0:0:
246,26,177573,2,0,B|199:26|163:57|163:57|124:89|81:89,1,180.000006866455,2|0,0:0|0:0,0:0:0:0:
94,6,178239,5,2,0:0:0:0:
73,179,178406,2,0,L|43:308,1,120.000004577637,2|0,0:0|0:0,0:0:0:0:
115,352,178906,1,2,0:0:0:0:
133,263,179073,6,0,P|139:231|154:193,1,60.0000022888184,2|0,0:0|0:0,0:0:0:0:
267,191,179406,2,0,P|261:220|251:248,1,60.0000022888184,2|0,0:0|0:0,0:0:0:0:
197,141,179739,2,0,P|246:109|306:116,1,120.000004577637,2|0,0:0|0:0,0:0:0:0:
356,189,180239,1,2,0:0:0:0:
416,121,180406,6,0,P|448:127|486:142,1,60.0000022888184,2|0,0:0|0:0,0:0:0:0:
488,255,180739,2,0,P|458:249|430:239,1,60.0000022888184,2|0,0:0|0:0,0:0:0:0:
356,189,181073,2,0,P|324:140|331:80,1,120.000004577637,2|0,0:0|0:0,0:0:0:0:
416,121,181573,1,2,0:0:0:0:
236,130,181739,6,0,L|166:122,1,60.0000022888184,2|0,0:0|0:0,0:0:0:0:
112,59,182073,2,0,L|52:52,1,60.0000022888184,2|0,0:0|0:0,0:0:0:0:
198,34,182406,2,0,L|317:47,1,120.000004577637,2|0,0:0|0:0,0:0:0:0:
236,130,182906,2,0,P|195:207|252:282,1,180.000006866455,2|0,0:0|0:0,0:0:0:0:
280,202,183573,5,2,0:0:0:0:
113,186,183739,2,0,L|50:182,1,60.0000022888184,2|0,0:0|0:0,0:0:0:0:
89,99,184073,2,0,L|152:95,1,60.0000022888184,2|0,0:0|0:0,0:0:0:0:
298,110,184406,2,0,P|354:124|423:108,2,120.000004577637,2|2|2,0:0|0:0|0:0,0:0:0:0:
55,290,186073,5,2,0:0:0:0:
55,290,186406,2,0,P|114:300|178:282,1,120.000004577637,2|2,0:0|0:0,0:0:0:0:
299,157,187073,2,0,P|240:147|176:165,1,120.000004577637,2|0,0:0|0:0,0:0:0:0:
135,84,187573,2,0,B|188:58|188:58|255:57,1,120.000004577637,2|0,0:0|0:0,0:0:0:0:
336,75,188073,1,2,0:0:0:0:
256,192,188239,12,0,190073,0:0:0:0:
306,106,193739,6,0,B|338:51|338:51|384:36|384:36|393:84|393:84|360:138,1,223.999993164063,4|0,3:1|0:0,0:0:0:0:
222,219,194406,2,0,P|170:231|113:213,1,103.999995239258,8|0,0:0|0:0,0:0:0:0:
172,127,194739,1,0,0:0:0:0:
268,165,194906,2,0,B|292:197|292:197|290:264,1,103.999995239258,0|0,3:0|0:0,0:0:0:0:
206,323,195239,5,0,0:0:0:0:
382,212,195406,2,0,P|430:198|484:216,1,103.999995239258,0|0,3:0|0:0,0:0:0:0:
290,260,195739,2,0,P|276:210|291:161,1,103.999995239258,8|0,0:0|0:0,0:0:0:0:
378,103,196073,1,2,0:0:0:0:
353,98,196156,1,0,0:0:0:0:
329,88,196239,1,2,0:0:0:0:
307,74,196323,1,0,0:0:0:0:
289,56,196406,6,0,B|228:30|228:30|180:22|180:22|130:30|130:30|67:20,1,223.999993164063,4|0,3:1|0:0,0:0:0:0:
122,223,197073,2,0,P|132:172|105:117,1,103.999995239258,8|0,0:0|0:0,0:0:0:0:
25,182,197406,1,0,0:0:0:0:
37,285,197573,2,0,P|155:325|226:214,1,259.999988098145,0|0,3:0|0:0,0:0:0:0:
263,193,198073,6,0,L|202:108,1,103.999995239258,0|0,3:0|0:0,0:0:0:0:
314,283,198406,2,0,P|352:247|366:193,1,103.999995239258,8|2,0:0|0:0,0:0:0:0:
358,173,198656,1,0,0:0:0:0:
365,149,198739,1,2,0:0:0:0:
359,123,198823,1,0,0:0:0:0:
366,99,198906,1,2,0:0:0:0:
361,73,198989,1,0,0:0:0:0:
367,48,199073,6,0,B|308:11|250:34|250:34|191:57|138:24,1,223.999993164063,4|0,3:1|0:0,0:0:0:0:
78,226,199739,2,0,P|65:171|82:119,1,103.999995239258,8|0,0:0|0:0,0:0:0:0:
169,175,200073,1,0,0:0:0:0:
247,243,200239,2,0,P|260:298|243:350,1,103.999995239258,0|0,3:0|0:0,0:0:0:0:
154,295,200573,5,0,0:0:0:0:
317,167,200739,2,0,L|407:102,1,103.999995239258,0|0,3:0|0:0,0:0:0:0:
447,200,201073,2,0,L|362:260,1,103.999995239258,8|0,0:0|0:0,0:0:0:0:
157,295,201406,1,2,0:0:0:0:
131,289,201489,1,0,0:0:0:0:
109,276,201572,1,2,0:0:0:0:
90,258,201656,1,0,0:0:0:0:
78,235,201739,6,0,B|78:187|78:187|46:139|46:139|46:75|46:75|78:11,1,223.999993164063,4|0,3:1|0:0,0:0:0:0:
139,104,202239,1,0,0:0:0:0:
210,180,202406,2,0,P|261:185|306:161,1,103.999995239258,8|0,0:0|0:0,0:0:0:0:
337,62,202739,1,0,0:0:0:0:
236,88,202906,2,0,P|210:179|330:263,1,259.999988098145,0|0,3:0|0:0,0:0:0:0:
366,300,203406,6,0,L|466:275,1,103.999995239258,0|0,3:0|0:0,0:0:0:0:
276,353,203739,2,0,L|175:328,1,103.999995239258,8|2,0:0|0:0,0:0:0:0:
149,322,203989,1,0,0:0:0:0:
126,310,204072,1,2,0:0:0:0:
106,294,204156,1,0,0:0:0:0:
90,273,204239,1,2,0:0:0:0:
79,249,204322,1,0,0:0:0:0:
74,224,204406,6,0,B|65:153|65:153|74:100|74:100|109:48|109:48|141:96,1,240.000009155274,4|0,3:1|0:0,0:0:0:0:
316,226,205073,2,0,P|248:222|212:184,1,111.999996582031,8|0,0:0|0:0,0:0:0:0:
298,116,205406,1,0,0:0:0:0:
392,177,205573,2,0,L|478:248,1,111.999996582031,0|0,3:0|0:0,0:0:0:0:
298,116,205906,5,0,0:0:0:0:
402,156,206073,2,0,L|501:207,1,111.999996582031,0|0,3:0|0:0,0:0:0:0:
355,53,206406,2,0,P|305:28|250:41,1,111.999996582031,8|0,0:0|0:0,0:0:0:0:
170,116,206739,1,2,0:0:0:0:
157,141,206822,1,0,0:0:0:0:
146,166,206905,1,2,0:0:0:0:
138,193,206989,1,0,0:0:0:0:
132,221,207073,6,0,B|105:273|107:330|107:330|92:266|53:208,1,240.000009155274,4|0,3:1|0:0,0:0:0:0:
257,312,207739,2,0,P|313:328|370:307,1,111.999996582031,8|0,0:0|0:0,0:0:0:0:
445,235,208073,1,0,0:0:0:0:
394,135,208239,2,0,B|347:101|287:113|287:113|234:93|234:93|174:111|126:76,1,279.999991455078,0|0,3:0|0:0,0:0:0:0:
88,117,208739,6,0,L|66:229,1,111.999996582031,0|0,3:0|0:0,0:0:0:0:
157,335,209073,2,0,L|179:226,1,111.999996582031,8|2,0:0|0:0,0:0:0:0:
199,207,209322,1,0,0:0:0:0:
224,195,209405,1,2,0:0:0:0:
252,191,209489,1,0,0:0:0:0:
280,194,209572,1,2,0:0:0:0:
305,206,209655,1,0,0:0:0:0:
326,224,209739,6,4,B|365:274|365:274|410:279|410:279|415:235|415:235|366:171,1,223.999993164063,4|0,3:1|0:0,3:1:0:0:
285,109,210239,1,0,0:0:0:0:
177,75,210406,2,0,P|118:62|69:75,1,111.999996582031,8|0,0:0|0:0,0:0:0:0:
126,171,210739,1,0,0:0:0:0:
255,15,210906,1,0,3:0:0:0:
69,74,211073,6,0,B|52:101|52:101|45:123|45:123|29:148|29:148|22:174,1,111.999996582031
247,23,211406,1,0,3:0:0:0:
126,171,211573,2,0,B|119:197|119:197|103:222|103:222|96:244|96:244|79:271,1,111.999996582031,0|8,0:0|0:0,0:0:0:0:
183,312,211906,1,2,0:0:0:0:
210,317,211989,1,0,0:0:0:0:
238,315,212072,1,2,0:0:0:0:
264,306,212156,1,0,0:0:0:0:
287,290,212239,1,2,0:0:0:0:
306,269,212322,1,0,0:0:0:0:
318,244,212406,6,0,B|324:180|324:180|322:120|322:120|356:73|356:73|299:73,1,240.000009155274,4|0,3:1|0:0,0:0:0:0:
102,182,213073,2,0,P|156:200|214:177,1,111.999996582031,8|0,0:0|0:0,0:0:0:0:
154,83,213406,1,0,0:0:0:0:
16,260,213573,1,0,3:0:0:0:
35,116,213739,6,0,L|37:4,1,111.999996582031
94,262,214073,2,0,P|137:297|199:303,1,111.999996582031,0|0,3:0|0:0,0:0:0:0:
335,240,214406,1,8,0:0:0:0:
133,46,215073,6,0,L|143:128,1,80,6|0,0:0|0:0,0:0:0:0:
133,205,215406,1,0,0:0:0:0:
289,174,215739,2,0,P|325:185|363:219,1,80,2|0,0:0|0:0,0:0:0:0:
289,253,216073,1,0,0:0:0:0:
210,175,216239,2,0,P|221:138|255:100,1,80,2|0,0:0|0:0,0:0:0:0:
394,40,216573,5,0,0:0:0:0:
458,86,216739,2,0,L|472:169,1,80,2|0,0:0|0:0,0:0:0:0:
432,235,217073,2,0,L|445:313,1,80,2|0,0:0|0:0,0:0:0:0:
390,166,217406,1,0,0:0:0:0:
374,154,217489,1,0,0:0:0:0:
356,145,217572,1,0,0:0:0:0:
337,140,217656,1,0,0:0:0:0:
317,139,217739,6,0,L|232:153,1,80,2|0,0:0|0:0,0:0:0:0:
169,195,218073,1,0,0:0:0:0:
81,329,218406,2,0,L|60:247,1,80,2|0,0:0|0:0,0:0:0:0:
54,91,218739,1,0,0:0:0:0:
119,138,218906,2,0,P|133:100|128:59,1,80,2|0,0:0|0:0,0:0:0:0:
54,91,219239,5,0,0:0:0:0:
207,44,219406,2,0,L|290:30,1,80,2|0,0:0|0:0,0:0:0:0:
356,70,219739,2,0,L|434:56,1,80,2|0,0:0|0:0,0:0:0:0:
465,130,220073,1,0,0:0:0:0:
469,149,220156,1,0,0:0:0:0:
468,169,220239,1,0,0:0:0:0:
473,188,220323,1,0,0:0:0:0:
472,208,220406,6,0,L|474:292,2,80,2|0|0,0:0|0:0|0:0,0:0:0:0:
326,274,221073,2,0,P|288:289|247:289,2,80,2|0|0,0:0|0:0|0:0,0:0:0:0:
272,213,221573,2,0,P|232:213|195:228,1,80,2|0,0:0|0:0,0:0:0:0:
141,336,221906,5,0,0:0:0:0:
90,273,222073,2,0,L|76:190,1,80,2|0,0:0|0:0,0:0:0:0:
116,124,222406,2,0,L|102:45,1,80,2|0,0:0|0:0,0:0:0:0:
168,206,222739,1,0,0:0:0:0:
168,206,222823,1,0,0:0:0:0:
168,206,222906,1,0,0:0:0:0:
168,206,222989,1,0,0:0:0:0:
168,206,223073,6,0,P|202:224|242:222,2,80,2|0|0,0:0|0:0|0:0,0:0:0:0:
232,59,223739,2,0,P|266:41|306:43,2,80,2|0|0,0:0|0:0|0:0,0:0:0:0:
284,119,224239,2,0,L|348:171,1,80,2|0,0:0|0:0,0:0:0:0:
410,271,224573,5,0,0:0:0:0:
455,205,224739,2,0,P|471:168|470:129,1,80,2|0,0:0|0:0,0:0:0:0:
379,24,225073,2,0,P|378:64|393:100,1,80,2|0,0:0|0:0,0:0:0:0:
361,184,225406,1,0,0:0:0:0:
361,184,225489,1,0,0:0:0:0:
361,184,225573,1,0,0:0:0:0:
361,184,225656,1,0,0:0:0:0:
361,184,225739,6,0,L|294:232,1,80,2|0,0:0|0:0,0:0:0:0:
252,298,226073,2,0,B|213:278|212:229|212:229|218:189|191:155,1,160,0|2,0:0|0:0,0:0:0:0:
115,137,226573,2,0,L|35:130,1,80
172,80,226906,2,0,L|251:73,1,80,2|0,0:0|0:0,0:0:0:0:
365,34,227239,5,0,0:0:0:0:
365,114,227406,2,0,P|365:155|379:195,1,80,2|0,0:0|0:0,0:0:0:0:
445,325,227739,2,0,P|445:285|433:248,1,80,2|0,0:0|0:0,0:0:0:0:
355,271,228073,2,0,L|316:281,4,40,0|0|0|0|2,0:0|0:0|0:0|0:0|0:0,0:0:0:0:
242,312,228573,6,0,L|155:320,1,80
61,254,229073,2,0,P|90:246|115:226,1,60.0000022888184,2|0,0:0|0:0,0:0:0:0:
164,153,229406,1,0,0:0:0:0:
110,80,229573,2,0,P|89:103|78:140,1,60.0000022888184,2|0,0:0|0:0,0:0:0:0:
164,153,229906,5,0,0:0:0:0:
249,123,230073,2,0,L|307:109,1,60.0000022888184,2|0,0:0|0:0,0:0:0:0:
429,159,230406,2,0,L|371:173,1,60.0000022888184,2|0,0:0|0:0,0:0:0:0:
270,195,230739,2,0,L|240:201,4,30.0000011444092,0|0|0|0|2,0:0|0:0|0:0|0:0|0:0,0:0:0:0:
256,192,231239,12,0,234406,0:0:0:0:
