osu file format v14

[General]
AudioFilename: audio.mp3
AudioLeadIn: 0
PreviewTime: 20539
Countdown: 1
SampleSet: Normal
StackLeniency: 0.7
Mode: 0
LetterboxInBreaks: 0
WidescreenStoryboard: 0

[Editor]
DistanceSpacing: 0.3
BeatDivisor: 8
GridSize: 4
TimelineZoom: 5.799997

[Metadata]
Title:Killing Giants (feat. Richard Caddock)
TitleUnicode:Killing Giants (feat. Richard Caddock)
Artist:Puppet & Murtagh
ArtistUnicode:Puppet & Murtagh
Creator:AsaBen
Version:Triumph
Source:
Tags:
BeatmapID:1925425
BeatmapSetID:922012

[Difficulty]
HPDrainRate:5
CircleSize:4
OverallDifficulty:7
ApproachRate:9.2
SliderMultiplier:1.4
SliderTickRate:1

[Events]
//Background and Video events
0,0,"PuppetBack.jpg",0,0
//Break Periods
//Storyboard Layer 0 (Background)
//Storyboard Layer 1 (Fail)
//Storyboard Layer 2 (Pass)
//Storyboard Layer 3 (Foreground)
//Storyboard Sound Samples

[TimingPoints]
-794,333.333333333333,4,1,1,100,1,0
872,-100,4,1,1,100,0,0
20539,-100,4,1,1,80,0,0
21873,-66.6666666666667,4,3,1,100,0,1
43206,-100,4,2,1,100,0,0
45873,-100,4,2,1,70,0,0
48539,-100,4,2,1,55,0,0
51206,-100,4,2,1,40,0,0
55873,352.941176470588,4,2,1,40,1,0
57108,333.333333333333,4,2,1,40,1,0
58344,352.941176470588,4,2,1,40,1,0
58696,-133.333333333333,4,2,1,40,0,0
59163,-133.333333333333,4,2,1,40,0,0

[HitObjects]
139,179,872,6,0,P|151:216|182:255,1,70,2|2,2:0|2:0,1:0:0:0:
265,280,1206,2,0,P|314:270|355:281,1,70,2|0,2:0|0:0,0:0:0:0:
471,197,1540,1,2,2:0:0:0:
434,327,1706,1,2,2:0:0:0:
316,166,1873,2,0,P|350:202|365:238,1,70,2|0,2:0|0:0,0:0:0:0:
460,67,2206,2,0,P|434:106|427:142,1,70,2|0,0:0|0:0,0:0:0:0:
296,17,2540,2,0,P|328:47|349:88,1,70,2|0,0:0|0:0,0:0:0:0:
171,21,2873,5,2,0:0:0:0:
224,121,3040,1,2,0:0:0:0:
56,190,3206,2,0,P|97:171|147:183,1,70,2|0,0:0|0:0,0:0:0:0:
174,308,3540,2,0,P|220:305|242:292,1,70,2|0,0:0|0:0,0:0:0:0:
224,121,3873,2,0,P|244:168|245:204,1,70,2|0,0:0|0:0,0:0:0:0:
56,190,4206,5,2,0:0:0:0:
174,308,4373,1,2,0:0:0:0:
224,121,4540,5,2,0:0:0:0:
56,190,4706,2,0,L|142:197,1,70,2|0,0:0|0:0,0:0:0:0:
345,119,5040,2,0,B|346:206|247:201|253:313,1,210,2|0,0:0|0:0,0:0:0:0:
119,300,5706,2,0,P|189:281|265:309,1,140,2|0,0:0|0:0,0:0:0:0:
256,127,6206,5,2,0:0:0:0:
342,243,6373,1,2,0:0:0:0:
416,103,6540,2,0,L|406:178,1,70,2|0,0:0|0:0,0:0:0:0:
222,48,6873,1,2,0:0:0:0:
361,41,7040,1,2,0:0:0:0:
234,204,7206,2,0,P|280:162|290:127,1,70,2|0,0:0|0:0,0:0:0:0:
154,56,7540,2,0,P|204:45|251:60,1,70,2|0,0:0|0:0,0:0:0:0:
71,177,7873,2,0,P|104:165|139:166,1,70,2|0,0:0|0:0,0:0:0:0:
251,305,8206,5,2,0:0:0:0:
234,204,8373,1,2,0:0:0:0:
335,146,8540,2,0,L|327:223,1,70,2|0,0:0|0:0,0:0:0:0:
410,329,8873,2,0,L|401:248,1,70,2|0,0:0|0:0,0:0:0:0:
487,151,9206,2,0,L|481:233,1,70,2|0,0:0|0:0,0:0:0:0:
368,35,9539,5,2,0:0:0:0:
412,152,9706,1,2,0:0:0:0:
186,48,9873,2,0,L|276:64,1,70,2|0,0:0|0:0,0:0:0:0:
199,141,10206,2,0,L|133:162,1,70,2|0,0:0|0:0,0:0:0:0:
27,56,10539,2,0,L|108:86,1,70,2|0,0:0|0:0,0:0:0:0:
199,141,10873,1,2,0:0:0:0:
60,219,11039,2,0,B|97:277|97:277|183:304,1,140,2|0,0:0|0:0,0:0:0:0:
282,186,11539,5,2,0:0:0:0:
164,298,11706,1,2,0:0:0:0:
377,288,11873,2,0,P|330:297|285:288,1,70,2|0,0:0|0:0,0:0:0:0:
214,193,12206,2,0,P|248:194|282:186,1,70,2|0,0:0|0:0,0:0:0:0:
435,123,12539,2,0,P|388:132|343:123,1,70,2|0,0:0|0:0,0:0:0:0:
185,55,12873,2,0,P|224:51|258:57,1,70,2|0,0:0|0:0,0:0:0:0:
214,257,13206,2,0,P|158:157|272:170,1,280,2|0,0:0|0:0,0:0:0:0:
443,328,14206,6,0,L|428:254,1,70,2|0,0:0|0:0,0:0:0:0:
337,206,14540,2,0,L|355:289,1,70,2|0,0:0|0:0,0:0:0:0:
281,335,14873,2,0,L|264:255,1,70,2|0,0:0|0:0,0:0:0:0:
94,213,15206,5,2,0:0:0:0:
245,182,15373,1,0,0:0:0:0:
245,182,15539,1,0,0:0:0:0:
123,103,15706,5,2,0:0:0:0:
182,271,15873,1,0,0:0:0:0:
182,271,16039,1,0,0:0:0:0:
44,154,16206,6,0,B|104:199|155:181|155:181|201:169|254:185,1,210,2|0,0:0|0:0,0:0:0:0:
244,182,16873,1,0,0:0:0:0:
290,51,17206,5,0,0:0:0:0:
401,48,17373,1,0,0:0:0:0:
401,48,17539,2,0,L|390:127,1,70
273,187,17873,2,0,P|319:186|367:209,1,70
468,284,18206,6,0,L|389:280,1,70
300,271,18539,1,0,0:0:0:0:
231,121,18706,2,0,P|203:150|195:197,1,70
202,255,19039,1,0,0:0:0:0:
112,285,19206,2,0,B|135:350|203:365|270:344|294:283|294:283|345:265|383:276|383:276|395:232|440:185,1,420
435,40,20539,5,2,0:0:0:0:
420,130,20873,1,2,0:0:0:0:
405,222,21206,1,2,0:0:0:0:
405,222,21373,1,2,0:0:0:0:
405,222,21873,5,2,0:0:0:0:
339,82,22039,1,0,0:0:0:0:
186,207,22206,2,0,P|248:215|298:205,1,105.000004005432
184,47,22539,1,8,1:0:0:0:
57,247,22706,2,0,P|52:184|72:136,1,105.000004005432
282,182,23039,2,0,L|148:190,2,105.000004005432
373,290,23539,5,2,0:0:0:0:
213,325,23706,1,0,0:0:0:0:
370,132,23873,2,0,P|320:147|271:199,1,105.000004005432,8|0,1:0|0:0,0:0:0:0:
476,256,24206,5,0,0:2:0:0:
476,256,24289,1,0,0:2:0:0:
476,256,24373,1,0,0:2:0:0:
472,35,24539,5,2,0:0:0:0:
370,132,24706,1,2,0:2:0:0:
253,38,24873,1,2,0:2:0:0:
291,179,25039,1,2,0:2:0:0:
80,103,25206,1,10,0:2:0:0:
216,121,25373,1,2,0:2:0:0:
99,205,25539,5,2,0:2:0:0:
159,37,25706,1,2,0:2:0:0:
291,179,25873,2,0,P|266:239|236:267,1,105.000004005432,2|0,0:2|0:0,0:0:0:0:
64,300,26206,1,2,0:2:0:0:
237,265,26373,2,0,L|358:275,1,105.000004005432,2|8,0:2|0:1,0:0:0:0:
479,234,26706,6,0,L|447:165,1,52.5000020027161,2|0,0:0|2:0,0:0:0:0:
377,95,26873,1,8,0:0:0:0:
361,96,26956,1,8,0:0:0:0:
345,96,27039,1,8,0:0:0:0:
329,96,27123,1,8,0:0:0:0:
313,97,27206,6,0,P|309:148|266:187,1,105.000004005432,2|0,0:0|0:0,0:0:0:0:
74,58,27539,2,0,P|137:52|191:81,1,105.000004005432
63,265,27873,5,8,0:1:0:0:
119,128,28039,1,0,0:0:0:0:
168,333,28206,1,0,0:0:0:0:
237,93,28373,2,0,P|249:163|279:188,1,105.000004005432
401,56,28706,1,0,0:0:0:0:
371,160,28873,2,0,L|358:277,1,105.000004005432,2|0,0:0|0:0,0:0:0:0:
451,344,29206,1,8,0:1:0:0:
371,160,29373,6,0,L|364:212,1,52.5000020027161,2|0,0:0|2:0,0:0:0:0:
264,153,29539,1,8,0:0:0:0:
257,167,29623,1,8,0:0:0:0:
251,181,29706,1,8,0:0:0:0:
245,195,29789,1,8,0:0:0:0:
240,210,29873,6,0,B|209:267|209:267|151:302,1,105.000004005432,2|2,0:0|2:0,0:0:0:0:
101,97,30206,5,2,0:2:0:0:
52,239,30373,1,2,0:2:0:0:
239,212,30539,1,10,0:2:0:0:
125,178,30706,1,2,0:2:0:0:
214,341,30873,1,2,0:2:0:0:
320,158,31039,1,2,0:2:0:0:
384,351,31206,6,0,P|377:286|397:226,1,105.000004005432,2|0,0:2|0:0,0:0:0:0:
477,155,31539,1,2,0:2:0:0:
276,39,31706,2,0,P|341:49|387:89,1,105.000004005432,0|8,0:0|0:1,0:0:0:0:
230,209,32039,2,0,B|286:188|286:188|325:152,1,105.000004005432,2|0,0:2|0:0,0:0:0:0:
133,35,32373,1,0,0:0:0:0:
96,135,32539,6,0,L|115:252,1,105.000004005432,2|0,0:3|0:0,0:0:0:0:
7,358,32873,2,0,P|68:324|138:325,1,105.000004005432
295,350,33206,5,8,0:1:0:0:
225,218,33373,1,0,0:0:0:0:
400,286,33539,1,0,0:0:0:0:
322,85,33706,2,0,L|336:200,1,105.000004005432
475,108,34039,1,0,0:0:0:0:
218,96,34206,2,0,P|273:83|348:90,1,105.000004005432,2|0,0:3|0:0,0:0:0:0:
93,202,34539,5,8,0:1:0:0:
125,37,34706,1,0,0:0:0:0:
253,195,34873,1,0,0:2:0:0:
253,195,34956,1,0,0:2:0:0:
253,195,35039,1,0,0:2:0:0:
391,21,35206,5,2,0:2:0:0:
356,180,35373,1,2,0:2:0:0:
286,62,35539,1,2,0:2:0:0:
442,227,35706,1,2,0:2:0:0:
446,95,35873,1,10,0:2:0:0:
338,308,36039,1,2,0:2:0:0:
287,150,36206,1,2,0:2:0:0:
211,298,36373,5,2,0:2:0:0:
435,277,36539,2,0,P|375:305|324:306,1,105.000004005432,2|0,0:2|0:0,0:0:0:0:
287,150,36873,1,2,0:2:0:0:
58,151,37039,2,0,P|117:139|171:153,1,105.000004005432,2|8,0:2|0:1,0:0:0:0:
27,357,37373,2,0,L|41:249,1,105.000004005432,2|0,0:2|0:0,0:0:0:0:
272,304,37706,2,0,P|207:309|167:293,1,105.000004005432,2|2,0:2|0:0,0:0:0:0:
204,52,38039,5,2,0:2:0:0:
232,218,38206,1,2,0:2:0:0:
100,139,38373,1,2,0:2:0:0:
319,44,38539,1,10,0:2:0:0:
255,138,38706,1,2,0:2:0:0:
442,81,38873,5,2,0:2:0:0:
406,243,39039,1,2,0:2:0:0:
371,154,39206,2,0,P|436:161|485:193,1,105.000004005432,2|0,0:2|0:0,0:0:0:0:
347,319,39539,1,2,0:2:0:0:
205,215,39706,2,0,L|310:222,1,105.000004005432,2|8,0:2|0:1,0:0:0:0:
221,312,40039,1,2,0:2:0:0:
287,135,40206,1,0,0:0:0:0:
173,119,40373,2,0,P|203:167|203:221,1,105.000004005432,2|2,0:2|0:0,0:0:0:0:
108,359,40706,5,0,0:0:0:0:
10,136,40873,1,0,0:0:0:0:
154,277,41039,1,0,0:0:0:0:
37,285,41206,2,0,P|55:221|88:185,1,105.000004005432,8|0,0:1|0:0,0:0:0:0:
326,342,41539,2,0,L|216:337,1,105.000004005432
409,136,41873,5,2,0:0:0:0:
383,266,42039,1,2,0:0:0:0:
272,38,42206,5,2,0:0:0:0:
311,215,42373,1,2,0:0:0:0:
128,43,42539,5,2,0:0:0:0:
229,257,42706,1,2,0:0:0:0:
13,122,42873,5,2,1:1:0:0:
152,203,43039,1,2,1:1:0:0:
50,297,43206,6,0,L|122:291,1,70,2|0,0:0|0:0,0:0:0:0:
148,367,43539,2,0,P|178:349|197:319,1,70
152,203,43873,5,0,0:0:0:0:
268,279,44039,1,0,0:0:0:0:
240,196,44206,1,0,0:0:0:0:
268,279,44373,1,0,0:0:0:0:
343,215,44539,2,0,L|412:218,2,70
281,132,45039,6,0,L|378:137,1,70
441,138,45373,1,0,0:0:0:0:
374,51,45539,5,0,0:0:0:0:
374,51,45623,1,0,0:0:0:0:
374,51,45706,1,0,0:0:0:0:
374,51,45789,1,0,0:0:0:0:
374,51,45873,5,0,0:0:0:0:
350,135,46039,1,0,0:0:0:0:
254,16,46206,2,0,P|274:54|273:92,1,70
193,68,46539,1,0,0:0:0:0:
116,143,46706,2,0,L|190:148,1,70
265,152,47039,1,0,0:0:0:0:
347,136,47206,6,0,P|347:174|329:209,1,70,2|0,0:0|0:0,0:0:0:0:
232,231,47539,2,0,P|264:274|294:285,1,70,2|0,0:0|0:0,0:0:0:0:
333,202,47873,1,2,0:0:0:0:
395,265,48039,2,0,P|368:314|334:336,1,70,2|0,0:0|0:0,0:0:0:0:
357,322,48289,2,0,L|322:348,2,35
281,283,48539,6,0,L|210:300,1,70,2|0,0:0|0:0,0:0:0:0:
164,367,48873,2,0,P|135:327|130:293,1,70
120,217,49206,1,0,0:0:0:0:
215,298,49373,2,0,L|204:223,1,70
189,147,49706,1,0,0:0:0:0:
79,161,49873,6,0,P|100:199|124:220,1,70
189,147,50206,2,0,P|200:93|198:69,1,70
117,89,50539,2,0,P|71:81|41:88,1,70
91,173,50873,5,0,0:0:0:0:
91,173,50956,1,0,0:0:0:0:
91,173,51039,1,0,0:0:0:0:
91,173,51123,1,0,0:0:0:0:
91,173,51206,1,0,0:0:0:0:
156,235,51373,5,0,0:0:0:0:
236,223,51539,2,0,P|215:183|190:163,1,70
91,173,51873,1,0,0:0:0:0:
93,261,52039,2,0,P|141:247|159:230,2,70
169,325,52539,6,0,L|244:313,1,70,2|0,0:0|0:0,0:0:0:0:
243,234,52873,2,0,P|284:251|306:275,1,70,2|0,0:0|0:0,0:0:0:0:
345,334,53206,1,2,0:0:0:0:
447,264,53373,6,0,L|375:260,1,70,2|0,0:0|0:0,0:0:0:0:
377,260,53623,1,0,0:0:0:0:
377,260,53706,1,0,0:0:0:0:
377,260,53789,1,0,0:0:0:0:
377,260,53873,1,2,0:0:0:0:
451,186,54039,5,0,0:0:0:0:
432,105,54206,2,0,P|402:122|377:147,1,70
340,214,54539,1,0,0:0:0:0:
248,189,54706,2,0,L|297:136,2,70
200,252,55206,1,0,0:0:0:0:
151,184,55373,6,0,P|122:221|115:257,1,70
133,315,55706,2,0,P|87:311|47:280,1,70
37,227,56049,5,0,0:0:0:0:
125,198,56225,2,0,L|144:238,4,35
69,135,56755,5,0,0:0:0:0:
137,121,56931,2,0,P|88:127|53:143,1,70
44,51,57274,1,0,0:0:0:0:
131,51,57441,2,0,L|137:130,1,70
216,108,57774,1,0,0:0:0:0:
210,38,57941,6,0,L|217:124,1,70,2|0,0:0|0:0,0:0:0:0:
225,196,58344,1,2,0:0:0:0:
139,106,58696,2,0,P|186:97|216:106,1,78.7500030040742,2|2,0:0|0:0,0:0:0:0:
215,106,59402,6,0,B|283:53|368:80|368:80|393:151|330:226|330:226|346:185|340:155|340:155|250:228|174:204|174:204|123:189|54:195,1,682.50002603531,2|0,0:0|0:0,0:0:0:0:
256,192,61873,12,0,67311,0:0:0:0:
