osu file format v14

[General]
AudioFilename: Neptuna.mp3
AudioLeadIn: 0
PreviewTime: 160342
Countdown: 0
SampleSet: Normal
StackLeniency: 0.7
Mode: 3
LetterboxInBreaks: 0
SpecialStyle: 0
WidescreenStoryboard: 1

[Editor]
DistanceSpacing: 1
BeatDivisor: 8
GridSize: 8
TimelineZoom: 1

[Metadata]
Title:Neptuna
TitleUnicode:Neptuna
Artist:PulseDriver
ArtistUnicode:PulseDriver
Creator:abraker
Version:Easy
Source:
Tags:Techno
BeatmapID:509540
BeatmapSetID:217230

[Difficulty]
HPDrainRate:7
CircleSize:4
OverallDifficulty:5
ApproachRate:5
SliderMultiplier:2
SliderTickRate:2

[Events]
//Background and Video events
0,0,"musisic anime3.jpg",0,0
//Break Periods
//Storyboard Layer 0 (Background)
//Storyboard Layer 1 (Fail)
//Storyboard Layer 2 (Pass)
//Storyboard Layer 3 (Foreground)
//Storyboard Sound Samples

[TimingPoints]
2653,428.504092214081,4,1,0,100,1,0
47217,-100,4,1,0,100,0,1
88353,-100,4,1,0,100,0,0
160342,-100,4,1,0,100,0,1
187766,-100,4,1,0,100,0,0

[HitObjects]
64,192,2653,5,0,0:0:0:8:
448,192,2653,1,0,0:0:0:8:
192,192,2867,1,0,0:0:0:8:
448,192,3081,1,0,0:0:0:8:
192,192,3295,1,0,0:0:0:8:
192,192,4581,1,0,0:0:0:8:
64,192,4795,1,0,0:0:0:8:
448,192,5009,1,0,0:0:0:8:
64,192,6295,1,0,0:0:0:8:
320,192,6509,1,0,0:0:0:8:
64,192,6723,1,0,0:0:0:8:
320,192,8009,1,0,0:0:0:8:
192,192,8223,1,0,0:0:0:8:
448,192,8437,1,0,0:0:0:8:
192,192,9723,1,0,0:0:0:8:
64,192,9937,1,0,0:0:0:8:
192,192,10151,1,0,0:0:0:8:
192,192,11437,1,0,0:0:0:8:
448,192,11651,1,0,0:0:0:8:
320,192,11865,1,0,0:0:0:8:
64,192,13151,1,0,0:0:0:8:
192,192,13365,1,0,0:0:0:8:
64,192,13579,1,0,0:0:0:8:
192,192,14865,1,0,0:0:0:8:
448,192,15079,1,0,0:0:0:8:
192,192,15293,1,0,0:0:0:8:
320,192,16579,1,0,0:0:0:8:
448,192,16793,1,0,0:0:0:8:
320,192,17007,1,0,0:0:0:8:
448,192,18293,1,0,0:0:0:8:
320,192,18507,1,0,0:0:0:8:
448,192,18721,1,0,0:0:0:8:
192,192,20007,1,0,0:0:0:8:
320,192,20221,1,0,0:0:0:8:
192,192,20435,1,0,0:0:0:8:
192,192,21721,1,0,0:0:0:8:
64,192,21935,1,0,0:0:0:8:
448,192,22149,1,0,0:0:0:8:
64,192,23435,1,0,0:0:0:8:
192,192,23649,1,0,0:0:0:8:
448,192,23863,1,0,0:0:0:8:
64,192,25149,1,0,0:0:0:8:
320,192,25363,1,0,0:0:0:8:
448,192,25577,1,0,0:0:0:8:
320,192,26863,1,0,0:0:0:8:
320,192,27291,1,0,0:0:0:8:
192,192,28363,1,0,0:0:0:8:
192,192,28791,1,0,0:0:0:8:
448,192,29220,1,0,0:0:0:8:
448,192,29541,1,0,0:0:0:8:
448,192,29755,1,0,0:0:0:8:
448,192,30077,1,0,0:0:0:8:
320,192,30077,1,0,0:0:0:8:
64,192,30505,1,0,0:0:0:8:
64,192,30934,1,0,0:0:0:8:
64,192,31148,1,0,0:0:0:8:
192,192,31469,1,0,0:0:0:8:
320,192,31791,1,0,0:0:0:8:
320,192,32219,1,0,0:0:0:8:
320,192,32648,1,0,0:0:0:8:
192,192,32969,1,0,0:0:0:8:
192,192,33291,1,0,0:0:0:8:
64,192,33505,1,0,0:0:0:8:
64,192,33933,1,0,0:0:0:8:
64,192,34362,1,0,0:0:0:8:
320,192,34576,1,0,0:0:0:8:
448,192,34790,1,0,0:0:0:8:
192,192,35005,1,0,0:0:0:8:
64,192,35219,1,0,0:0:0:8:
64,192,35647,1,0,0:0:0:8:
64,192,36076,1,0,0:0:0:8:
448,192,36397,1,0,0:0:0:8:
192,192,36611,1,0,0:0:0:8:
320,192,36933,1,0,0:0:0:8:
448,192,36933,1,0,0:0:0:8:
320,192,37361,1,0,0:0:0:8:
64,192,37790,1,0,0:0:0:8:
320,192,38004,1,0,0:0:0:8:
64,192,38218,1,0,0:0:0:8:
320,192,38433,1,0,0:0:0:8:
64,192,38647,1,0,0:0:0:8:
192,192,38647,1,0,0:0:0:8:
448,192,39075,5,0,0:0:0:8:
192,192,39504,1,0,0:0:0:8:
448,192,39718,1,0,0:0:0:8:
192,192,39932,1,0,0:0:0:8:
448,192,40147,1,0,0:0:0:8:
192,192,40361,1,0,0:0:0:8:
64,192,40361,1,0,0:0:0:8:
64,192,40789,1,0,0:0:0:8:
320,192,41218,1,0,0:0:0:8:
448,192,41218,1,0,0:0:0:8:
64,192,41432,1,0,0:0:0:8:
192,192,41646,1,0,0:0:0:8:
64,192,41861,1,0,0:0:0:8:
320,192,42075,1,0,0:0:0:8:
448,192,42075,1,0,0:0:0:8:
64,192,42503,1,0,0:0:0:8:
192,192,42503,1,0,0:0:0:8:
320,192,42932,1,0,0:0:0:8:
448,192,42932,1,0,0:0:0:8:
64,192,43146,1,0,0:0:0:8:
448,192,43360,1,0,0:0:0:8:
320,192,43575,1,0,0:0:0:8:
192,192,43789,1,0,0:0:0:8:
64,192,43789,1,0,0:0:0:8:
448,192,44003,1,0,0:0:0:8:
64,192,44217,1,0,0:0:0:8:
448,192,44432,1,0,0:0:0:8:
64,192,44646,1,0,0:0:0:8:
448,192,44860,1,0,0:0:0:8:
64,192,45074,1,0,0:0:0:8:
448,192,45289,1,0,0:0:0:8:
64,192,45503,1,0,0:0:0:8:
64,192,45717,1,0,0:0:0:8:
64,192,45931,1,0,0:0:0:8:
320,192,46360,1,0,0:0:0:8:
320,192,46574,1,0,0:0:0:8:
448,192,46788,1,0,0:0:0:8:
320,192,47003,1,0,0:0:0:8:
64,192,47217,1,0,0:0:0:8:
192,192,47217,1,0,0:0:0:8:
320,192,47645,1,0,0:0:0:8:
448,192,48074,1,0,0:0:0:8:
192,192,48288,1,0,0:0:0:8:
448,192,48502,1,0,0:0:0:8:
192,192,48717,1,0,0:0:0:8:
448,192,48931,1,0,0:0:0:8:
320,192,49359,1,0,0:0:0:8:
320,192,49788,1,0,0:0:0:8:
64,192,50002,1,0,0:0:0:8:
320,192,50216,1,0,0:0:0:8:
64,192,50431,1,0,0:0:0:8:
320,192,50645,1,0,0:0:0:8:
64,192,51073,1,0,0:0:0:8:
64,192,51502,1,0,0:0:0:8:
192,192,51716,1,0,0:0:0:8:
64,192,51930,1,0,0:0:0:8:
192,192,52145,1,0,0:0:0:8:
64,192,52359,1,0,0:0:0:8:
320,192,52787,1,0,0:0:0:8:
320,192,53216,1,0,0:0:0:8:
448,192,53430,1,0,0:0:0:8:
320,192,53644,1,0,0:0:0:8:
448,192,53859,1,0,0:0:0:8:
320,192,54073,1,0,0:0:0:8:
192,192,54501,1,0,0:0:0:8:
320,192,54930,1,0,0:0:0:8:
64,192,55144,1,0,0:0:0:8:
448,192,55359,1,0,0:0:0:8:
192,192,55573,1,0,0:0:0:8:
448,192,55787,1,0,0:0:0:8:
192,192,56216,1,0,0:0:0:8:
192,192,56644,1,0,0:0:0:8:
448,192,56858,1,0,0:0:0:8:
64,192,57073,1,0,0:0:0:8:
320,192,57287,1,0,0:0:0:8:
64,192,57501,1,0,0:0:0:8:
448,192,57930,1,0,0:0:0:8:
448,192,58358,1,0,0:0:0:8:
192,192,58572,1,0,0:0:0:8:
448,192,58787,1,0,0:0:0:8:
64,192,59001,1,0,0:0:0:8:
320,192,59215,1,0,0:0:0:8:
448,192,59215,1,0,0:0:0:8:
192,192,59644,1,0,0:0:0:8:
448,192,60072,1,0,0:0:0:8:
448,192,60286,1,0,0:0:0:8:
192,192,60501,1,0,0:0:0:8:
448,192,60715,1,0,0:0:0:8:
192,192,60929,1,0,0:0:0:8:
64,192,60929,1,0,0:0:0:8:
320,192,61358,1,0,0:0:0:8:
192,192,61358,1,0,0:0:0:8:
64,192,61786,1,0,0:0:0:8:
448,192,62000,1,0,0:0:0:8:
64,192,62215,1,0,0:0:0:8:
448,192,62429,1,0,0:0:0:8:
64,192,62643,1,0,0:0:0:8:
192,192,62643,1,0,0:0:0:8:
192,192,63072,1,0,0:0:0:8:
320,192,63072,1,0,0:0:0:8:
448,192,63500,1,0,0:0:0:8:
64,192,63714,1,0,0:0:0:8:
192,192,63929,1,0,0:0:0:8:
64,192,64143,1,0,0:0:0:8:
448,192,64357,1,0,0:0:0:8:
320,192,64357,1,0,0:0:0:8:
320,192,64786,1,0,0:0:0:8:
192,192,64786,1,0,0:0:0:8:
64,192,65214,1,0,0:0:0:8:
320,192,65428,1,0,0:0:0:8:
192,192,65643,1,0,0:0:0:8:
448,192,65857,1,0,0:0:0:8:
192,192,66071,1,0,0:0:0:8:
64,192,66071,1,0,0:0:0:8:
192,192,66500,1,0,0:0:0:8:
320,192,66500,1,0,0:0:0:8:
448,192,66928,1,0,0:0:0:8:
192,192,67142,1,0,0:0:0:8:
448,192,67357,1,0,0:0:0:8:
64,192,67571,1,0,0:0:0:8:
448,192,67785,1,0,0:0:0:8:
320,192,67785,1,0,0:0:0:8:
192,192,68214,1,0,0:0:0:8:
320,192,68214,1,0,0:0:0:8:
64,192,68696,1,0,0:0:0:8:
320,192,68856,1,0,0:0:0:8:
192,192,69071,1,0,0:0:0:8:
448,192,69285,1,0,0:0:0:8:
64,192,69499,1,0,0:0:0:8:
192,192,69499,1,0,0:0:0:8:
320,192,69928,1,0,0:0:0:8:
192,192,69928,1,0,0:0:0:8:
64,192,70356,1,0,0:0:0:8:
448,192,70570,1,0,0:0:0:8:
320,192,70785,1,0,0:0:0:8:
64,192,70999,1,0,0:0:0:8:
192,192,71213,1,0,0:0:0:8:
448,192,71213,1,0,0:0:0:8:
64,192,71642,1,0,0:0:0:8:
320,192,71642,1,0,0:0:0:8:
192,192,72070,1,0,0:0:0:8:
448,192,72284,1,0,0:0:0:8:
320,192,72499,1,0,0:0:0:8:
64,192,72713,1,0,0:0:0:8:
320,192,72927,1,0,0:0:0:8:
448,192,72927,1,0,0:0:0:8:
320,192,73356,1,0,0:0:0:8:
448,192,73356,1,0,0:0:0:8:
64,192,73784,1,0,0:0:0:8:
320,192,73998,1,0,0:0:0:8:
64,192,74213,1,0,0:0:0:8:
448,192,74427,1,0,0:0:0:8:
64,192,74641,1,0,0:0:0:8:
192,192,74641,1,0,0:0:0:8:
448,192,75070,1,0,0:0:0:8:
192,192,75070,1,0,0:0:0:8:
64,192,75498,1,0,0:0:0:8:
320,192,75712,1,0,0:0:0:8:
64,192,75927,1,0,0:0:0:8:
448,192,76141,1,0,0:0:0:8:
192,192,76355,1,0,0:0:0:8:
64,192,76355,1,0,0:0:0:8:
192,192,76784,1,0,0:0:0:8:
320,192,76784,1,0,0:0:0:8:
192,192,77212,1,0,0:0:0:8:
64,192,77426,1,0,0:0:0:8:
320,192,77641,1,0,0:0:0:8:
448,192,77855,1,0,0:0:0:8:
192,192,78069,1,0,0:0:0:8:
64,192,78069,1,0,0:0:0:8:
192,192,78498,1,0,0:0:0:8:
64,192,78498,1,0,0:0:0:8:
192,192,78926,1,0,0:0:0:8:
320,192,79140,1,0,0:0:0:8:
192,192,79355,1,0,0:0:0:8:
448,192,79569,1,0,0:0:0:8:
64,192,79783,1,0,0:0:0:8:
192,192,79783,1,0,0:0:0:8:
64,192,80212,1,0,0:0:0:8:
192,192,80212,1,0,0:0:0:8:
320,192,80640,1,0,0:0:0:8:
192,192,80854,1,0,0:0:0:8:
448,192,81122,1,0,0:0:0:8:
64,192,81283,1,0,0:0:0:8:
320,192,81497,1,0,0:0:0:8:
448,192,81497,1,0,0:0:0:8:
192,192,81926,1,0,0:0:0:8:
320,192,81926,1,0,0:0:0:8:
448,192,82354,1,0,0:0:0:8:
192,192,82569,1,0,0:0:0:8:
448,192,82783,1,0,0:0:0:8:
64,192,82997,1,0,0:0:0:8:
448,192,83211,1,0,0:0:0:8:
320,192,83211,1,0,0:0:0:8:
192,192,83640,1,0,0:0:0:8:
320,192,83640,1,0,0:0:0:8:
192,192,84068,1,0,0:0:0:8:
64,192,84283,1,0,0:0:0:8:
320,192,84497,1,0,0:0:0:8:
448,192,84711,1,0,0:0:0:8:
64,192,84925,1,0,0:0:0:8:
192,192,84925,1,0,0:0:0:8:
192,192,85354,1,0,0:0:0:8:
320,192,85354,1,0,0:0:0:8:
64,192,85782,1,0,0:0:0:8:
320,192,85997,1,0,0:0:0:8:
64,192,86211,1,0,0:0:0:8:
320,192,86425,1,0,0:0:0:8:
448,192,86639,1,0,0:0:0:8:
448,192,86854,1,0,0:0:0:8:
448,192,87068,1,0,0:0:0:8:
192,192,87228,1,0,0:0:0:8:
448,192,87496,1,0,0:0:0:8:
192,192,87711,1,0,0:0:0:8:
448,192,87925,1,0,0:0:0:8:
320,192,88139,1,0,0:0:0:8:
192,192,88353,1,0,0:0:0:8:
64,192,88353,1,0,0:0:0:8:
448,192,88782,1,0,0:0:0:8:
320,192,88782,1,0,0:0:0:8:
192,192,89210,1,0,0:0:0:8:
320,192,89210,1,0,0:0:0:8:
448,192,89639,1,0,0:0:0:8:
320,192,89639,1,0,0:0:0:8:
64,192,90067,1,0,0:0:0:8:
192,192,90067,1,0,0:0:0:8:
192,192,90496,1,0,0:0:0:8:
320,192,90496,1,0,0:0:0:8:
64,192,90710,1,0,0:0:0:8:
448,192,90924,1,0,0:0:0:8:
320,192,90924,1,0,0:0:0:8:
192,192,91353,1,0,0:0:0:8:
320,192,91353,1,0,0:0:0:8:
64,192,91781,1,0,0:0:0:8:
192,192,91781,1,0,0:0:0:8:
320,192,92210,1,0,0:0:0:8:
448,192,92210,1,0,0:0:0:8:
192,192,92638,1,0,0:0:0:8:
64,192,92638,1,0,0:0:0:8:
192,192,93067,1,0,0:0:0:8:
320,192,93067,1,0,0:0:0:8:
64,192,93495,1,0,0:0:0:8:
192,192,93495,1,0,0:0:0:8:
448,192,93924,1,0,0:0:0:8:
320,192,93924,1,0,0:0:0:8:
64,192,94138,1,0,0:0:0:8:
192,192,94352,1,0,0:0:0:8:
320,192,94352,1,0,0:0:0:8:
320,192,94781,1,0,0:0:0:8:
448,192,94781,1,0,0:0:0:8:
64,192,94995,1,0,0:0:0:8:
192,192,95209,1,0,0:0:0:8:
448,192,95209,1,0,0:0:0:8:
64,192,95424,1,0,0:0:0:8:
192,192,95638,1,0,0:0:0:8:
448,192,95638,1,0,0:0:0:8:
64,192,96066,1,0,0:0:0:8:
320,192,96066,1,0,0:0:0:8:
192,192,96495,1,0,0:0:0:8:
64,192,96495,1,0,0:0:0:8:
64,192,96923,1,0,0:0:0:8:
448,192,96923,1,0,0:0:0:8:
64,192,97352,1,0,0:0:0:8:
192,192,97352,1,0,0:0:0:8:
448,192,97566,1,0,0:0:0:8:
64,192,97780,1,0,0:0:0:8:
320,192,97780,1,0,0:0:0:8:
320,192,98209,1,0,0:0:0:8:
448,192,98209,1,0,0:0:0:8:
64,192,98637,1,0,0:0:0:8:
320,192,98637,1,0,0:0:0:8:
192,192,99066,1,0,0:0:0:8:
448,192,99066,1,0,0:0:0:8:
320,192,99494,1,0,0:0:0:8:
64,192,99494,1,0,0:0:0:8:
192,192,99923,1,0,0:0:0:8:
320,192,99923,1,0,0:0:0:8:
448,192,100351,1,0,0:0:0:8:
64,192,100351,1,0,0:0:0:8:
64,192,100780,1,0,0:0:0:8:
192,192,100780,1,0,0:0:0:8:
448,192,100994,1,0,0:0:0:8:
64,192,101208,1,0,0:0:0:8:
320,192,101208,1,0,0:0:0:8:
192,192,101637,1,0,0:0:0:8:
320,192,101637,1,0,0:0:0:8:
448,192,102065,1,0,0:0:0:8:
320,192,102065,1,0,0:0:0:8:
64,192,102280,1,0,0:0:0:8:
448,192,102494,1,0,0:0:0:8:
64,192,102708,1,0,0:0:0:8:
448,192,102922,1,0,0:0:0:8:
320,192,102922,1,0,0:0:0:8:
192,192,103351,1,0,0:0:0:8:
64,192,103351,1,0,0:0:0:8:
192,192,103779,1,0,0:0:0:8:
448,192,103779,1,0,0:0:0:8:
64,192,104208,1,0,0:0:0:8:
192,192,104208,1,0,0:0:0:8:
448,192,104422,1,0,0:0:0:8:
320,192,104636,1,0,0:0:0:8:
64,192,104636,1,0,0:0:0:8:
192,192,105065,1,0,0:0:0:8:
448,192,105065,1,0,0:0:0:8:
192,192,105493,1,0,0:0:0:8:
320,192,105493,1,0,0:0:0:8:
64,192,105922,1,0,0:0:0:8:
192,192,105922,1,0,0:0:0:8:
320,192,106350,1,0,0:0:0:8:
448,192,106350,1,0,0:0:0:8:
64,192,106779,1,0,0:0:0:8:
320,192,106779,1,0,0:0:0:8:
192,192,107207,1,0,0:0:0:8:
320,192,107207,1,0,0:0:0:8:
192,192,107636,1,0,0:0:0:8:
448,192,107636,1,0,0:0:0:8:
64,192,107850,1,0,0:0:0:8:
320,192,108065,1,0,0:0:0:8:
448,192,108065,1,0,0:0:0:8:
64,192,108493,1,0,0:0:0:8:
192,192,108493,1,0,0:0:0:8:
192,192,108922,1,0,0:0:0:8:
320,192,108922,1,0,0:0:0:8:
64,192,109136,1,0,0:0:0:8:
448,192,109350,1,0,0:0:0:8:
64,192,109564,1,0,0:0:0:8:
192,192,109779,1,0,0:0:0:8:
448,192,109779,1,0,0:0:0:8:
64,192,110207,1,0,0:0:0:8:
320,192,110207,1,0,0:0:0:8:
192,192,110636,1,0,0:0:0:8:
448,192,110636,1,0,0:0:0:8:
192,192,111064,1,0,0:0:0:8:
320,192,111064,1,0,0:0:0:8:
448,192,111278,1,0,0:0:0:8:
320,192,111493,1,0,0:0:0:8:
64,192,111493,1,0,0:0:0:8:
192,192,111921,1,0,0:0:0:8:
320,192,111921,1,0,0:0:0:8:
64,192,112350,1,0,0:0:0:8:
192,192,112350,1,0,0:0:0:8:
192,192,112778,1,0,0:0:0:8:
320,192,112778,1,0,0:0:0:8:
192,192,113207,1,0,0:0:0:8:
448,192,113207,1,0,0:0:0:8:
64,192,113421,1,0,0:0:0:8:
448,192,113635,1,0,0:0:0:8:
320,192,113635,1,0,0:0:0:8:
192,192,113849,1,0,0:0:0:8:
448,192,114064,1,0,0:0:0:8:
64,192,114278,1,0,0:0:0:8:
448,192,114492,1,0,0:0:0:8:
64,192,114706,1,0,0:0:0:8:
448,192,114921,1,0,0:0:0:8:
320,192,115135,1,0,0:0:0:8:
192,192,115349,1,0,0:0:0:8:
64,192,115563,1,0,0:0:0:8:
320,192,115778,1,0,0:0:0:8:
448,192,115778,1,0,0:0:0:8:
64,192,115992,1,0,0:0:0:8:
320,192,116206,1,0,0:0:0:8:
64,192,116420,1,0,0:0:0:8:
448,192,116635,1,0,0:0:0:8:
192,192,116849,1,0,0:0:0:8:
448,192,117063,1,0,0:0:0:8:
192,192,117277,1,0,0:0:0:8:
448,192,117492,1,0,0:0:0:8:
64,192,117706,1,0,0:0:0:8:
320,192,117920,1,0,0:0:0:8:
64,192,118134,1,0,0:0:0:8:
320,192,118349,1,0,0:0:0:8:
64,192,118563,1,0,0:0:0:8:
448,192,118777,1,0,0:0:0:8:
448,192,119206,1,0,0:0:0:8:
64,192,119420,1,0,0:0:0:8:
320,192,119634,1,0,0:0:0:8:
64,192,119848,1,0,0:0:0:8:
448,192,120063,1,0,0:0:0:8:
192,192,120277,1,0,0:0:0:8:
448,192,120491,1,0,0:0:0:8:
192,192,120705,1,0,0:0:0:8:
448,192,120920,1,0,0:0:0:8:
64,192,121134,1,0,0:0:0:8:
320,192,121348,1,0,0:0:0:8:
64,192,121562,1,0,0:0:0:8:
320,192,121777,1,0,0:0:0:8:
64,192,121991,1,0,0:0:0:8:
448,192,122205,1,0,0:0:0:8:
192,192,122419,1,0,0:0:0:8:
448,192,122634,1,0,0:0:0:8:
64,192,122848,1,0,0:0:0:8:
320,192,123062,1,0,0:0:0:8:
64,192,123276,1,0,0:0:0:8:
448,192,123491,1,0,0:0:0:8:
64,192,123705,1,0,0:0:0:8:
448,192,123919,1,0,0:0:0:8:
64,192,124133,1,0,0:0:0:8:
448,192,124348,1,0,0:0:0:8:
192,192,124562,1,0,0:0:0:8:
448,192,124776,1,0,0:0:0:8:
192,192,124990,1,0,0:0:0:8:
448,192,125205,1,0,0:0:0:8:
192,192,125419,1,0,0:0:0:8:
448,192,125633,1,0,0:0:0:8:
192,192,125847,1,0,0:0:0:8:
320,192,126062,1,0,0:0:0:8:
64,192,126276,1,0,0:0:0:8:
320,192,126490,1,0,0:0:0:8:
64,192,126704,1,0,0:0:0:8:
320,192,126919,1,0,0:0:0:8:
64,192,127133,1,0,0:0:0:8:
320,192,127347,1,0,0:0:0:8:
64,192,127561,1,0,0:0:0:8:
448,192,127776,1,0,0:0:0:8:
64,192,127990,1,0,0:0:0:8:
448,192,128204,1,0,0:0:0:8:
192,192,128418,1,0,0:0:0:8:
448,192,128633,1,0,0:0:0:8:
320,192,128847,1,0,0:0:0:8:
448,192,129061,1,0,0:0:0:8:
64,192,129275,1,0,0:0:0:8:
448,192,129490,128,0,129704:0:0:0:8:
64,192,129918,128,0,130132:0:0:0:8:
448,192,131204,128,0,131418:0:0:0:8:
64,192,131632,128,0,131846:0:0:0:8:
320,192,132061,128,0,132275:0:0:0:8:
64,192,132382,128,0,132596:0:0:0:8:
448,192,132596,128,0,132811:0:0:0:8:
64,192,132918,128,0,133132:0:0:0:8:
64,192,133346,128,0,133561:0:0:0:8:
320,192,134632,128,0,134846:0:0:0:8:
320,192,135060,128,0,135275:0:0:0:8:
192,192,135489,128,0,135703:0:0:0:8:
448,192,135810,128,0,136024:0:0:0:8:
192,192,136132,128,0,136346:0:0:0:8:
448,192,136346,128,0,136560:0:0:0:8:
448,192,136774,128,0,136989:0:0:0:8:
320,192,138060,128,0,138274:0:0:0:8:
320,192,138488,128,0,138703:0:0:0:8:
448,192,138917,128,0,139131:0:0:0:8:
192,192,139238,128,0,139452:0:0:0:8:
448,192,139560,128,0,139774:0:0:0:8:
64,192,139774,128,0,139988:0:0:0:8:
64,192,140202,128,0,140417:0:0:0:8:
320,192,141488,128,0,141702:0:0:0:8:
320,192,141916,128,0,142131:0:0:0:8:
448,192,142345,5,0,0:0:0:8:
64,192,142452,1,0,0:0:0:8:
448,192,142666,1,0,0:0:0:8:
64,192,142880,1,0,0:0:0:8:
448,192,142988,1,0,0:0:0:8:
64,192,143202,1,0,0:0:0:8:
192,192,143202,1,0,0:0:0:8:
320,192,143630,1,0,0:0:0:8:
320,192,144059,1,0,0:0:0:8:
320,192,144273,1,0,0:0:0:8:
64,192,144487,1,0,0:0:0:8:
320,192,144702,1,0,0:0:0:8:
64,192,144916,1,0,0:0:0:8:
64,192,145344,1,0,0:0:0:8:
320,192,145559,1,0,0:0:0:8:
320,192,145773,1,0,0:0:0:8:
64,192,145987,1,0,0:0:0:8:
192,192,146201,1,0,0:0:0:8:
448,192,146416,1,0,0:0:0:8:
64,192,146630,1,0,0:0:0:8:
192,192,147058,1,0,0:0:0:8:
64,192,147487,1,0,0:0:0:8:
64,192,147701,1,0,0:0:0:8:
320,192,147915,1,0,0:0:0:8:
64,192,148130,1,0,0:0:0:8:
320,192,148344,1,0,0:0:0:8:
192,192,148772,1,0,0:0:0:8:
192,192,149201,1,0,0:0:0:8:
320,192,149415,1,0,0:0:0:8:
192,192,149629,1,0,0:0:0:8:
320,192,149844,1,0,0:0:0:8:
192,192,150058,1,0,0:0:0:8:
64,192,150058,1,0,0:0:0:8:
320,192,150486,1,0,0:0:0:8:
320,192,150915,1,0,0:0:0:8:
192,192,151129,1,0,0:0:0:8:
320,192,151343,1,0,0:0:0:8:
192,192,151558,1,0,0:0:0:8:
320,192,151772,1,0,0:0:0:8:
448,192,151772,1,0,0:0:0:8:
64,192,152200,1,0,0:0:0:8:
64,192,152629,1,0,0:0:0:8:
448,192,152843,1,0,0:0:0:8:
320,192,153057,1,0,0:0:0:8:
448,192,153272,1,0,0:0:0:8:
64,192,153486,1,0,0:0:0:8:
192,192,153486,1,0,0:0:0:8:
320,192,153914,1,0,0:0:0:8:
448,192,154343,1,0,0:0:0:8:
192,192,154343,1,0,0:0:0:8:
64,192,154557,1,0,0:0:0:8:
192,192,154771,1,0,0:0:0:8:
64,192,154986,1,0,0:0:0:8:
448,192,155200,1,0,0:0:0:8:
320,192,155200,1,0,0:0:0:8:
64,192,155628,1,0,0:0:0:8:
192,192,155628,1,0,0:0:0:8:
448,192,156057,1,0,0:0:0:8:
64,192,156057,1,0,0:0:0:8:
192,192,156271,1,0,0:0:0:8:
448,192,156485,1,0,0:0:0:8:
192,192,156700,1,0,0:0:0:8:
64,192,156914,1,0,0:0:0:8:
320,192,156914,1,0,0:0:0:8:
64,192,157235,128,0,157450:0:0:0:8:
448,192,157664,128,0,157878:0:0:0:8:
64,192,158092,128,0,158307:0:0:0:8:
320,192,158521,128,0,158735:0:0:0:8:
192,192,158949,128,0,159164:0:0:0:8:
320,192,159485,1,0,0:0:0:8:
320,192,159699,1,0,0:0:0:8:
320,192,159914,1,0,0:0:0:8:
192,192,160128,1,0,0:0:0:8:
64,192,160342,1,0,0:0:0:8:
64,192,160771,1,0,0:0:0:8:
64,192,161199,1,0,0:0:0:8:
320,192,161413,1,0,0:0:0:8:
64,192,161628,1,0,0:0:0:8:
320,192,161842,1,0,0:0:0:8:
320,192,162056,1,0,0:0:0:8:
320,192,162485,1,0,0:0:0:8:
320,192,162913,1,0,0:0:0:8:
192,192,163127,1,0,0:0:0:8:
320,192,163342,1,0,0:0:0:8:
192,192,163556,1,0,0:0:0:8:
320,192,163770,1,0,0:0:0:8:
320,192,164199,1,0,0:0:0:8:
320,192,164627,1,0,0:0:0:8:
448,192,164841,1,0,0:0:0:8:
192,192,165056,1,0,0:0:0:8:
64,192,165270,1,0,0:0:0:8:
64,192,165484,1,0,0:0:0:8:
64,192,165913,1,0,0:0:0:8:
64,192,166341,1,0,0:0:0:8:
448,192,166555,1,0,0:0:0:8:
64,192,166770,1,0,0:0:0:8:
320,192,166984,1,0,0:0:0:8:
320,192,167198,1,0,0:0:0:8:
320,192,167627,1,0,0:0:0:8:
320,192,168055,1,0,0:0:0:8:
192,192,168269,1,0,0:0:0:8:
448,192,168484,1,0,0:0:0:8:
192,192,168698,1,0,0:0:0:8:
192,192,168912,1,0,0:0:0:8:
192,192,169341,1,0,0:0:0:8:
192,192,169769,1,0,0:0:0:8:
64,192,169983,1,0,0:0:0:8:
192,192,170198,1,0,0:0:0:8:
64,192,170412,1,0,0:0:0:8:
192,192,170626,1,0,0:0:0:8:
192,192,171055,1,0,0:0:0:8:
192,192,171483,1,0,0:0:0:8:
448,192,171697,1,0,0:0:0:8:
192,192,171912,1,0,0:0:0:8:
448,192,172126,1,0,0:0:0:8:
448,192,172340,1,0,0:0:0:8:
448,192,172769,1,0,0:0:0:8:
448,192,173197,1,0,0:0:0:8:
64,192,173411,1,0,0:0:0:8:
448,192,173679,1,0,0:0:0:8:
64,192,173840,1,0,0:0:0:8:
448,192,174054,1,0,0:0:0:8:
320,192,174054,1,0,0:0:0:8:
64,192,174483,1,0,0:0:0:8:
64,192,174911,1,0,0:0:0:8:
320,192,175125,1,0,0:0:0:8:
64,192,175340,1,0,0:0:0:8:
64,192,175554,1,0,0:0:0:8:
448,192,175768,1,0,0:0:0:8:
448,192,176197,1,0,0:0:0:8:
448,192,176625,1,0,0:0:0:8:
448,192,176839,1,0,0:0:0:8:
64,192,177054,1,0,0:0:0:8:
448,192,177268,1,0,0:0:0:8:
192,192,177482,1,0,0:0:0:8:
192,192,177911,1,0,0:0:0:8:
192,192,178339,1,0,0:0:0:8:
448,192,178553,1,0,0:0:0:8:
448,192,178768,1,0,0:0:0:8:
192,192,178982,1,0,0:0:0:8:
448,192,179196,1,0,0:0:0:8:
448,192,179625,1,0,0:0:0:8:
448,192,180053,1,0,0:0:0:8:
64,192,180267,1,0,0:0:0:8:
320,192,180482,1,0,0:0:0:8:
64,192,180696,1,0,0:0:0:8:
320,192,180910,1,0,0:0:0:8:
320,192,181339,1,0,0:0:0:8:
320,192,181767,1,0,0:0:0:8:
64,192,181981,1,0,0:0:0:8:
320,192,182196,1,0,0:0:0:8:
64,192,182410,1,0,0:0:0:8:
320,192,182624,1,0,0:0:0:8:
320,192,183053,1,0,0:0:0:8:
320,192,183481,1,0,0:0:0:8:
64,192,183695,1,0,0:0:0:8:
448,192,183910,1,0,0:0:0:8:
192,192,184124,1,0,0:0:0:8:
448,192,184338,1,0,0:0:0:8:
448,192,184767,1,0,0:0:0:8:
192,192,185195,1,0,0:0:0:8:
448,192,185624,1,0,0:0:0:8:
320,192,186052,1,0,0:0:0:8:
64,192,186267,1,0,0:0:0:8:
448,192,186481,1,0,0:0:0:8:
192,192,186695,1,0,0:0:0:8:
448,192,186909,1,0,0:0:0:8:
64,192,187124,1,0,0:0:0:8:
320,192,187338,1,0,0:0:0:8:
64,192,187552,1,0,0:0:0:8:
320,192,187766,1,0,0:0:0:8:
64,192,187981,1,0,0:0:0:8:
192,192,188195,1,0,0:0:0:8:
320,192,188409,1,0,0:0:0:8:
448,192,188623,1,0,0:0:0:8:
192,192,188838,1,0,0:0:0:8:
320,192,189052,1,0,0:0:0:8:
448,192,189266,1,0,0:0:0:8:
192,192,189480,1,0,0:0:0:8:
64,192,189695,1,0,0:0:0:8:
448,192,189909,1,0,0:0:0:8:
320,192,190123,1,0,0:0:0:8:
192,192,190337,1,0,0:0:0:8:
64,192,190552,1,0,0:0:0:8:
448,192,190766,1,0,0:0:0:8:
320,192,190980,1,0,0:0:0:8:
448,192,191194,1,0,0:0:0:8:
320,192,191409,1,0,0:0:0:8:
192,192,191623,1,0,0:0:0:8:
64,192,191837,1,0,0:0:0:8:
448,192,192051,1,0,0:0:0:8:
64,192,192266,1,0,0:0:0:8:
192,192,192480,1,0,0:0:0:8:
320,192,192694,1,0,0:0:0:8:
448,192,192908,1,0,0:0:0:8:
64,192,193123,1,0,0:0:0:8:
448,192,193337,1,0,0:0:0:8:
64,192,193551,1,0,0:0:0:8:
192,192,193765,1,0,0:0:0:8:
448,192,193980,1,0,0:0:0:8:
320,192,194194,1,0,0:0:0:8:
64,192,194408,1,0,0:0:0:8:
320,192,194622,1,0,0:0:0:8:
448,192,194837,1,0,0:0:0:8:
192,192,195051,1,0,0:0:0:8:
64,192,195265,1,0,0:0:0:8:
320,192,195479,1,0,0:0:0:8:
192,192,195694,1,0,0:0:0:8:
64,192,195908,1,0,0:0:0:8:
192,192,196122,1,0,0:0:0:8:
320,192,196336,1,0,0:0:0:8:
448,192,196551,1,0,0:0:0:8:
192,192,196765,1,0,0:0:0:8:
448,192,196979,1,0,0:0:0:8:
64,192,197193,1,0,0:0:0:8:
320,192,197408,1,0,0:0:0:8:
192,192,197622,1,0,0:0:0:8:
64,192,197836,1,0,0:0:0:8:
320,192,198050,1,0,0:0:0:8:
448,192,198265,1,0,0:0:0:8:
320,192,198479,1,0,0:0:0:8:
192,192,198693,1,0,0:0:0:8:
448,192,198907,1,0,0:0:0:8:
64,192,199122,1,0,0:0:0:8:
192,192,199336,1,0,0:0:0:8:
448,192,199550,1,0,0:0:0:8:
320,192,199764,1,0,0:0:0:8:
64,192,199979,1,0,0:0:0:8:
192,192,200193,1,0,0:0:0:8:
320,192,200407,1,0,0:0:0:8:
448,192,200621,1,0,0:0:0:8:
64,192,200836,1,0,0:0:0:8:
448,192,201050,1,0,0:0:0:8:
64,192,201478,128,0,204639:0:0:0:8:
192,192,201478,128,0,204639:0:0:0:8:
320,192,201478,128,0,204639:0:0:0:8:
448,192,201478,128,0,204639:0:0:0:8:
