osu file format v14

[General]
AudioFilename: Teen Titans - Full.mp3
AudioLeadIn: 0
PreviewTime: -1
Countdown: 0
SampleSet: None
StackLeniency: 0.7
Mode: 0
LetterboxInBreaks: 1
WidescreenStoryboard: 0

[Editor]
Bookmarks: 155279
DistanceSpacing: 1.5
BeatDivisor: 8
GridSize: 8
TimelineZoom: 0.9000001

[Metadata]
Title:Teen Titans Theme Song
TitleUnicode:Teen Titans Theme Song
Artist:PuffyAmi Yumi
ArtistUnicode:PuffyAmi Yumi
Creator:Alexzoin
Version:Normal
Source:TV show Teen Titans
Tags:Teen Titans original puffy ami yumi robin starfire beast boy raven cyborg
BeatmapID:1579444
BeatmapSetID:749919

[Difficulty]
HPDrainRate:5
CircleSize:5
OverallDifficulty:6
ApproachRate:8
SliderMultiplier:3.59999990463257
SliderTickRate:4

[Events]
//Background and Video events
Video,10,"-NEW- Teen Titans Theme Song HD 1080p BEST AVAILABLE.avi"
0,0,"Teen Titans.jpg",0,0
//Break Periods
2,31443,36336
2,60539,64348
2,66924,71216
2,75599,76999
2,126744,149740
//Storyboard Layer 0 (Background)
//Storyboard Layer 1 (Fail)
//Storyboard Layer 2 (Pass)
//Storyboard Layer 3 (Foreground)
//Storyboard Sound Samples

[TimingPoints]
3833.65886370451,722.89156626506,4,1,0,70,1,0

[Colours]
Combo1 : 111,0,217
Combo2 : 174,227,1
Combo3 : 255,163,28
Combo4 : 216,0,21
Combo5 : 15,200,255

[HitObjects]
144,104,2207,6,0,L|64:56,2,89.9999976158143
176,96,2749,1,8,0:0:0:0:
288,112,2930,6,0,L|336:32,2,89.9999976158143
304,144,3472,1,8,0:0:0:0:
344,216,3652,6,0,L|424:264,2,89.9999976158143
320,232,4194,1,8,0:0:0:0:
272,320,4375,6,0,L|352:368,2,89.9999976158143
256,288,4917,1,8,0:0:0:0:
248,168,5098,6,0,L|296:88,2,89.9999976158143
216,184,5640,1,8,0:0:0:0:
160,248,5821,6,0,B|160:224|160:72|160:72,2,89.9999976158143
256,192,6363,1,8,0:0:0:0:
352,160,6544,6,0,B|352:264|352:248|352:248|352:256,2,89.9999976158143
256,192,7086,1,4,0:0:0:0:
192,80,7990,5,0,0:0:0:0:
248,80,8351,1,0,0:0:0:0:
304,80,8713,2,0,P|512:80|520:72,1,179.999995231629
416,168,9436,1,0,0:0:0:0:
360,168,9797,1,0,0:0:0:0:
304,168,10158,2,0,L|208:168,1,89.9999976158143
176,168,10520,1,0,0:0:0:0:
128,168,10701,2,0,P|16:168|32:160,1,539.999985694885
384,288,12689,5,0,0:0:0:0:
408,192,13050,1,0,0:0:0:0:
360,192,13231,1,0,0:0:0:0:
112,64,13773,5,0,0:0:0:0:
112,128,14134,1,0,0:0:0:0:
112,192,14496,2,0,L|112:376,1,179.999995231629
296,304,15219,1,0,0:0:0:0:
344,248,15580,1,0,0:0:0:0:
392,192,15942,2,0,P|456:24|456:8,1,179.999995231629
408,32,16484,1,0,0:0:0:0:
360,40,16664,2,0,P|360:200|392:120,1,629.9999833107
152,176,18472,5,0,0:0:0:0:
128,72,18833,1,0,0:0:0:0:
176,72,19014,1,0,0:0:0:0:
408,104,19917,5,0,0:0:0:0:
408,152,20098,1,0,0:0:0:0:
408,200,20279,1,0,0:0:0:0:
408,256,20640,2,4,P|408:368|384:360,1,179.999995231629
376,368,21092,1,0,0:0:0:0:
344,368,21272,1,0,0:0:0:0:
312,368,21453,1,0,0:0:0:0:
288,368,21634,1,0,0:0:0:0:
112,280,22809,5,0,0:0:0:0:
112,232,22990,1,0,0:0:0:0:
112,184,23171,1,0,0:0:0:0:
112,104,23532,2,4,L|280:16,1,179.999995231629
272,48,23984,1,0,0:0:0:0:
272,72,24164,1,0,0:0:0:0:
272,96,24345,1,0,0:0:0:0:
272,120,24526,1,0,0:0:0:0:
32,160,25610,5,0,0:0:0:0:
88,96,25791,1,0,0:0:0:0:
144,160,25972,1,0,0:0:0:0:
208,96,26152,1,0,0:0:0:0:
320,192,26514,1,0,0:0:0:0:
424,192,26875,2,0,L|528:192|552:192,3,89.9999976158143
424,264,27689,5,0,0:0:0:0:
352,264,27960,1,0,0:0:0:0:
280,264,28321,2,0,P|8:264|264:120,1,764.999979734421
336,48,30219,5,0,0:0:0:0:
184,48,30520,1,0,0:0:0:0:
256,48,30671,1,0,0:0:0:0:
256,240,31243,5,0,0:0:0:0:
64,56,37086,37,0,0:0:0:0:
152,112,37448,1,0,0:0:0:0:
64,152,37809,2,0,L|128:64,2,89.9999976158143,0|0|0,0:0|0:0|0:0,0:0:0:0:
80,200,38351,2,0,L|144:280,2,89.9999976158143,0|0|0,0:0|0:0|0:0,0:0:0:0:
232,208,39255,1,0,0:0:0:0:
312,208,39616,1,0,0:0:0:0:
352,208,39797,2,0,P|496:200|392:120,2,359.999990463257,0|0|0,0:0|0:0|0:0,0:0:0:0:
256,160,41785,5,0,0:0:0:0:
232,72,42146,1,0,0:0:0:0:
280,72,42327,1,0,0:0:0:0:
400,192,42869,5,0,0:0:0:0:
256,80,43231,1,0,0:0:0:0:
112,184,43592,1,0,0:0:0:0:
232,304,43954,1,0,0:0:0:0:
272,304,44134,2,0,P|368:304|456:264,1,179.999995231629
444,272,44677,5,0,0:0:0:0:
288,328,45038,1,0,0:0:0:0:
152,304,45399,1,0,0:0:0:0:
152,296,45580,2,0,B|152:8|152:-24|48:-24|344:-16|424:-8|400:152|296:144|256:136|240:136|224:136|208:128|200:128|160:128|152:128|240:216|280:256|344:320,1,809.999978542328
256,144,47568,5,0,0:0:0:0:
232,56,47930,1,0,0:0:0:0:
280,56,48110,1,0,0:0:0:0:
384,264,48833,5,0,0:0:0:0:
256,264,49014,1,0,0:0:0:0:
312,184,49195,1,0,0:0:0:0:
328,336,49375,1,0,0:0:0:0:
408,168,49737,5,0,0:0:0:0:
256,264,50098,1,0,0:0:0:0:
264,152,50461,1,0,0:0:0:0:
304,176,50641,1,0,0:0:0:0:
280,144,51785,5,0,0:0:0:0:
152,144,51966,1,0,0:0:0:0:
208,224,52147,1,0,0:0:0:0:
224,72,52327,1,0,0:0:0:0:
264,200,52689,5,0,0:0:0:0:
224,168,52869,1,0,0:0:0:0:
192,136,53050,1,0,0:0:0:0:
112,248,53412,1,0,0:0:0:0:
144,224,53592,1,0,0:0:0:0:
328,120,54677,5,0,0:0:0:0:
456,120,54858,1,0,0:0:0:0:
400,200,55039,1,0,0:0:0:0:
384,48,55219,1,0,0:0:0:0:
176,168,55610,5,0,0:0:0:0:
240,272,55972,1,0,0:0:0:0:
232,136,56333,1,0,0:0:0:0:
296,240,56695,1,0,0:0:0:0:
288,104,57056,1,0,0:0:0:0:
256,192,57327,12,6,58954,0:0:0:0:
176,48,59315,5,0,0:0:0:0:
328,48,59616,1,0,0:0:0:0:
256,48,59767,1,0,0:0:0:0:
256,240,60339,5,0,0:0:0:0:
176,320,65098,5,0,0:0:0:0:
408,152,65460,1,0,0:0:0:0:
360,104,65640,1,0,0:0:0:0:
256,192,66002,2,0,B|152:192|152:232|272:96|312:56|320:48|208:40|128:40,1,359.999990463257
176,264,71966,5,0,0:0:0:0:
336,128,72508,1,0,0:0:0:0:
176,128,73050,1,0,0:0:0:0:
336,264,73592,1,0,0:0:0:0:
256,192,74134,1,0,0:0:0:0:
256,32,74496,1,0,0:0:0:0:
176,112,74857,5,0,0:0:0:0:
336,112,75038,1,0,0:0:0:0:
256,32,75219,1,0,0:0:0:0:
256,192,75399,1,0,0:0:0:0:
256,320,77749,5,0,0:0:0:0:
152,224,78291,1,0,0:0:0:0:
368,224,78833,1,0,0:0:0:0:
256,48,79375,1,0,0:0:0:0:
256,120,79737,2,0,L|256:304,1,179.999995231629
256,344,80279,1,0,0:0:0:0:
256,112,80640,1,0,0:0:0:0:
360,192,83532,5,0,0:0:0:0:
144,192,84074,1,0,0:0:0:0:
256,72,84616,1,0,0:0:0:0:
256,296,85158,1,0,0:0:0:0:
200,136,85701,1,0,0:0:0:0:
240,176,86062,1,0,0:0:0:0:
280,216,86424,1,0,0:0:0:0:
320,240,86605,1,0,0:0:0:0:
352,240,86786,1,0,0:0:0:0:
384,216,86966,1,0,0:0:0:0:
160,96,89406,5,0,0:0:0:0:
352,280,89948,1,0,0:0:0:0:
160,96,90490,1,0,0:0:0:0:
352,280,91032,1,0,0:0:0:0:
208,192,91574,1,0,0:0:0:0:
304,192,91936,1,0,0:0:0:0:
256,192,92297,12,2,96544,0:0:0:0:
152,152,96725,5,0,0:0:0:0:
368,152,97086,1,0,0:0:0:0:
256,280,97448,1,0,0:0:0:0:
256,48,97809,1,0,0:0:0:0:
256,192,98171,12,2,103773,0:0:0:0:
136,192,103954,5,0,0:0:0:0:
400,192,104315,1,0,0:0:0:0:
256,48,104677,1,0,0:0:0:0:
256,304,105038,1,0,0:0:0:0:
256,64,105399,1,0,0:0:0:0:
314,132,105580,1,0,0:0:0:0:
375,192,105761,1,0,0:0:0:0:
264,304,106122,1,0,0:0:0:0:
200,247,106303,1,0,0:0:0:0:
142,183,106484,1,0,0:0:0:0:
48,192,106845,5,0,0:0:0:0:
256,192,107387,1,0,0:0:0:0:
448,192,107930,1,0,0:0:0:0:
160,72,108652,5,0,0:0:0:0:
360,72,109014,1,0,0:0:0:0:
136,192,109737,5,0,0:0:0:0:
400,192,110098,1,0,0:0:0:0:
256,336,110460,1,0,0:0:0:0:
256,80,110821,1,0,0:0:0:0:
256,320,111182,1,0,0:0:0:0:
314,252,111363,1,0,0:0:0:0:
375,192,111544,1,0,0:0:0:0:
264,80,111905,1,0,0:0:0:0:
200,137,112086,1,0,0:0:0:0:
142,201,112267,1,0,0:0:0:0:
48,192,112628,5,0,0:0:0:0:
256,192,113170,1,0,0:0:0:0:
448,192,113713,1,0,0:0:0:0:
160,312,114435,5,0,0:0:0:0:
360,312,114797,1,0,0:0:0:0:
256,312,115520,5,0,0:0:0:0:
256,48,115881,1,0,0:0:0:0:
112,192,116243,1,0,0:0:0:0:
368,192,116604,1,0,0:0:0:0:
128,192,116965,1,0,0:0:0:0:
196,134,117146,1,0,0:0:0:0:
256,73,117327,1,0,0:0:0:0:
368,184,117688,1,0,0:0:0:0:
311,248,117869,1,0,0:0:0:0:
247,306,118050,1,0,0:0:0:0:
256,360,118411,5,0,0:0:0:0:
256,192,118953,1,0,0:0:0:0:
256,24,119496,1,0,0:0:0:0:
256,288,120218,5,0,0:0:0:0:
256,88,120580,1,0,0:0:0:0:
136,192,121484,5,0,0:0:0:0:
400,192,121845,1,0,0:0:0:0:
256,48,122207,1,0,0:0:0:0:
256,304,122568,1,0,0:0:0:0:
256,64,122929,1,0,0:0:0:0:
314,132,123110,1,0,0:0:0:0:
375,192,123291,1,0,0:0:0:0:
264,304,123652,1,0,0:0:0:0:
200,247,123833,1,0,0:0:0:0:
142,183,124014,1,0,0:0:0:0:
48,192,124375,5,0,0:0:0:0:
256,192,124917,1,0,0:0:0:0:
448,192,125460,1,0,0:0:0:0:
160,72,126182,5,0,0:0:0:0:
360,72,126544,1,0,0:0:0:0:
144,112,150490,5,0,0:0:0:0:
160,208,150852,1,0,0:0:0:0:
248,144,151213,1,0,0:0:0:0:
272,256,151574,1,0,0:0:0:0:
352,184,151936,1,0,0:0:0:0:
368,304,152297,1,0,0:0:0:0:
440,208,152658,1,0,0:0:0:0:
352,248,153020,1,0,0:0:0:0:
312,224,153192,2,0,P|72:64|104:240,1,674.999982118607
256,144,155279,5,0,0:0:0:0:
232,56,155640,1,0,0:0:0:0:
280,56,155821,1,0,0:0:0:0:
368,272,156363,5,0,0:0:0:0:
352,176,156725,1,0,0:0:0:0:
264,240,157086,1,0,0:0:0:0:
240,128,157447,1,0,0:0:0:0:
160,200,157809,1,0,0:0:0:0:
144,80,158170,1,0,0:0:0:0:
72,176,158531,1,0,0:0:0:0:
160,136,158893,1,0,0:0:0:0:
200,160,159065,2,0,P|440:320|408:144,1,674.999982118607
152,176,161063,5,0,0:0:0:0:
128,72,161424,1,0,0:0:0:0:
176,72,161605,1,0,0:0:0:0:
408,104,162508,5,0,0:0:0:0:
408,152,162689,1,0,0:0:0:0:
408,200,162870,1,0,0:0:0:0:
408,256,163231,2,4,P|408:368|384:360,1,179.999995231629
376,368,163683,1,0,0:0:0:0:
344,368,163863,1,0,0:0:0:0:
312,368,164044,1,0,0:0:0:0:
288,368,164225,1,0,0:0:0:0:
112,280,165400,5,0,0:0:0:0:
112,232,165581,1,0,0:0:0:0:
112,184,165762,1,0,0:0:0:0:
112,104,166123,2,4,L|280:16,1,179.999995231629
272,48,166575,1,0,0:0:0:0:
272,72,166755,1,0,0:0:0:0:
272,96,166936,1,0,0:0:0:0:
272,120,167117,1,0,0:0:0:0:
32,160,168110,5,0,0:0:0:0:
88,96,168291,1,0,0:0:0:0:
144,160,168472,1,0,0:0:0:0:
208,96,168652,1,0,0:0:0:0:
320,192,169105,1,0,0:0:0:0:
424,192,169466,2,0,L|528:192|552:192,3,89.9999976158143
416,264,170279,5,0,0:0:0:0:
352,264,170551,1,0,0:0:0:0:
280,264,170912,2,0,P|8:264|264:120,1,764.999979734421
336,48,172719,5,0,0:0:0:0:
176,48,173080,1,0,0:0:0:0:
256,48,173231,1,0,0:0:0:0:
256,232,173713,6,0,L|256:32,1,179.999995231629
352,48,174526,5,4,0:0:0:0:
448,48,174707,1,4,0:0:0:0:
400,144,174887,1,8,0:0:0:0:
448,240,175249,5,4,0:0:0:0:
448,336,175430,1,4,0:0:0:0:
352,288,175610,1,8,0:0:0:0:
280,336,175972,5,4,0:0:0:0:
184,336,176153,1,4,0:0:0:0:
232,240,176333,1,8,0:0:0:0:
232,240,176695,5,4,0:0:0:0:
232,144,176876,1,4,0:0:0:0:
328,192,177056,1,8,0:0:0:0:
176,144,177417,5,4,0:0:0:0:
80,144,177598,1,4,0:0:0:0:
128,48,177778,1,8,0:0:0:0:
344,144,178140,5,4,0:0:0:0:
440,144,178321,1,4,0:0:0:0:
392,48,178501,1,0,0:0:0:0:
296,40,178863,5,0,0:0:0:0:
200,80,179044,1,0,0:0:0:0:
256,192,179586,5,4,0:0:0:0:
256,96,179948,5,8,0:0:0:0:
176,144,180309,5,4,0:0:0:0:
80,144,180490,1,4,0:0:0:0:
128,48,180671,1,8,0:0:0:0:
72,232,181032,5,4,0:0:0:0:
72,328,181213,1,4,0:0:0:0:
168,280,181393,1,8,0:0:0:0:
272,312,181755,5,4,0:0:0:0:
368,312,181936,1,4,0:0:0:0:
320,216,182116,1,8,0:0:0:0:
392,96,182478,5,8,0:0:0:0:
128,96,182839,5,8,0:0:0:0:
128,304,183201,5,8,0:0:0:0:
392,304,183562,5,8,0:0:0:0:
256,192,183924,5,4,0:0:0:0:
