osu file format v14

[General]
AudioFilename: audio.mp3
AudioLeadIn: 0
PreviewTime: 26551
Countdown: 1
SampleSet: Normal
StackLeniency: 0.7
Mode: 0
LetterboxInBreaks: 0
WidescreenStoryboard: 1

[Editor]
Bookmarks: 16005,16551,30551,42187,53779
DistanceSpacing: 0.8
BeatDivisor: 1
GridSize: 4
TimelineZoom: 1

[Metadata]
Title:Teen Titans GO! (JP Ver)
TitleUnicode:Teen Titans GO! (JP Ver)
Artist:Puffy AmiYumi
ArtistUnicode:Puffy AmiYumi
Creator:Cancel
Version:Normal
Source:Teen Titans
Tags:
BeatmapID:1644745
BeatmapSetID:783282

[Difficulty]
HPDrainRate:3
CircleSize:3
OverallDifficulty:5
ApproachRate:6
SliderMultiplier:0.9
SliderTickRate:2

[Events]
//Background and Video events
0,0,"background.jpg",0,0
Video,-1513,"video720audio.mp4"
//Break Periods
//Storyboard Layer 0 (Background)
//Storyboard Layer 1 (Fail)
//Storyboard Layer 2 (Pass)
//Storyboard Layer 3 (Foreground)
//Storyboard Sound Samples

[TimingPoints]
1460.26538832888,363.636363636364,4,2,1,50,1,0
1642,-100,4,2,1,20,0,0
1823,-100,4,2,1,50,0,0
2005,-100,4,2,1,20,0,0
2187,-100,4,2,1,50,0,0
2369,-100,4,2,1,20,0,0
2551,-100,4,2,1,50,0,0
2732,-100,4,2,1,20,0,0
2914,-100,4,2,1,50,0,0
3096,-100,4,2,1,20,0,0
3278,-100,4,2,1,50,0,0
3460,-100,4,2,1,20,0,0
3642,-100,4,2,1,50,0,0
4369,-76.9230769230769,4,1,1,60,0,0
27642,-76.9230769230769,4,1,1,60,0,1
27823,-76.9230769230769,4,1,1,60,0,0
30551,-83.3333333333333,4,1,1,60,0,0
53779,363.636363636364,4,1,1,60,1,0
53779,-76.9230769230769,4,1,1,60,0,1
58142,-83.3333333333333,4,1,1,60,0,0

[Colours]
Combo1 : 26,149,215
Combo2 : 255,0,0
Combo3 : 117,0,187
Combo4 : 213,0,170
Combo5 : 70,0,255
Combo6 : 60,221,55
SliderBorder : 255,0,0
SliderTrackOverride : 0,0,0

[HitObjects]
184,284,1460,6,0,B|208:248|208:248|184:92,1,180,2|2,0:0|0:0,0:0:0:0:
256,56,2551,1,2,0:0:0:0:
324,112,2914,2,0,B|304:248|304:248|328:284,1,180,2|2,0:0|0:0,0:0:0:0:
412,64,4369,6,0,P|304:20|228:108,1,233.999989288331,4|0,0:0|0:0,0:0:0:0:
264,180,5460,1,8,0:0:0:0:
172,168,5823,2,0,P|132:152|52:172,1,116.999994644165,0|8,0:0|0:0,0:0:0:0:
4,240,6551,2,0,P|44:256|124:236,1,116.999994644165,0|8,0:0|0:0,0:0:0:0:
180,312,7278,6,0,B|236:328|236:328|344:280|344:280|412:292,1,233.999989288331,2|2,0:0|0:0,0:0:0:0:
448,208,8369,1,8,0:0:0:0:
408,124,8732,2,2,B|351:134|351:134|243:86|243:86|187:102,1,233.999989288331
112,48,9823,1,8,0:0:0:0:
48,116,10187,6,0,L|64:248,1,116.999994644165,0|8,0:0|0:0,0:0:0:0:
76,324,10914,2,0,P|108:300|212:300,1,116.999994644165,0|8,0:0|0:0,0:0:0:0:
256,348,11642,1,0,0:0:0:0:
329,289,12005,2,0,P|387:293|436:324,1,116.999994644165,8|0,0:0|0:0,0:0:0:0:
449,232,12732,2,0,L|464:116,1,116.999994644165,8|2,0:0|0:0,0:0:0:0:
412,40,13460,5,8,0:0:0:0:
368,124,13823,1,2,0:0:0:0:
320,44,14187,1,8,0:0:0:0:
276,128,14551,6,0,L|144:120,1,116.999994644165,10|10,0:0|0:0,0:0:0:0:
120,204,15278,2,2,L|236:211,1,116.999994644165,10|10,0:0|0:0,0:0:0:0:
276,296,16005,6,0,L|32:280,1,233.999989288331,4|0,0:0|0:0,0:0:0:0:
12,100,17460,2,0,B|64:64|124:80|124:80|156:20|240:16,1,233.999989288331
404,48,18914,6,0,B|388:104|388:104|424:216|424:216|408:272,1,233.999989288331
232,336,20369,2,0,B|200:328|200:328|112:336,1,116.999994644165,0|8,0:0|0:0,0:0:0:0:
112,240,21096,2,0,B|144:248|144:248|232:240,1,116.999994644165,0|8,0:0|0:0,0:0:0:0:
292,172,21823,6,0,B|248:140|192:152|192:152|140:112|80:132|80:132|152:108|168:40,1,350.999983932496,0|8,0:0|0:0,0:0:0:0:
260,64,23278,2,0,B|348:80|380:136|380:136|392:204|352:244|352:244|372:268|372:268|340:300|356:368|444:384|464:304,1,467.999978576661,8|8,0:0|0:0,0:0:0:0:
256,192,24914,12,4,26187,0:2:0:0:
196,64,27642,6,0,B|208:240|208:240|184:296,1,233.999989288331,4|0,0:0|0:0,0:0:0:0:
256,356,28732,1,8,0:0:0:0:
326,292,29096,2,0,B|304:240|304:240|316:64,1,233.999989288331
396,216,30551,6,0,P|420:252|416:336,1,107.999996704102,4|8,0:0|0:0,0:0:0:0:
362,372,31278,2,0,L|230:352,1,107.999996704102,0|8,0:0|0:0,0:0:0:0:
204,288,32005,1,0,0:0:0:0:
124,324,32369,1,8,0:0:0:0:
52,276,32732,1,0,0:0:0:0:
132,240,33096,1,8,0:0:0:0:
64,188,33460,6,0,B|88:156|144:140|192:176|192:176|208:156|208:156|184:136|184:116,1,215.999993408203
256,64,34551,1,8,0:0:0:0:
324,116,34914,2,2,B|324:136|300:156|300:156|316:176|316:176|364:140|420:156|444:188,1,215.999993408203
460,272,36005,1,8,0:0:0:0:
416,348,36369,6,0,L|288:336,1,107.999996704102,0|8,0:0|0:0,0:0:0:0:
244,280,37096,2,0,P|204:296|112:268,1,107.999996704102,0|8,0:0|0:0,0:0:0:0:
88,220,37823,2,0,L|100:104,1,107.999996704102,0|8,0:0|0:0,0:0:0:0:
72,32,38551,1,0,0:0:0:0:
156,48,38914,1,8,0:0:0:0:
240,64,39278,6,0,L|384:44,1,107.999996704102,2|8,0:0|0:0,0:0:0:0:
364,136,40005,2,0,L|257:150,1,107.999996704102,2|8,0:0|0:0,0:0:0:0:
276,236,40732,2,2,L|420:216,2,107.999996704102,2|10|10,0:0|0:0|0:0,0:0:0:0:
140,344,42187,6,0,B|152:300|152:300|128:108,1,215.999993408203,4|0,0:0|0:0,0:0:0:0:
64,76,43278,1,8,0:0:0:0:
148,48,43642,2,0,B|236:88|268:8|360:40,1,215.999993408203
444,188,45096,6,0,P|384:296|296:280,1,215.999993408203
264,212,46187,1,8,0:0:0:0:
352,208,46551,2,0,P|288:128|180:196,1,215.999993408203
124,320,48005,6,0,P|132:264|100:196,1,107.999996704102,0|8,0:0|0:0,0:0:0:0:
44,168,48732,2,0,P|36:112|68:44,1,107.999996704102,8|8,0:0|0:0,0:0:0:0:
136,36,49460,2,8,L|252:52,1,107.999996704102
236,136,50187,2,8,L|129:121,1,107.999996704102
256,192,50914,12,4,52369,0:2:0:0:
204,332,53779,6,0,B|192:292|204:256|204:256|176:224|176:224|208:176|192:104,1,233.999989288331,4|0,0:0|0:0,0:0:0:0:
256,44,54869,1,8,0:0:0:0:
320,112,55233,2,0,B|306:172|338:220|338:220|310:252|310:252|322:288|310:328,1,233.999989288331
152,228,56688,5,10,0:0:0:0:
76,176,57051,1,10,0:0:0:0:
128,100,57415,1,10,0:0:0:0:
204,152,57778,1,10,0:0:0:0:
280,112,58142,5,6,0:0:0:0:
