osu file format v14

[General]
AudioFilename: TEEN TITANS THEME.mp3
AudioLeadIn: 0
PreviewTime: 4389
Countdown: 0
SampleSet: Soft
StackLeniency: 0.7
Mode: 0
LetterboxInBreaks: 0
WidescreenStoryboard: 0

[Editor]
Bookmarks: 1571,4480,16112,27745,30653,42286,53919,56827
DistanceSpacing: 1
BeatDivisor: 4
GridSize: 4
TimelineZoom: 1.7

[Metadata]
Title:TEEN TITANS THEME (TV Size)
TitleUnicode:TEEN TITANS THEME (TV Size)
Artist:Puffy AmiYumi
ArtistUnicode:Puffy AmiYumi
Creator:ezek
Version:Medium
Source:Teen Titans
Tags:anime english cartoon network dc heroes ayyri eiri- kergio
BeatmapID:1899239
BeatmapSetID:910112

[Difficulty]
HPDrainRate:4
CircleSize:3
OverallDifficulty:4
ApproachRate:4
SliderMultiplier:1.4
SliderTickRate:1

[Events]
//Background and Video events
Video,-1178,"Na Na Na.mp4"
0,0,"Beast Boy.jpg",0,0
//Break Periods
//Storyboard Layer 0 (Background)
//Storyboard Layer 1 (Fail)
//Storyboard Layer 2 (Pass)
//Storyboard Layer 3 (Foreground)
//Storyboard Sound Samples

[TimingPoints]
1571,363.526204180551,4,2,1,80,1,0

[Colours]
Combo1 : 183,58,201
Combo2 : 74,193,34
Combo3 : 138,143,129

[HitObjects]
37,358,4480,6,0,L|25:218,1,140,2|8,0:0|0:0,0:0:0:0:
73,86,5207,2,0,P|137:111|205:99,1,140,2|8,0:0|0:0,0:0:0:0:
327,31,5934,1,2,0:0:0:0:
466,43,6297,1,8,0:0:0:0:
496,179,6661,1,2,0:0:0:0:
381,259,7024,2,0,P|385:293|381:328,1,70,8|0,0:0|0:0,0:0:0:0:
323,368,7388,6,0,B|248:388|192:333|194:328|196:323|153:271|68:290,1,280,2|2,0:0|0:0,0:0:0:0:
5,318,8297,1,0,0:0:0:0:
5,318,8478,1,8,0:0:0:0:
71,194,8842,5,2,0:0:0:0:
3,70,9205,2,0,P|69:51|136:67,1,140,8|2,0:0|0:0,0:0:0:0:
200,108,9751,1,0,0:0:0:0:
200,108,9932,1,8,0:0:0:0:
325,44,10296,6,0,L|464:39,1,140,2|8,0:0|0:0,0:0:0:0:
491,177,11023,2,0,L|351:181,1,140,2|8,0:0|0:0,0:0:0:0:
220,130,11750,1,2,0:0:0:0:
98,200,12114,1,8,0:0:0:0:
167,321,12477,1,2,0:0:0:0:
289,251,12841,2,0,L|359:260,1,70,8|0,0:0|0:0,0:0:0:0:
410,305,13204,6,0,P|509:215|489:83,1,280,2|2,0:0|0:0,0:0:0:0:
439,43,14113,1,0,0:0:0:0:
439,43,14295,1,8,0:0:0:0:
328,128,14658,1,2,0:0:0:0:
208,54,15022,2,0,L|133:46|75:76,1,140,8|2,0:0|0:0,0:0:0:0:
20,118,15567,1,0,0:0:0:0:
20,118,15749,1,8,0:0:0:0:
124,210,16112,6,0,P|101:275|127:338,1,140,6|8,0:0|0:0,0:0:0:0:
198,367,16658,1,0,0:0:0:0:
198,367,16839,2,0,L|337:364,1,140,2|8,0:0|0:0,0:0:0:0:
435,263,17566,2,0,L|529:266,2,70,2|0|8,0:0|0:0|0:0,0:0:0:0:
371,232,18112,2,0,P|344:169|367:104,1,140,0|0,0:0|0:0,0:0:0:0:
412,51,18657,1,8,0:0:0:0:
273,74,19021,6,0,L|200:81|140:52,1,140,2|8,0:0|0:0,0:0:0:0:
78,34,19566,1,0,0:0:0:0:
78,34,19748,2,0,L|86:173,1,140,2|8,0:0|0:0,0:0:0:0:
98,312,20475,2,0,P|64:324|30:325,2,70,2|0|8,0:0|0:0|0:0,0:0:0:0:
157,274,21020,2,0,P|225:265|290:290,1,140,0|0,0:0|0:0,0:0:0:0:
345,334,21565,1,8,0:0:0:0:
479,292,21929,6,0,P|500:227|488:159,1,140,2|8,0:0|0:0,0:0:0:0:
458,103,22474,1,0,0:0:0:0:
458,103,22656,1,2,0:0:0:0:
380,219,23019,1,8,0:0:0:0:
240,201,23383,1,2,0:0:0:0:
175,77,23747,1,8,0:0:0:0:
37,101,24110,1,2,0:0:0:0:
17,240,24474,1,8,0:0:0:0:
143,301,24837,6,0,L|110:363,2,70,0|2|2,1:0|0:0|0:0,0:0:0:0:
206,271,25382,1,2,0:0:0:0:
269,241,25564,2,0,L|302:179,2,70,0|2|0,1:0|0:0|1:0,0:0:0:0:
312,295,26109,1,2,0:0:0:0:
355,349,26291,1,4,1:0:0:0:
355,349,27745,6,0,B|418:324|418:324|465:269,1,140,6|8,0:0|0:0,0:0:0:0:
481,201,28290,1,0,0:0:0:0:
490,131,28472,2,0,L|422:113,1,70,2|0,0:0|0:0,0:0:0:0:
313,33,29018,1,0,0:0:0:0:
313,33,29199,2,0,L|177:68,1,140,2|8,0:0|0:0,0:0:0:0:
113,89,29745,1,0,0:0:0:0:
113,89,29926,1,2,0:0:0:0:
57,217,30290,2,0,P|46:249|52:283,1,70,8|0,0:0|0:0,0:0:0:0:
99,336,30653,6,0,B|132:355|166:336|166:333|166:330|193:311|232:331,1,140,6|8,0:0|0:0,0:0:0:0:
366,371,31380,1,2,0:0:0:0:
483,294,31744,2,0,L|490:221,1,70,8|0,0:0|0:0,0:0:0:0:
464,159,32107,2,0,B|415:141|415:141|393:107|393:107|348:91,1,140,2|8,0:0|0:0,0:0:0:0:
230,167,32835,1,2,0:0:0:0:
153,50,33198,2,0,L|78:61,1,70,8|0,0:0|0:0,0:0:0:0:
13,75,33562,6,0,P|-1:210|81:319,1,280,2|2,0:0|0:0,0:0:0:0:
148,356,34470,1,0,0:0:0:0:
148,356,34652,1,8,0:0:0:0:
273,293,35016,1,2,0:0:0:0:
397,354,35379,2,0,P|453:313|469:247,1,140,8|2,0:0|0:0,0:0:0:0:
422,203,35925,1,0,0:0:0:0:
422,203,36106,1,8,0:0:0:0:
472,72,36470,6,0,L|397:64|347:105,1,140,2|8,0:0|0:0,0:0:0:0:
245,201,37197,1,2,0:0:0:0:
106,181,37560,2,0,L|38:167,1,70,8|0,0:0|0:0,0:0:0:0:
1,106,37924,2,0,P|47:55|115:49,1,140,2|8,0:0|0:0,0:0:0:0:
233,124,38651,1,2,0:0:0:0:
353,52,39014,2,0,P|384:70|405:98,1,70,8|0,0:0|0:0,0:0:0:0:
440,158,39378,6,0,B|409:229|331:239|329:235|326:230|258:232|221:310,1,280,2|2,0:0|0:0,0:0:0:0:
184,373,40287,1,0,0:0:0:0:
184,373,40469,1,8,0:0:0:0:
54,319,40832,1,2,0:0:0:0:
130,201,41196,2,0,B|148:152|148:152|178:135|178:135|198:85,1,140,8|2,0:0|0:0,0:0:0:0:
222,22,41741,1,0,0:0:0:0:
222,22,41923,1,8,0:0:0:0:
327,113,42286,5,6,0:0:0:0:
454,55,42650,2,0,P|474:83|482:116,1,70,8|0,0:0|0:0,0:0:0:0:
442,173,43013,2,0,L|438:312,1,140,2|8,0:0|0:0,0:0:0:0:
297,316,43740,2,0,B|241:305|241:305|192:296|160:314,1,140,2|8,0:0|0:0,0:0:0:0:
100,351,44286,2,0,B|111:295|111:295|120:246|101:214,1,140,0|0,0:0|0:0,0:0:0:0:
48,168,44831,1,8,0:0:0:0:
111,43,45194,5,2,0:0:0:0:
244,86,45558,2,0,L|243:162,2,70,8|0|2,0:0|0:0|0:0,0:0:0:0:
376,43,46285,2,0,P|411:37|445:43,1,70,8|0,0:0|0:0,0:0:0:0:
478,104,46649,2,0,L|465:192|474:242,1,140,2|8,0:0|0:0,0:0:0:0:
510,302,47194,2,0,L|421:289|371:298,1,140,0|0,0:0|0:0,0:0:0:0:
306,324,47739,1,8,0:0:0:0:
195,238,48103,6,0,P|160:241|128:255,1,70,2|0,0:0|0:0,0:0:0:0:
63,229,48466,2,0,P|59:194|45:162,1,70,8|0,0:0|0:0,0:0:0:0:
13,99,48830,1,2,0:0:0:0:
127,19,49193,1,8,0:0:0:0:
243,96,49557,1,2,0:0:0:0:
258,234,49920,1,8,0:0:0:0:
378,305,50284,1,2,0:0:0:0:
501,240,50647,1,8,0:0:0:0:
479,101,51011,6,0,L|512:39,2,70,0|2|2,1:0|0:0|0:0,0:0:0:0:
416,131,51556,1,2,0:0:0:0:
353,161,51738,2,0,L|320:223,2,70,0|2|0,1:0|0:0|1:0,0:0:0:0:
310,107,52283,1,2,0:0:0:0:
267,53,52465,1,4,1:0:0:0:
267,53,53919,6,0,B|213:56|213:56|189:73|189:73|132:78,1,140,6|8,0:0|0:0,0:0:0:0:
71,111,54464,1,0,0:0:0:0:
9,145,54646,2,0,L|0:214,1,70,2|0,0:0|0:0,0:0:0:0:
70,335,55191,1,0,0:0:0:0:
69,335,55373,2,0,P|126:295|195:294,1,140,2|8,0:0|0:0,0:0:0:0:
263,334,55918,1,0,0:0:0:0:
263,334,56100,1,2,0:0:0:0:
390,369,56464,2,0,P|425:367|455:349,1,70,8|0,0:0|0:0,0:0:0:0:
512,312,56827,5,6,0:0:0:0:
498,172,57191,1,10,0:0:0:0:
360,143,57554,1,10,0:0:0:0:
290,264,57918,1,10,0:0:0:0:
390,369,58281,1,4,1:0:0:0:
