osu file format v14

[General]
AudioFilename: audio.mp3
AudioLeadIn: 0
PreviewTime: -1
Countdown: 1
SampleSet: Normal
StackLeniency: 0.7
Mode: 0
LetterboxInBreaks: 0
WidescreenStoryboard: 0

[Editor]
Bookmarks: 44723,159425
DistanceSpacing: 2.2
BeatDivisor: 16
GridSize: 4
TimelineZoom: 1

[Metadata]
Title:Daddy
TitleUnicode:Daddy
Artist:Psy feat. CL of 2NE1
ArtistUnicode:Psy feat. CL of 2NE1
Creator:InC0nceNtrateD
Version:Got it from Deeze Nutz!!
Source:
Tags:
BeatmapID:937527
BeatmapSetID:435215

[Difficulty]
HPDrainRate:7
CircleSize:4
OverallDifficulty:7
ApproachRate:9
SliderMultiplier:2.1
SliderTickRate:1

[Events]
//Background and Video events
0,0,"psy.jpg",0,0
//Break Periods
2,104095,110577
2,193307,199790
//Storyboard Layer 0 (Background)
//Storyboard Layer 1 (Fail)
//Storyboard Layer 2 (Pass)
//Storyboard Layer 3 (Foreground)
//Storyboard Sound Samples

[TimingPoints]
7400,455.166135639508,4,1,0,45,1,0
74764,-76.9230769230769,4,1,0,45,0,1
89329,-66.6666666666667,4,1,0,45,0,1
103895,-100,4,1,0,45,0,0
164432,-76.9230769230769,4,1,0,45,0,1
178542,-66.6666666666667,4,1,0,45,0,1
193107,-66.6666666666667,4,1,0,45,0,1
207673,-100,4,1,0,45,0,0
209493,-50,4,1,0,45,0,1
226107,-100,4,1,0,45,0,0

[HitObjects]
64,92,6262,5,0,0:0:0:0:
64,92,6489,2,0,B|88:128|140:136|140:136|128:188|152:232|152:232|140:304|52:308,1,315
216,176,7400,1,0,0:0:0:0:
296,166,7855,1,0,0:0:0:0:
216,156,8310,1,0,0:0:0:0:
296,146,8765,1,0,0:0:0:0:
216,136,9220,2,0,B|104:96|104:96|132:144,2,157.5
296,136,10130,2,0,B|408:96|408:96|380:144,1,157.5
388,129,10586,1,0,0:0:0:0:
216,248,11041,6,0,B|104:288|104:288|132:240,2,157.5
300,156,11951,2,0,B|308:140|308:140|412:196,1,105
440,296,12406,2,0,B|432:312|432:312|355:270,1,105
300,156,12861,1,0,0:0:0:0:
355,270,13089,1,0,0:0:0:0:
384,181,13317,1,0,0:0:0:0:
440,296,13544,1,0,0:0:0:0:
355,270,13772,2,0,B|243:310|243:310|271:262,1,157.5
262,276,14227,1,0,0:0:0:0:
396,60,14682,5,0,0:0:0:0:
276,16,14910,1,0,0:0:0:0:
204,120,15137,2,0,B|168:200|168:200|208:192,1,105
300,244,15592,2,0,B|259:350|259:350|230:306,1,157.5
235,314,16048,1,0,0:0:0:0:
120,260,16275,1,0,0:0:0:0:
68,144,16503,2,0,B|76:200|76:200|48:224|44:264,2,105
120,260,17186,1,0,0:0:0:0:
235,314,17413,2,0,B|259:350|259:350|300:244,1,157.5
300,244,17868,1,0,0:0:0:0:
416,196,18096,1,0,0:0:0:0:
416,196,18323,5,0,0:0:0:0:
368,80,18551,2,0,B|292:128|292:128|292:96,1,105
202,23,19006,2,0,B|114:42|114:42|136:65,1,105
214,142,19461,2,0,B|233:229|233:229|256:207,2,105
328,200,20144,2,0,B|316:256|308:272|308:272|240:320,1,157.5
240,319,20599,1,0,0:0:0:0:
120,352,20827,1,0,0:0:0:0:
76,236,21054,2,0,B|108:168|108:168|144:156,1,105
136,31,21510,2,0,B|204:63|204:63|216:99,1,105
304,180,21965,5,0,0:0:0:0:
208,190,22192,1,0,0:0:0:0:
304,200,22420,1,0,0:0:0:0:
208,210,22648,1,0,0:0:0:0:
304,220,22875,5,0,0:0:0:0:
208,230,23102,1,0,0:0:0:0:
304,240,23330,1,0,0:0:0:0:
208,250,23558,1,0,0:0:0:0:
347,302,23785,5,0,0:0:0:0:
164,283,24013,1,0,0:0:0:0:
347,264,24241,1,0,0:0:0:0:
164,245,24468,1,0,0:0:0:0:
347,226,24695,5,0,0:0:0:0:
164,207,24923,1,0,0:0:0:0:
347,188,25151,1,0,0:0:0:0:
164,169,25378,1,0,0:0:0:0:
347,159,25606,2,0,P|391:101|331:41,1,157.5
346,43,26061,1,0,0:0:0:0:
165,43,26289,1,0,0:0:0:0:
165,159,26516,2,0,P|120:101|165:43,1,157.5
165,43,26972,1,0,0:0:0:0:
347,159,27199,1,0,0:0:0:0:
260,292,27427,5,0,0:0:0:0:
204,347,27541,1,0,0:0:0:0:
156,196,27768,5,0,0:0:0:0:
101,139,27882,1,0,0:0:0:0:
45,84,27996,1,0,0:0:0:0:
356,188,28223,5,0,0:0:0:0:
411,244,28337,1,0,0:0:0:0:
467,300,28451,1,0,0:0:0:0:
308,37,28679,5,0,0:0:0:0:
252,92,28793,1,0,0:0:0:0:
356,188,29020,1,0,0:0:0:0:
284,328,29247,6,0,B|208:308|208:308|208:344,2,105
168,220,29930,1,0,0:0:0:0:
100,76,30158,1,0,0:0:0:0:
88,232,30385,1,0,0:0:0:0:
208,334,30613,2,0,B|208:308|208:308|284:328,2,105
356,284,31296,2,0,P|364:344|344:392,1,105
276,244,31751,2,0,P|268:184|288:136,1,105
440,120,32206,2,0,B|388:196|388:196|352:204,2,105
284,92,32889,6,0,B|224:84|224:84|148:148|56:100,1,210
228,176,33572,1,0,0:0:0:0:
228,176,33799,2,0,B|304:184|304:184|328:176|344:156,1,105
456,76,34254,2,0,B|500:120|488:172|488:172|456:228,1,157.5
406,272,34709,6,0,L|446:328,1,52.5
380,370,34937,2,0,L|311:376,1,52.5
271,318,35165,2,0,L|299:255,1,52.5
348,214,35392,1,0,0:0:0:0:
348,214,35506,1,0,0:0:0:0:
403,158,35620,6,0,L|443:102,1,52.5
377,60,35848,2,0,L|308:53,1,52.5
268,112,36076,2,0,L|296:174,3,52.5
348,214,36530,6,0,P|276:240|240:224,2,105
377,60,37213,1,0,0:0:0:0:
244,144,37440,2,0,P|218:72|234:36,2,105
377,60,38123,1,0,0:0:0:0:
480,180,38351,5,0,0:0:0:0:
416,324,38578,1,0,0:0:0:0:
480,180,38806,1,0,0:0:0:0:
324,192,39034,1,0,0:0:0:0:
168,204,39261,5,0,0:0:0:0:
232,60,39488,1,0,0:0:0:0:
168,204,39716,1,0,0:0:0:0:
324,192,39944,1,0,0:0:0:0:
480,184,40171,6,0,B|468:120|392:92|392:92|444:72,1,157.5
484,48,40627,1,0,0:0:0:0:
396,176,40854,1,0,0:0:0:0:
238,176,41082,2,0,B|250:240|326:268|326:268|274:288,1,157.5
234,312,41538,1,0,0:0:0:0:
322,184,41765,1,0,0:0:0:0:
385,25,41992,5,0,0:0:0:0:
311,54,42106,1,0,0:0:0:0:
108,100,42334,5,0,0:0:0:0:
180,129,42447,1,0,0:0:0:0:
252,158,42561,1,0,0:0:0:0:
456,203,42789,5,0,0:0:0:0:
383,232,42902,1,0,0:0:0:0:
311,261,43016,1,0,0:0:0:0:
104,306,43244,5,0,0:0:0:0:
177,335,43358,2,0,P|240:352|300:340,1,105
428,292,43813,6,0,B|400:220|464:184|464:184|408:144|408:76|408:76|332:64|332:64|340:144|272:176,1,420
308,340,45178,2,0,L|196:340,1,105
84,292,45633,2,0,B|112:220|48:184|48:184|104:144|104:76|104:76|180:64|180:64|172:144|240:176,1,420
203,340,46999,2,0,L|308:340,1,105
428,292,47454,2,0,B|408:192|308:148|308:148|336:112|332:64|332:64|412:80|412:80|448:100|460:144,1,420
309,340,48820,2,0,L|204:340,1,105
84,292,49275,2,0,B|104:192|204:148|204:148|176:112|180:64|180:64|100:80|100:80|64:100|52:144,1,420
84,292,50413,6,0,P|108:228|140:188,2,105
212,200,51095,2,0,B|200:116|108:104|108:104|48:144|48:144|8:116|20:40,1,315
257,106,52461,2,0,P|233:170|201:210,1,105
56,232,52916,2,0,B|84:304|84:304|156:256|156:256|220:296|275:247|275:247|312:264,1,315
332,48,54282,5,0,0:0:0:0:
443,159,54509,1,0,0:0:0:0:
285,159,54737,2,0,B|232:140|232:140|164:196|80:148,1,210
208,52,55420,2,0,B|324:92|324:92|372:136|360:188,1,210
308,316,56102,2,0,B|288:264|288:264|288:200,1,105
372,84,56557,2,0,B|328:144|328:144|272:124|232:156|232:156|176:136,1,210
332,228,57240,2,0,B|384:200|384:200|420:144|420:144|468:120|500:152,1,210
404,280,57923,1,0,0:0:0:0:
316,148,58151,1,0,0:0:0:0:
436,44,58378,6,0,B|480:164|480:164|440:156,2,157.5
320,148,59288,1,0,0:0:0:0:
452,236,59516,1,0,0:0:0:0:
380,96,59744,1,0,0:0:0:0:
248,184,59972,1,0,0:0:0:0:
452,236,60199,2,0,B|496:356|496:356|456:348,2,157.5
312,304,61109,2,0,B|384:260|384:260|372:208|408:180|408:180|416:136,1,210
100,108,62019,6,0,B|224:68|224:68|216:104,2,157.5
236,28,62930,2,0,B|112:68|112:68|120:32,1,157.5
40,40,63385,1,0,0:0:0:0:
68,196,63613,1,0,0:0:0:0:
164,320,63840,1,0,0:0:0:0:
280,212,64068,1,0,0:0:0:0:
232,360,64295,1,0,0:0:0:0:
348,252,64523,1,0,0:0:0:0:
192,244,64750,2,0,B|236:280|236:280|288:300|288:300|336:340,1,157.5
400,352,65206,1,4,0:0:0:0:
472,44,65661,6,0,B|456:100|456:100|408:128|408:128|392:196,1,157.5
397,249,66116,1,0,0:0:0:0:
260,328,66344,2,0,L|280:276,1,52.5
308,204,66571,2,0,B|248:184|212:228|212:228|180:304,1,157.5
148,340,67026,2,0,L|96:352,1,52.5
16,340,67254,1,0,0:0:0:0:
92,204,67481,6,0,B|164:108|164:108|168:152,2,157.5
120,48,68392,2,0,P|188:40|240:112,1,157.5
160,116,68847,1,0,0:0:0:0:
352,116,69075,2,0,L|424:128,1,52.5
392,48,69302,2,0,P|324:40|272:112,1,157.5
352,116,69757,1,0,0:0:0:0:
403,259,69985,2,0,L|352:268,1,52.5
272,280,70212,5,0,0:0:0:0:
194,295,70326,1,0,0:0:0:0:
116,310,70440,1,0,0:0:0:0:
39,325,70554,1,0,0:0:0:0:
64,252,70668,5,0,0:0:0:0:
142,237,70782,1,0,0:0:0:0:
220,222,70896,1,0,0:0:0:0:
297,207,71010,1,0,0:0:0:0:
248,148,71123,6,0,L|200:120,1,52.5
300,184,71350,2,0,L|328:136,1,52.5
264,236,71578,2,0,L|312:264,1,52.5
212,200,71805,2,0,L|184:248,1,52.5
128,192,72033,5,0,0:0:0:0:
256,64,72147,1,0,0:0:0:0:
384,192,72261,1,0,0:0:0:0:
256,320,72375,1,0,0:0:0:0:
256,192,72488,1,0,0:0:0:0:
128,192,73626,5,0,0:0:0:0:
256,64,73854,1,0,0:0:0:0:
384,192,74081,1,0,0:0:0:0:
256,320,74310,1,0,0:0:0:0:
256,164,74537,1,0,0:0:0:0:
412,60,74764,6,0,B|420:124|420:124|464:152|460:204|460:204|436:272,1,204.749990627289
344,320,75219,2,0,L|272:320,1,68.2499968757631
187,232,75447,2,0,L|115:232,1,68.2499968757631
31,144,75674,2,0,L|103:144,1,68.2499968757631
187,56,75902,2,0,L|259:56,1,68.2499968757631
343,143,76130,2,0,P|404:192|468:168,1,136.499993751526
212,160,76585,6,0,B|272:176|272:176|308:256|408:272,1,204.749990627289
480,332,77040,2,0,L|404:352,1,68.2499968757631
480,244,77268,2,0,L|424:188,1,68.2499968757631
344,108,77495,2,0,B|392:56|428:80|472:32,1,136.499993751526
168,108,77950,2,0,B|120:56|84:80|40:32,1,136.499993751526
256,32,78405,2,0,B|292:84|256:144|256:144|284:184|284:184|264:248,1,204.749990627289
164,280,78861,2,0,L|208:336,1,68.2499968757631
348,280,79088,2,0,L|304:336,1,68.2499968757631
84,192,79316,1,0,0:0:0:0:
84,80,79543,1,0,0:0:0:0:
428,192,79771,1,0,0:0:0:0:
428,80,79998,1,0,0:0:0:0:
256,32,80226,6,0,B|292:84|256:144|256:144|284:184|284:184|264:248,1,204.749990627289
204,260,80681,1,0,0:0:0:0:
164,188,80795,1,0,0:0:0:0:
176,108,80909,1,0,0:0:0:0:
164,28,81023,1,0,0:0:0:0:
84,40,81136,2,0,B|92:120|92:120|80:176,1,136.499993751526
204,260,81592,2,0,B|164:188|164:188|176:108|176:108|164:36,1,204.749990627289
46,67,82047,6,0,B|39:107|39:107|51:187|51:187|11:259,1,204.749990627289
120,320,82502,2,0,L|192:332,1,68.2499968757631
274,244,82729,2,0,L|202:232,1,68.2499968757631
118,144,82957,2,0,L|190:156,1,68.2499968757631
272,68,83184,2,0,L|200:56,1,68.2499968757631
80,56,83412,1,0,0:0:0:0:
300,164,83640,1,0,0:0:0:0:
466,317,83867,6,0,B|472:276|472:276|460:196|460:196|500:124,1,204.749990627289
392,64,84323,2,0,L|320:52,1,68.2499968757631
238,140,84550,2,0,L|310:152,1,68.2499968757631
394,240,84778,2,0,L|322:228,1,68.2499968757631
240,316,85005,2,0,L|312:328,1,68.2499968757631
432,328,85233,1,0,0:0:0:0:
212,220,85461,1,0,0:0:0:0:
404,68,85688,6,0,P|340:28|276:132,1,204.749990627289
340,100,86143,2,0,B|384:168|384:168|304:176|304:176|284:188|256:184,1,204.749990627289
208,132,86598,2,0,P|200:224|300:252,1,204.749990627289
262,184,87054,2,0,P|180:204|140:100,1,204.749990627289
256,192,87509,12,0,88191,0:0:0:0:
360,72,88419,6,0,B|376:140|376:140|368:172|368:172|388:208,1,136.499993751526
152,312,88874,2,0,B|136:244|136:244|144:212|144:212|124:176,1,136.499993751526
400,264,89329,6,0,B|416:192|416:192|464:168|464:168|492:120|476:56,1,236.250009012223
356,140,89785,2,0,B|408:112|408:112|380:24|304:40|304:40|256:24,1,236.250009012223
128,28,90240,2,0,B|208:80|208:80|272:104|272:104|256:160|284:196,1,236.250009012223
140,128,90695,2,0,B|80:112|80:112|36:64|36:64|36:28|36:28|48:4,1,157.500006008148
188,272,91150,2,0,B|192:184|192:184|228:140|216:76|156:56,1,236.250009012223
120,192,91605,2,0,B|116:296|116:296|152:364|220:340|220:340|240:320,1,236.250009012223
228,192,92060,2,0,B|192:192|192:192|188:136|136:120|136:120|108:64|136:16,1,236.250009012223
244,112,92516,2,0,P|308:176|272:256,1,157.500006008148
104,24,92971,6,0,B|104:84|76:112|76:112|56:152|80:208|80:208|36:252,1,236.250009012223
164,156,93426,2,0,B|156:188|156:188|156:236|156:236|112:284|112:284|120:340|160:360,1,236.250009012223
298,358,93881,2,0,B|334:339|342:283|342:283|298:235|298:235|298:187|298:187|290:155,1,236.250009012223
405,237,94336,2,0,B|375:207|375:207|399:151|379:111|379:111|351:83|351:23,1,236.250009012223
256,128,94791,2,0,L|256:228,2,78.7500030040742
332,156,95247,2,0,L|332:248,1,78.7500030040742
180,234,95474,2,0,L|180:156,1,78.7500030040742
256,276,95702,2,0,L|256:368,1,78.7500030040742
116,356,95929,2,0,L|116:277,1,78.7500030040742
116,133,96157,2,0,L|116:41,1,78.7500030040742
258,54,96384,2,0,L|258:138,1,78.7500030040742
258,276,96612,6,0,B|280:308|316:300|316:300|340:320|368:316|368:316|412:308|480:356,1,236.250009012223
364,240,97067,2,0,B|342:208|306:216|306:216|282:196|254:200|254:200|210:208|149:165,1,236.250009012223
60,56,97522,2,0,B|96:116|96:116|64:156|88:208|88:208|124:244|176:260,1,236.250009012223
296,209,97978,2,0,B|288:204|288:204|272:196|248:200|248:200|200:204|149:165,1,157.500006008148
420,76,98433,2,0,B|364:172|364:172|392:224|360:280|300:292,1,236.250009012223
179,279,98888,2,0,B|152:280|120:224|148:172|148:172|92:76,1,236.250009012223
220,144,99343,2,0,L|164:52,3,78.7500030040742
292,144,99798,2,0,L|348:52,3,78.7500030040742
324,220,100253,6,0,B|324:252|340:268|340:268|364:272|372:292|372:292|396:300|404:324|404:324|448:360|492:356,1,236.250009012223
389,254,100709,2,0,B|361:238|339:243|339:243|323:262|302:259|302:259|283:276|258:271|258:271|205:291|187:331,1,236.250009012223
324,296,101164,2,0,B|351:280|357:258|357:258|349:235|362:218|362:218|357:193|374:174|374:174|383:118|357:82,1,236.250009012223
220,44,101619,1,0,0:0:0:0:
448,212,101846,1,0,0:0:0:0:
168,268,102074,6,0,B|132:240|132:240|76:256,1,78.7500030040742
160,52,102415,1,0,0:0:0:0:
234,77,102529,2,0,B|276:60|276:60|290:4,1,78.7500030040742
425,178,102871,1,0,0:0:0:0:
365,230,102985,2,0,B|359:275|359:275|401:315,1,78.7500030040742
168,268,103326,2,0,B|132:240|132:240|76:256,1,78.7500030040742
132,96,103667,1,0,0:0:0:0:
380,288,103895,1,4,0:0:0:0:
420,116,111177,6,0,L|381:212,1,105
383,23,111633,1,0,0:0:0:0:
477,186,111860,2,0,B|464:216|472:248|472:248|436:286,2,105
292,228,112543,1,0,0:0:0:0:
256,76,112770,1,0,0:0:0:0:
220,228,112998,2,0,B|176:340|176:340|176:300,1,157.5
136,236,113453,2,0,L|164:168,1,52.5
99,131,113681,2,0,L|72:196,1,52.5
23,235,113908,2,0,B|67:347|67:347|67:307,1,157.5
144,328,114364,1,0,0:0:0:0:
216,188,114591,1,0,0:0:0:0:
320,72,114819,6,0,B|344:112|388:128|388:128|388:168,2,105
316,228,115501,1,0,0:0:0:0:
464,176,115729,2,0,B|460:96|460:96|424:60,1,105
408,232,116184,1,0,0:0:0:0:
336,92,116412,1,0,0:0:0:0:
180,29,116639,5,0,0:0:0:0:
118,89,116753,1,0,0:0:0:0:
268,354,116981,5,0,0:0:0:0:
206,294,117095,1,0,0:0:0:0:
145,233,117208,1,0,0:0:0:0:
356,29,117436,5,0,0:0:0:0:
294,89,117550,1,0,0:0:0:0:
233,150,117663,1,0,0:0:0:0:
444,354,117891,5,0,0:0:0:0:
382,294,118005,1,0,0:0:0:0:
382,89,118232,1,0,0:0:0:0:
264,192,118460,2,0,B|224:164|196:160|196:160|160:168,2,105
320,340,119143,1,0,0:0:0:0:
352,188,119370,2,0,B|340:124|288:112|288:112|264:56,1,157.5
328,12,119826,2,0,B|344:56|344:56|376:72|408:120,1,105
344,244,120281,1,0,0:0:0:0:
208,324,120508,1,0,0:0:0:0:
168,244,120736,1,0,0:0:0:0:
304,324,120963,1,0,0:0:0:0:
256,172,121191,2,0,B|244:112|244:112|264:60|232:16,1,157.5
176,72,121646,1,0,0:0:0:0:
176,72,121874,1,0,0:0:0:0:
176,72,122101,6,0,B|112:120|112:120|64:184|120:260,1,210
256,296,122784,1,0,0:0:0:0:
404,241,123012,2,0,B|448:184|400:120|400:120|336:72,1,210
282,129,123581,2,0,L|333:168,1,52.5
340,316,123922,6,0,P|260:328|200:268,1,157.5
168,212,124377,2,0,B|236:184|276:248|276:248|332:228,1,157.5
384,256,124832,2,0,P|372:196|328:160,1,105
204,92,125288,1,0,0:0:0:0:
460,44,125515,1,0,0:0:0:0:
412,304,125743,6,0,P|324:328|312:320,1,105
248,184,126198,1,0,0:0:0:0:
400,224,126425,1,0,0:0:0:0:
244,256,126653,2,0,P|180:212|204:128,1,157.5
248,184,127108,2,0,P|300:212|316:268,1,105
300,332,127450,1,0,0:0:0:0:
224,320,127563,2,0,L|240:260,1,52.5
248,184,127791,2,0,P|300:212|316:268,2,105
396,236,128474,6,0,P|360:160|280:108,1,157.5
224,120,128929,1,0,0:0:0:0:
372,68,129156,1,0,0:0:0:0:
464,196,129384,2,0,P|468:276|380:316,1,157.5
224,120,129839,1,0,0:0:0:0:
372,68,130066,1,0,0:0:0:0:
464,196,130294,2,0,P|468:276|380:316,1,157.5
400,240,130750,1,0,0:0:0:0:
256,192,130977,1,0,0:0:0:0:
256,112,131091,1,0,0:0:0:0:
256,32,131205,5,0,0:0:0:0:
324,72,131318,1,0,0:0:0:0:
256,352,131546,5,0,0:0:0:0:
188,312,131659,1,0,0:0:0:0:
256,272,131774,1,0,0:0:0:0:
96,192,132001,5,0,0:0:0:0:
136,124,132114,1,0,0:0:0:0:
176,192,132229,1,0,0:0:0:0:
256,32,132456,5,0,0:0:0:0:
320,80,132570,2,0,B|344:112|388:100|388:100|412:124,1,105
512,240,133025,6,0,B|512:272|512:272|512:336|448:336|448:336|416:304|416:304|384:336|384:336|320:304|256:336|256:336|192:336,1,420
396,92,134391,1,0,0:0:0:0:
116,292,134618,1,0,0:0:0:0:
0,144,134846,2,0,B|0:112|0:112|0:48|64:48|64:48|96:80|96:80|128:48|128:48|192:80|256:48|256:48|320:48,1,420
396,292,136212,1,0,0:0:0:0:
116,92,136439,1,0,0:0:0:0:
0,240,136667,2,0,B|48:240|48:240|32:288|64:320|64:320|112:288|160:320|160:320|256:320,1,315
116,92,138032,1,0,0:0:0:0:
396,292,138259,1,0,0:0:0:0:
512,144,138487,2,0,B|464:144|464:144|480:96|448:64|448:64|400:96|352:64|352:64|256:64,1,315
476,308,139625,6,0,P|440:356|388:356,2,105
372,192,140308,2,0,B|404:280|404:280|344:280|320:336|320:336|248:344|208:296,1,315
36,76,141674,2,0,P|72:28|124:28,1,105
140,192,142129,2,0,B|108:104|108:104|168:104|192:48|192:48|264:40|304:88,1,315
256,192,143494,1,0,0:0:0:0:
256,192,143722,1,0,0:0:0:0:
256,192,143949,12,0,146908,0:0:0:0:
256,40,147136,5,0,0:0:0:0:
116,108,147363,1,0,0:0:0:0:
268,144,147591,2,0,B|392:160|392:160|352:188,2,157.5
128,216,148501,1,0,0:0:0:0:
216,84,148729,2,0,P|260:64|319:81,2,105
364,136,149411,2,0,B|408:80|368:28|368:28|416:40,2,157.5
428,280,150322,2,0,B|392:204|392:204|348:220|312:188|312:188|248:188,1,210
68,272,151232,2,0,B|24:328|64:380|64:380|16:368,2,157.5
4,128,152143,2,0,B|40:204|40:204|84:188|120:220|120:220|184:220,1,210
300,148,152825,5,0,0:0:0:0:
300,148,153053,2,0,B|352:112|352:112|336:60,1,105
272,252,153508,2,0,B|277:315|277:315|330:327,1,105
195,175,153963,2,0,B|138:148|138:148|101:188,2,105
352,192,154646,1,0,0:0:0:0:
456,76,154873,6,0,B|456:120|480:152|480:152|456:184|424:176|424:176|444:212|444:256,1,210
304,312,155556,2,0,L|256:268,1,52.5
209,220,155784,2,0,P|233:172|241:168,1,52.5
308,174,156011,2,0,P|324:153|328:128,1,52.5
272,71,156239,2,0,L|233:35,1,52.5
154,35,156466,1,0,0:0:0:0:
56,308,156694,6,0,B|56:264|32:232|32:232|56:200|88:208|88:208|68:172|68:128,1,210
208,72,157377,2,0,L|256:116,1,52.5
303,164,157605,2,0,P|279:212|271:216,1,52.5
204,210,157832,2,0,P|187:230|183:255,1,52.5
240,313,158060,2,0,L|278:348,1,52.5
358,349,158287,1,0,0:0:0:0:
456,76,158515,6,0,B|456:120|480:152|480:152|456:184|424:176|424:176|444:212|444:256,1,210
346,284,159197,2,0,L|312:324,1,52.5
336,204,159425,2,0,L|290:228,1,52.5
352,127,159653,2,0,L|300:132,1,52.5
400,62,159881,2,0,L|350:47,1,52.5
256,40,160108,2,0,L|256:68,2,26.25
162,47,160335,6,0,L|111:62,1,52.5
212,132,160563,2,0,L|159:127,1,52.5
222,228,160791,2,0,L|175:204,1,52.5
200,324,161019,2,0,L|165:284,1,52.5
175,204,161246,5,0,0:0:0:0:
235,126,161359,5,0,0:0:0:0:
313,75,161473,5,0,0:0:0:0:
409,60,161587,5,0,0:0:0:0:
496,80,161701,5,4,0:0:0:0:
256,48,162839,5,0,0:0:0:0:
256,48,163066,2,0,P|316:104|280:176,1,157.5
224,204,163521,1,0,0:0:0:0:
380,188,163749,1,0,0:0:0:0:
72,24,163977,5,0,0:0:0:0:
332,340,164432,2,0,P|380:304|388:280,1,68.2499968757631
444,216,164659,2,0,P|484:272|488:288,1,68.2499968757631
444,364,164887,1,0,0:0:0:0:
372,172,165115,1,0,0:0:0:0:
228,316,165342,2,0,B|252:264|308:264|308:264|308:220,1,136.499993751526
424,60,165797,6,0,B|372:172|372:172|396:172,1,136.499993751526
488,352,166252,2,0,L|400:352,1,68.2499968757631
277,278,166480,2,0,L|346:278,1,68.2499968757631
208,195,166708,2,0,P|215:259|277:278,1,136.499993751526
290,126,167163,2,0,P|225:133|207:195,1,136.499993751526
280,376,167618,6,0,P|176:344|112:264,1,204.749990627289
136,152,168073,2,0,P|172:160|204:192,1,68.2499968757631
264,284,168301,2,0,P|228:276|196:244,1,68.2499968757631
316,208,168528,2,0,P|346:228|364:270,1,68.2499968757631
384,377,168756,2,0,P|353:356|335:314,1,68.2499968757631
421,141,168983,2,0,B|404:176|404:176|432:204|444:264,1,136.499993751526
228,148,169439,1,0,0:0:0:0:
444,264,169666,1,0,0:0:0:0:
208,340,169894,5,0,0:0:0:0:
120,252,170008,5,0,0:0:0:0:
120,130,170121,5,0,0:0:0:0:
207,42,170235,5,0,0:0:0:0:
330,42,170349,2,0,B|400:24|440:68|440:68|472:64,1,136.499993751526
364,292,170804,1,0,0:0:0:0:
456,64,171032,1,0,0:0:0:0:
436,308,171259,2,0,P|360:364|292:288,1,204.749990627289
364,196,171714,2,0,L|432:240,1,68.2499968757631
320,120,171942,2,0,L|400:119,1,68.2499968757631
242,79,172170,2,0,L|309:34,1,68.2499968757631
156,95,172398,2,0,L|188:20,1,68.2499968757631
40,296,172625,5,0,0:0:0:0:
183,32,172853,1,0,0:0:0:0:
480,80,173080,2,0,B|448:152|448:152|456:196|424:228,1,136.499993751526
140,176,173535,2,0,L|197:213,1,68.2499968757631
173,289,173763,2,0,L|241:288,1,68.2499968757631
262,367,173991,2,0,L|319:329,1,68.2499968757631
377,376,174219,2,0,L|404:313,1,68.2499968757631
480,184,174445,2,0,B|456:156|456:100|456:100|400:76,1,136.499993751526
112,72,174901,6,0,B|128:144|204:132|204:132|228:216,1,204.749990627289
184,60,175356,2,0,B|260:60|260:60|278:126|278:126|312:120|344:144,1,204.749990627289
152,208,175811,2,0,P|244:280|300:224,1,204.749990627289
412,140,176266,2,0,B|404:72|336:60|336:60|344:40|324:19|324:19|356:36|380:12,1,204.749990627289
256,192,176721,12,0,178314,0:0:0:0:
120,204,178542,6,0,B|188:220|260:156|260:156|220:248,1,236.250009012223
100,348,178997,2,0,B|96:272|96:272|36:248|52:176|52:176|84:128,1,236.250009012223
227,231,179452,2,0,B|204:264|172:272|172:272|180:388,1,157.500006008148
304,236,179794,2,0,B|296:156|224:156|224:156|200:112|200:112|248:48,1,236.250009012223
496,296,180363,2,0,B|368:280|368:280|340:312|300:312|300:312|264:304,1,236.250009012223
152,180,180818,2,0,B|208:260|208:260|176:316|222:365|222:365|256:380,1,236.250009012223
256,200,181273,2,0,B|204:128|204:128|168:96|120:112,1,157.500006008148
308,148,181614,2,0,B|248:68|248:68|172:16|92:44,1,236.250009012223
252,356,182183,6,0,B|288:224|288:224|248:208|232:176|232:176|208:176,1,236.250009012223
172,344,182638,2,0,B|200:256|200:256|104:228|140:128,1,236.250009012223
96,320,183094,2,0,B|104:292|104:292|48:232|56:148,1,157.500006008148
164,44,183435,2,0,B|192:88|192:88|212:120|204:176|204:176|256:200|256:200|280:244,1,236.250009012223
4,12,184004,1,0,0:0:0:0:
273,231,184232,1,0,0:0:0:0:
256,192,184687,12,0,185597,0:0:0:0:
496,36,185825,6,0,B|488:124|488:124|508:184|508:184|476:284,1,236.250009012223
344,372,186280,2,0,B|352:284|352:284|332:224|332:224|364:124,1,236.250009012223
224,32,186735,2,0,B|184:72|184:72|120:92|120:92|124:144,1,157.500006008148
160,296,187076,2,0,B|136:328|128:368|128:368|100:348|64:352|64:352|88:300|32:240,1,236.250009012223
320,44,187645,2,0,B|288:124|196:148|196:148|236:240,1,236.250009012223
392,248,188100,2,0,B|388:180|344:144|344:144|376:112|392:64|392:64|424:64,1,236.250009012223
468,232,188556,2,0,P|436:312|348:312,1,157.500006008148
256,196,188897,2,0,B|308:204|308:268|308:268|296:292|288:328|300:360|300:360|240:360,1,236.250009012223
40,88,189466,6,0,B|96:96|124:48|124:48|168:92|168:92|200:52|248:40,1,236.250009012223
400,56,189921,6,0,B|376:152|376:152|332:152|328:200|328:200|248:200,1,236.250009012223
360,348,190376,6,0,B|376:292|440:308|444:252|444:252|476:236,1,157.500006008148
296,284,190718,6,0,B|224:340|224:340|176:344|140:312|140:312|72:336,1,236.250009012223
392,160,191287,5,0,0:0:0:0:
500,24,191400,2,0,B|448:116|448:116|480:160|448:212,1,157.500006008148
368,312,191742,1,0,0:0:0:0:
204,364,191856,2,0,B|296:332|296:332|288:284|320:256,1,157.500006008148
280,104,192197,1,0,0:0:0:0:
128,20,192311,2,0,B|204:92|204:92|200:128|224:156,1,157.500006008148
376,80,192652,2,0,P|360:168|304:196,2,157.500006008148
256,192,200390,12,0,203121,0:0:0:0:
256,152,204031,5,0,0:0:0:0:
120,177,204486,5,0,0:0:0:0:
256,48,204714,1,0,0:0:0:0:
392,177,204942,1,0,0:0:0:0:
92,174,205169,5,0,0:0:0:0:
256,19,205397,1,0,0:0:0:0:
419,174,205625,1,0,0:0:0:0:
92,174,205852,2,0,L|20:140,1,78.7500030040742
192,100,206080,2,0,L|164:24,1,78.7500030040742
320,100,206307,2,0,L|347:24,1,78.7500030040742
419,174,206534,2,0,L|492:140,1,78.7500030040742
92,174,206762,5,0,0:0:0:0:
192,100,206876,1,0,0:0:0:0:
320,100,206990,1,0,0:0:0:0:
419,174,207104,1,0,0:0:0:0:
490,140,207217,5,0,0:0:0:0:
346,25,207331,1,0,0:0:0:0:
165,25,207445,1,0,0:0:0:0:
21,140,207559,1,0,0:0:0:0:
256,152,207673,5,4,0:0:0:0:
256,152,208355,5,0,0:0:0:0:
256,152,208583,2,0,P|288:212|200:256,1,157.5
147,181,209038,2,0,P|115:121|203:77,1,157.5
404,56,209493,6,0,B|468:92|464:172|464:172|408:200|408:252|408:252|328:220,1,315
120,152,209948,2,0,P|109:90|144:48,1,105
356,120,210176,2,0,L|236:120,1,105
120,232,210404,2,0,P|109:293|144:336,1,105
356,264,210631,2,0,L|236:264,1,105
112,76,210859,2,0,L|92:28,2,52.5
112,308,211086,2,0,L|92:356,2,52.5
312,192,211314,6,0,B|400:160|456:232|428:300|428:300|428:348|428:348|352:348,1,315
244,152,211769,1,0,0:0:0:0:
320,112,211883,1,0,0:0:0:0:
404,116,211997,1,0,0:0:0:0:
472,160,212110,1,0,0:0:0:0:
252,76,212224,2,0,B|272:40|320:24|360:48|360:48|408:24|452:52,2,210
472,160,212907,1,0,0:0:0:0:
244,152,213135,6,0,B|168:88|80:136|96:288|216:236|240:364,1,315
244,152,213590,2,0,B|320:88|408:136|392:288|272:236|248:364,1,315
68,200,214045,2,0,P|80:128|124:76,1,105
415,101,214273,2,0,P|439:148|444:200,1,105
268,348,214500,5,0,0:0:0:0:
216,256,214614,1,0,0:0:0:0:
284,176,214728,1,0,0:0:0:0:
260,76,214841,1,0,0:0:0:0:
415,101,214955,5,0,0:0:0:0:
96,101,215183,1,0,0:0:0:0:
256,192,215638,12,0,216548,0:0:0:0:
352,160,216776,6,0,B|312:232|344:304|344:304|420:322|420:322|484:320|504:376,1,315
264,328,217231,2,0,B|244:268|248:212|248:212|200:188|200:188|104:212|104:300,1,315
280,132,217686,2,0,B|216:100|216:100|128:116|72:164,1,210
304,60,218028,2,0,B|368:84|372:168|316:200|316:200|380:248|380:248|448:204,1,315
96,40,218597,2,0,B|96:128|96:128|148:136|200:88|200:88|216:160|284:132,1,315
256,372,219051,6,0,B|244:336|244:336|272:316|272:316|256:252,1,105
256,12,219279,2,0,B|268:48|268:48|240:67|240:67|256:132,1,105
100,282,219507,2,0,B|125:253|125:253|156:267|156:267|204:222,1,105
411,101,219735,2,0,B|386:130|386:130|355:116|355:116|307:162,1,105
100,102,219962,2,0,B|137:109|137:109|140:143|140:143|204:162,1,105
411,282,220190,2,0,B|374:274|374:274|371:240|371:240|307:221,1,105
256,16,220417,6,0,B|356:56|356:56|400:8|468:48|468:48|488:108|488:108|468:144,1,315
256,368,220872,2,0,B|156:328|156:328|112:376|44:336|44:336|24:276|24:276|44:240,1,315
132,212,221328,5,0,0:0:0:0:
228,250,221441,1,0,0:0:0:0:
325,290,221555,1,0,0:0:0:0:
423,329,221669,1,0,0:0:0:0:
380,172,221783,5,0,0:0:0:0:
284,134,221896,1,0,0:0:0:0:
187,94,222010,1,0,0:0:0:0:
89,55,222124,1,0,0:0:0:0:
256,192,222238,12,0,223831,0:0:0:0:
179,340,224059,6,0,B|96:376|96:376|83:336,1,105
107,115,224286,2,0,B|72:32|72:32|112:19,1,105
332,43,224514,2,0,B|416:8|416:8|428:48,1,105
404,268,224741,2,0,B|440:352|440:352|400:364,1,105
179,340,224969,5,0,0:0:0:0:
107,115,225083,1,0,0:0:0:0:
240,304,225196,1,0,0:0:0:0:
211,68,225310,1,0,0:0:0:0:
308,280,225424,5,0,0:0:0:0:
325,43,225538,1,0,0:0:0:0:
378,268,225651,1,0,0:0:0:0:
439,38,225765,1,0,0:0:0:0:
256,180,225879,6,0,B|204:208|204:208|176:132|96:152|96:152|80:136,1,210
