osu file format v14

[General]
AudioFilename: audio.mp3
AudioLeadIn: 0
PreviewTime: -1
Countdown: 1
SampleSet: Normal
StackLeniency: 0.4
Mode: 0
LetterboxInBreaks: 0
WidescreenStoryboard: 0

[Editor]
Bookmarks: 25978,42178,43578,56378,56678,56978,57278,57578,57878,58178,58478,59578,69178,72378,89178,94778,97978,107578,117178,120378,139578,149178,168378,177178,193978,196778,206778,219578,232378,245178,248378,261178,273978,277178,289978,302778,315578,328378,341178,350778
DistanceSpacing: 0.8
BeatDivisor: 4
GridSize: 8
TimelineZoom: 2.1

[Metadata]
Title:A La Zheuleuleu
TitleUnicode:A La Zheuleuleu
Artist:Pryapisme
ArtistUnicode:Pryapisme
Creator:orinel
Version:test
Source:
Tags:
BeatmapID:1674481
BeatmapSetID:797301

[Difficulty]
HPDrainRate:4
CircleSize:4.5
OverallDifficulty:8.5
ApproachRate:9
SliderMultiplier:1.5
SliderTickRate:1

[Events]
//Background and Video events
0,0,"a2997653943_10.jpg",0,0
//Break Periods
2,248378,340578
//Storyboard Layer 0 (Background)
//Storyboard Layer 1 (Fail)
//Storyboard Layer 2 (Pass)
//Storyboard Layer 3 (Foreground)
//Storyboard Sound Samples

[TimingPoints]
378,400,4,1,0,30,1,0
378,-200,4,1,0,30,0,0
1178,-50,4,1,0,100,0,0
1978,-200,4,1,0,30,0,0
2778,-50,4,1,0,100,0,0
3578,-66.6666666666667,4,1,0,30,0,0
6778,-200,4,1,0,30,0,0
7578,-100,4,1,0,30,0,0
8378,-66.6666666666667,4,1,0,30,0,0
25978,-50,4,1,0,30,0,0
43578,-66.6666666666667,4,1,0,30,0,0
56378,-133.333333333333,4,1,0,30,0,0
58478,-66.6666666666667,4,1,0,30,0,0
58778,-66.6666666666667,4,1,0,30,0,0
71978,-1000,4,1,0,30,0,0
72378,-200,4,1,0,30,0,0
94778,-100,4,1,0,30,0,0
120378,-50,4,1,0,30,0,0
123578,-31.25,4,1,0,30,0,0
123978,-50,4,1,0,30,0,0
124778,-31.25,4,1,0,30,0,0
125178,-50,4,1,0,30,0,0
157178,-25,4,1,0,30,0,0
157578,-62.5,4,1,0,30,0,0
158378,-25,4,1,0,30,0,0
158778,-62.5,4,1,0,30,0,0
161978,-31.25,4,1,0,30,0,0
162378,-62.5,4,1,0,30,0,0
163178,-31.25,4,1,0,30,0,0
163578,-62.5,4,1,0,30,0,0
166778,-25,4,1,0,30,0,0
167178,-62.5,4,1,0,30,0,0
167978,-25,4,1,0,30,0,0
168378,-200,4,1,0,30,0,0
193978,-100,4,1,0,30,0,0
219578,-55.5555555555556,4,1,0,30,0,0
232378,-50,4,1,0,30,0,0
232978,-100,4,1,0,30,0,0
234778,-125,4,1,0,30,0,0
235578,-80,4,1,0,30,0,0
235978,-66.6666666666667,4,1,0,30,0,0
236178,-100,4,1,0,30,0,0
237378,-50,4,1,0,30,0,0
238778,-33.3333333333333,4,1,0,30,0,0
238978,-100,4,1,0,30,0,0
244778,-50,4,1,0,30,0,0
341178,-117.647058823529,4,1,0,30,0,0
347378,-54.054054054054,4,1,0,30,0,0
347578,-51.2820512820513,4,1,0,30,0,0
347778,-48.780487804878,4,1,0,30,0,0
348178,-333.333333333333,4,1,0,30,0,0
349578,-76.9230769230769,4,1,0,30,0,0
357578,-117.647058823529,4,1,0,30,0,0
359978,-133.333333333333,4,1,0,30,0,0

[HitObjects]
81,268,378,6,0,B|111:244|111:244|147:252,1,75
147,252,1178,2,0,P|42:213|84:335,1,300
192,314,1778,1,0,0:0:0:0:
366,277,1978,6,0,B|404:280|404:280|425:311,1,75
426,310,2778,2,0,P|315:320|385:210,1,300
483,243,3378,1,0,0:0:0:0:
306,51,3578,6,0,P|286:33|272:8,3,56.2500021457673
383,100,3978,2,0,P|410:98|438:107,3,56.2500021457673
400,178,4378,1,0,0:0:0:0:
397,222,4478,1,0,0:0:0:0:
372,259,4578,1,0,0:0:0:0:
329,273,4678,1,0,0:0:0:0:
263,235,4778,5,0,0:0:0:0:
218,234,4878,1,0,0:0:0:0:
178,256,4978,1,0,0:0:0:0:
160,297,5078,1,0,0:0:0:0:
208,359,5178,6,0,P|226:338|236:312,3,56.2500021457673
332,328,5578,2,0,P|334:300|329:273,3,56.2500021457673
327,193,5978,1,0,0:0:0:0:
353,156,6078,1,0,0:0:0:0:
397,153,6178,1,0,0:0:0:0:
425,187,6278,1,0,0:0:0:0:
372,260,6378,5,0,0:0:0:0:
329,273,6478,1,0,0:0:0:0:
285,261,6578,1,0,0:0:0:0:
254,227,6678,1,0,0:0:0:0:
157,183,6778,5,0,0:0:0:0:
149,188,6878,1,0,0:0:0:0:
149,198,6978,1,0,0:0:0:0:
155,205,7078,1,0,0:0:0:0:
165,206,7178,1,0,0:0:0:0:
171,199,7278,1,0,0:0:0:0:
173,191,7378,1,0,0:0:0:0:
167,184,7478,1,0,0:0:0:0:
154,173,7578,5,0,0:0:0:0:
124,166,7678,1,0,0:0:0:0:
94,173,7778,1,0,0:0:0:0:
72,193,7878,1,0,0:0:0:0:
59,224,7978,1,0,0:0:0:0:
63,261,8078,1,0,0:0:0:0:
88,293,8178,1,0,0:0:0:0:
129,309,8278,1,0,0:0:0:0:
206,306,8378,6,0,L|261:300,3,56.2500021457673
247,221,8778,2,0,L|302:215,3,56.2500021457673
448,247,9178,6,0,L|443:302,3,56.2500021457673
367,286,9578,2,0,L|362:341,3,56.2500021457673
322,155,9978,6,0,L|327:99,3,56.2500021457673
253,97,10378,2,0,L|258:42,3,56.2500021457673
131,143,10778,6,0,L|75:148,3,56.2500021457673
73,74,11178,2,0,L|17:79,3,56.2500021457673
234,28,11578,6,0,L|229:84,3,56.2500021457673
338,91,11978,2,0,L|295:127,3,56.2500021457673
352,210,12378,2,0,L|297:205,3,56.2500021457673
296,318,12778,2,0,L|261:275,3,56.2500021457673
207,342,13178,5,0,0:0:0:0:
167,319,13278,1,0,0:0:0:0:
148,278,13378,1,0,0:0:0:0:
148,233,13478,1,0,0:0:0:0:
170,194,13578,1,0,0:0:0:0:
209,171,13678,1,0,0:0:0:0:
253,171,13778,1,0,0:0:0:0:
293,191,13878,1,0,0:0:0:0:
341,251,13978,5,0,0:0:0:0:
341,258,14078,1,0,0:0:0:0:
342,266,14178,1,0,0:0:0:0:
343,274,14278,1,0,0:0:0:0:
396,199,14378,5,0,0:0:0:0:
396,192,14478,1,0,0:0:0:0:
397,184,14578,1,0,0:0:0:0:
398,176,14678,1,0,0:0:0:0:
351,110,14778,6,0,P|376:99|405:95,3,56.2500021457673
480,72,15178,2,0,P|454:62|426:59,3,56.2500021457673
398,176,15578,1,0,0:0:0:0:
349,189,15678,1,0,0:0:0:0:
301,172,15778,1,0,0:0:0:0:
274,129,15878,1,0,0:0:0:0:
242,58,15978,5,0,0:0:0:0:
194,41,16078,1,0,0:0:0:0:
146,57,16178,1,0,0:0:0:0:
121,101,16278,1,0,0:0:0:0:
145,175,16378,6,0,P|135:200|116:222,3,56.2500021457673
67,158,16778,2,0,P|51:136|42:109,3,56.2500021457673
53,228,17178,5,0,0:0:0:0:
84,225,17278,1,0,0:0:0:0:
116,222,17378,1,0,0:0:0:0:
148,219,17478,1,0,0:0:0:0:
219,212,17578,5,0,0:0:0:0:
203,210,17678,1,0,0:0:0:0:
187,209,17778,1,0,0:0:0:0:
171,207,17878,1,0,0:0:0:0:
105,297,17978,5,0,0:0:0:0:
151,356,18078,1,0,0:0:0:0:
224,366,18178,1,0,0:0:0:0:
284,325,18278,1,0,0:0:0:0:
312,257,18378,2,0,L|299:199,3,56.2500021457673
336,265,18778,1,0,0:0:0:0:
342,136,18878,5,0,0:0:0:0:
406,100,18978,1,0,0:0:0:0:
476,117,19078,1,0,0:0:0:0:
507,183,19178,2,0,L|494:237,3,56.2500021457673
395,321,19578,6,0,L|450:334,3,56.2500021457673
251,343,19978,2,0,L|305:357,3,56.2500021457673
59,296,20378,6,0,L|69:369,3,56.2500021457673
153,239,20778,2,0,L|143:312,3,56.2500021457673
57,112,21178,6,0,L|49:56,3,56.2500021457673
163,15,21578,2,0,L|155:70,3,56.2500021457673
232,147,21978,6,0,L|237:202,3,56.2500021457673
347,260,22378,2,0,L|341:200,3,56.2500021457673
183,258,22778,2,0,B|198:279|231:297|290:280|307:234|307:234|353:220|380:281|348:310|348:310|325:331|267:335|241:264,1,393.750015020371
343,139,23578,2,0,B|371:112|371:112|433:134|456:189|456:189|441:227|441:227|419:192|419:192|433:134|490:99|443:39,1,393.750015020371
256,192,24378,12,0,25778,0:0:0:0:
94,133,25978,6,0,P|99:97|120:66,1,75
272,110,26178,1,0,0:0:0:0:
300,118,26278,1,0,0:0:0:0:
328,126,26378,2,0,L|241:146,1,75
176,157,26578,1,0,0:0:0:0:
41,336,26778,1,0,0:0:0:0:
110,366,26878,1,0,0:0:0:0:
185,340,26978,2,0,L|203:238,1,75
176,157,27178,1,0,0:0:0:0:
72,48,27378,5,0,0:0:0:0:
144,64,27478,1,0,0:0:0:0:
216,80,27578,2,0,L|312:104,1,75
40,72,27778,5,0,0:0:0:0:
135,84,27878,1,0,0:0:0:0:
231,97,27978,2,0,L|305:108,1,75
404,214,28178,2,0,P|396:177|403:140,1,75
492,79,28378,5,0,0:0:0:0:
483,50,28478,1,0,0:0:0:0:
474,21,28578,2,0,P|463:60|474:95,1,75
512,265,28778,2,0,B|491:274|465:269|465:269|447:290,1,75
281,174,28978,2,0,B|301:164|327:169|327:169|345:148,1,75
385,76,29178,6,0,P|345:66|298:80,1,75
100,184,29378,1,0,0:0:0:0:
128,175,29478,1,0,0:0:0:0:
156,167,29578,2,0,P|176:133|181:90,1,75
70,31,29778,2,0,P|75:67|95:99,1,75
281,174,29978,1,0,0:0:0:0:
273,203,30078,1,0,0:0:0:0:
265,232,30178,2,0,P|244:198|239:155,1,75
279,90,30378,6,0,P|239:80|192:94,1,75
44,146,30578,5,0,0:0:0:0:
60,218,30678,1,0,0:0:0:0:
107,276,30778,2,0,P|136:298|175:310,1,75
29,172,30978,5,0,0:0:0:0:
96,219,31078,1,0,0:0:0:0:
178,224,31178,2,0,P|220:209|253:179,1,75
279,90,31378,6,0,P|288:52|310:23,1,75
465,139,31578,1,0,0:0:0:0:
439,153,31678,1,0,0:0:0:0:
409,156,31778,2,0,P|384:128|367:85,1,75
140,145,31978,2,0,B|176:147|176:147|185:128|200:117,1,75
250,9,32178,2,0,B|213:6|213:6|204:25|190:37,1,75
57,157,32378,6,0,P|70:193|97:219,1,75
178,206,32578,2,0,P|165:170|138:144,1,75
53,290,32778,2,0,P|97:300|142:285,1,75
233,138,32978,2,0,P|188:127|143:142,1,75
232,348,33178,6,0,P|258:319|272:286,1,75
285,51,33378,2,0,P|258:79|244:112,1,75
431,298,33578,2,0,P|432:260|420:225,1,75
81,86,33778,2,0,P|80:124|92:159,1,75
255,268,33978,5,0,0:0:0:0:
334,212,34078,1,0,0:0:0:0:
278,132,34178,1,0,0:0:0:0:
199,188,34278,1,0,0:0:0:0:
193,212,34378,1,0,0:0:0:0:
193,211,35578,6,0,P|225:193|262:187,1,75
427,251,35778,1,0,0:0:0:0:
398,242,35878,1,0,0:0:0:0:
375,222,35978,2,0,B|361:187|361:187|357:148,1,75
374,67,36178,1,0,0:0:0:0:
137,88,36378,5,0,0:0:0:0:
192,38,36478,1,0,0:0:0:0:
270,42,36578,2,0,B|284:77|284:77|288:116,1,75
257,287,36778,1,0,0:0:0:0:
32,242,36978,5,0,0:0:0:0:
113,227,37078,1,0,0:0:0:0:
193,211,37178,2,0,L|290:193,1,75
20,268,37378,5,0,0:0:0:0:
113,258,37478,1,0,0:0:0:0:
206,248,37578,2,0,L|318:237,1,75
466,221,37778,2,0,P|453:255|448:292,1,75
376,134,37978,5,0,0:0:0:0:
367,105,38078,1,0,0:0:0:0:
350,79,38178,2,0,P|311:65|269:63,1,75
164,74,38378,6,0,B|149:107|149:107|144:145,1,75
46,323,38578,2,0,B|41:285|41:285|26:252,1,75
0,150,38778,6,0,P|36:169|84:171,1,75
247,278,38978,1,0,0:0:0:0:
276,270,39078,1,0,0:0:0:0:
304,263,39178,2,0,L|314:188,1,75
348,105,39378,6,0,P|381:129|403:171,1,75
229,194,39578,1,0,0:0:0:0:
175,140,39678,1,0,0:0:0:0:
184,62,39778,2,0,P|217:44|254:40,1,75
154,219,39978,2,0,P|116:217|82:202,1,75
26,70,40178,5,0,0:0:0:0:
31,144,40278,1,0,0:0:0:0:
37,218,40378,2,0,B|44:298,1,75
59,33,40578,5,0,0:0:0:0:
57,119,40678,1,0,0:0:0:0:
57,206,40778,2,0,B|57:299,1,75
203,360,40978,2,0,B|203:285,1,75
346,179,41178,5,0,0:0:0:0:
318,188,41278,1,0,0:0:0:0:
290,196,41378,2,0,L|363:212,1,75
441,168,41578,2,0,B|476:177|476:177|506:201,1,75
359,311,41778,2,0,B|323:301|323:301|293:277,1,75
235,86,41978,6,0,B|252:80|271:82|271:82|280:100|281:119,1,75
218,162,42179,2,0,B|203:168|180:166|180:166|169:148|169:129,1,75
329,49,42378,2,0,B|335:68|333:87|333:87|322:104|307:112,1,75
126,201,42578,2,0,B|118:184|118:164|118:164|128:149|145:137,1,75
392,158,42778,6,0,B|372:161|350:158|350:158|332:150|321:136,1,75
59,101,42978,2,0,B|79:97|99:98|99:98|115:108|127:120,1,75
205,252,43178,2,0,P|214:286|215:326,1,75
0,264,43378,2,0,P|1:226|11:190,1,75
208,95,43578,6,0,P|263:101|313:78,1,112.500004291535
468,38,43978,1,0,0:0:0:0:
386,164,44178,1,0,0:0:0:0:
377,195,44278,1,0,0:0:0:0:
378,228,44378,6,0,P|403:276|451:305,1,112.500004291535
426,328,44678,1,0,0:0:0:0:
402,351,44778,2,0,L|278:330,1,112.500004291535
179,306,45178,5,0,0:0:0:0:
78,364,45378,1,0,0:0:0:0:
45,351,45478,1,0,0:0:0:0:
21,326,45578,2,0,P|4:272|20:219,1,112.500004291535
183,116,45978,5,0,0:0:0:0:
181,127,46078,1,0,0:0:0:0:
179,138,46178,1,0,0:0:0:0:
177,150,46278,1,0,0:0:0:0:
95,197,46378,5,0,0:0:0:0:
93,185,46478,1,0,0:0:0:0:
91,174,46578,1,0,0:0:0:0:
89,163,46678,1,0,0:0:0:0:
45,99,46778,6,0,P|92:127|147:126,1,112.500004291535
273,107,47078,1,0,0:0:0:0:
291,74,47178,2,0,P|338:45|393:46,1,112.500004291535
483,188,47578,6,0,P|474:242|437:284,1,112.500004291535
330,305,47878,1,0,0:0:0:0:
314,275,47978,2,0,P|265:247|210:250,1,112.500004291535
66,325,48378,6,0,P|109:290|127:237,1,112.500004291535
99,124,48678,1,0,0:0:0:0:
80,153,48778,2,0,P|134:142|186:162,1,112.500004291535
352,341,49178,5,0,0:0:0:0:
424,345,49278,1,0,0:0:0:0:
477,295,49378,1,0,0:0:0:0:
488,146,49478,1,0,0:0:0:0:
420,174,49578,2,0,P|421:200|431:230,1,56.2500021457673
365,286,49778,2,0,P|362:312|350:342,1,56.2500021457673
177,383,49978,6,0,P|121:378|73:350,1,112.500004291535
57,330,50278,1,0,0:0:0:0:
206,269,50378,2,0,P|229:216|213:149,1,112.500004291535
20,151,50778,2,0,P|61:189|115:205,1,112.500004291535
141,205,51078,1,0,0:0:0:0:
229,95,51178,2,0,P|280:75|336:80,1,112.500004291535
476,167,51578,5,0,0:0:0:0:
472,201,51678,1,0,0:0:0:0:
397,210,51778,1,0,0:0:0:0:
386,241,51878,1,0,0:0:0:0:
307,246,51978,2,0,P|298:276|303:316,1,56.2500021457673
468,335,52178,2,0,P|468:306|460:280,1,56.2500021457673
247,101,52378,6,0,P|214:100|183:110,1,56.2500021457673
114,125,52578,2,0,P|134:105|159:93,1,56.2500021457673
293,164,52778,1,0,0:0:0:0:
365,158,52878,1,0,0:0:0:0:
417,107,52978,1,0,0:0:0:0:
427,34,53078,1,0,0:0:0:0:
247,101,53178,6,0,P|218:149|230:210,1,112.500004291535
338,235,53478,1,0,0:0:0:0:
375,243,53578,2,0,P|404:291|392:352,1,112.500004291535
231,336,53978,6,0,L|101:364,1,112.500004291535
45,269,54278,1,0,0:0:0:0:
27,240,54378,2,0,L|157:268,1,112.500004291535
293,164,54778,6,0,B|313:109|313:109|294:58,1,112.500004291535
477,76,55178,2,0,B|448:122|448:122|459:179,1,112.500004291535
358,208,55578,5,0,0:0:0:0:
321,234,55678,1,0,0:0:0:0:
276,237,55778,1,0,0:0:0:0:
237,213,55878,1,0,0:0:0:0:
169,82,55978,5,0,0:0:0:0:
233,51,56078,1,0,0:0:0:0:
299,88,56178,1,0,0:0:0:0:
295,160,56278,1,0,0:0:0:0:
237,213,56378,6,0,L|234:272,1,56.2500021457673
302,307,56678,2,0,L|305:250,1,56.2500021457673
226,223,56978,2,0,L|223:282,1,56.2500021457673
291,317,57278,2,0,L|294:260,1,56.2500021457673
345,198,57578,6,0,L|400:190,1,56.2500021457673
467,221,57878,2,0,L|412:213,1,56.2500021457673
353,184,58178,2,0,L|408:176,1,56.2500021457673
300,268,58478,6,0,P|279:245|266:221,1,56.2500021457673
259,142,58678,1,0,0:0:0:0:
154,289,58778,6,0,B|138:299|112:293|112:293|92:302|92:302|69:298|69:298|44:305,3,112.500004291535
0,176,59578,6,0,P|54:208|113:206,1,112.500004291535
225,152,59878,1,0,0:0:0:0:
197,162,59978,2,0,L|175:285,1,112.500004291535
398,368,60378,6,0,P|392:313|354:260,1,112.500004291535
195,290,60678,1,0,0:0:0:0:
220,302,60778,2,0,L|337:269,1,112.500004291535
383,103,61178,2,0,P|428:134|484:134,3,112.500004291535
438,302,61978,5,0,0:0:0:0:
421,302,62078,1,0,0:0:0:0:
404,298,62178,1,0,0:0:0:0:
389,290,62278,1,0,0:0:0:0:
480,227,62378,5,0,0:0:0:0:
432,257,62478,1,0,0:0:0:0:
376,260,62578,1,0,0:0:0:0:
328,231,62678,1,0,0:0:0:0:
155,198,62778,6,0,P|127:199|100:209,1,56.2500021457673
237,196,62978,1,0,0:0:0:0:
240,175,63078,1,0,0:0:0:0:
202,269,63178,2,0,L|213:323,1,56.2500021457673
312,360,63378,2,0,L|322:304,1,56.2500021457673
480,227,63578,5,0,0:0:0:0:
501,220,63678,1,0,0:0:0:0:
434,303,63778,2,0,P|413:279|396:239,1,56.2500021457673
380,131,63978,1,0,0:0:0:0:
378,97,64078,1,0,0:0:0:0:
441,23,64178,1,0,0:0:0:0:
442,56,64278,1,0,0:0:0:0:
460,135,64378,6,0,L|525:140,1,56.2500021457673
367,214,64578,2,0,L|310:218,1,56.2500021457673
159,317,64778,6,0,L|224:322,1,56.2500021457673
350,231,64978,2,0,L|293:235,1,56.2500021457673
128,231,65178,6,0,P|98:223|73:211,1,56.2500021457673
0,153,65378,2,0,P|29:145|54:133,1,56.2500021457673
152,79,65578,2,0,P|122:71|97:59,1,56.2500021457673
40,0,65778,5,0,0:0:0:0:
129,101,65878,1,0,0:0:0:0:
264,98,65978,2,0,P|298:56|305:-4,1,112.500004291535
128,231,66378,2,0,P|147:281|195:317,1,112.500004291535
475,177,66778,2,0,P|418:166|364:181,1,112.500004291535
212,303,67178,2,0,L|205:364,2,56.2500021457673
192,316,67578,6,0,L|204:204,1,112.500004291535
335,53,67978,2,0,L|347:164,1,112.500004291535
447,295,68378,2,0,P|473:303|512:302,2,56.2500021457673
461,276,68778,2,0,P|385:269|340:294,1,112.500004291535
175,346,69178,6,0,P|146:345|109:363,1,56.2500021457673
73,289,69378,1,0,0:0:0:0:
55,275,69478,1,0,0:0:0:0:
43,255,69578,2,0,P|35:226|36:194,1,56.2500021457673
196,112,69778,1,0,0:0:0:0:
204,145,69878,1,0,0:0:0:0:
197,177,69978,6,0,L|143:191,1,56.2500021457673
124,211,70178,2,0,L|178:197,1,56.2500021457673
279,166,70378,1,0,0:0:0:0:
301,170,70478,1,0,0:0:0:0:
321,179,70578,1,0,0:0:0:0:
338,193,70678,1,0,0:0:0:0:
386,261,70778,6,0,P|391:288|404:315,1,56.2500021457673
465,222,70978,2,0,P|449:198|425:181,1,56.2500021457673
274,256,71178,2,0,P|240:257|208:246,1,56.2500021457673
140,166,71378,2,0,P|173:165|206:176,1,56.2500021457673
273,131,71578,2,0,L|279:75,3,56.2500021457673
338,181,71978,6,0,L|338:192,1,11.25
358,166,72378,6,0,L|443:155,1,75
512,250,73178,2,0,L|427:239,1,75
249,79,73978,2,0,L|302:71,1,37.5
312,78,74278,1,0,0:0:0:0:
337,84,74378,1,0,0:0:0:0:
419,107,74578,1,0,0:0:0:0:
280,305,74778,6,0,P|267:278|262:243,1,56.25
283,156,75328,1,0,0:0:0:0:
150,65,75578,2,0,L|159:154,1,75
44,223,76378,2,0,L|54:148,1,75
165,40,77178,2,0,L|177:122,1,75
210,310,77978,6,0,L|253:318,1,37.5
274,311,78278,1,0,0:0:0:0:
299,305,78378,1,0,0:0:0:0:
386,282,78578,1,0,0:0:0:0:
424,123,78778,6,0,L|348:141,1,75
278,206,79578,2,0,P|256:170|254:132,1,75
336,38,80378,6,0,L|348:115,1,75
435,206,81178,2,0,L|446:131,1,75
175,306,81978,5,0,0:0:0:0:
160,210,82378,1,0,0:0:0:0:
447,202,82778,5,0,0:0:0:0:
464,105,83178,1,0,0:0:0:0:
465,226,83578,2,0,L|451:326,1,75
237,90,84278,1,0,0:0:0:0:
261,81,84378,2,0,P|303:80|345:104,1,75
412,191,85178,2,0,P|369:189|327:213,1,75
142,209,85978,6,0,L|145:256,1,37.5
139,272,86278,1,0,0:0:0:0:
133,297,86378,1,0,0:0:0:0:
48,248,86578,1,0,0:0:0:0:
160,96,86778,6,0,L|244:83,1,75
126,187,87578,2,0,L|42:174,1,75
249,169,88378,6,0,P|268:201|270:239,1,75
161,303,89178,2,0,P|164:265|182:233,1,75
400,173,89978,6,0,L|406:247,1,75
444,52,90778,1,0,0:0:0:0:
444,52,91178,5,0,0:0:0:0:
374,96,91311,1,0,0:0:0:0:
297,68,91444,1,0,0:0:0:0:
225,115,91578,2,0,L|210:188,1,75
174,361,92378,1,0,0:0:0:0:
174,361,92778,5,0,0:0:0:0:
106,314,92911,1,0,0:0:0:0:
151,245,93044,1,0,0:0:0:0:
223,284,93178,2,0,L|296:268,1,75
440,278,93978,2,0,P|457:239|457:201,1,75
236,40,94778,6,0,P|238:77|253:110,1,75
279,138,95078,1,0,0:0:0:0:
312,154,95178,1,0,0:0:0:0:
424,99,95378,1,0,0:0:0:0:
139,54,95578,1,0,0:0:0:0:
42,156,95778,6,0,P|51:135|59:111,1,37.5
129,149,95978,1,0,0:0:0:0:
153,177,96078,1,0,0:0:0:0:
164,212,96178,1,0,0:0:0:0:
161,249,96278,1,0,0:0:0:0:
143,278,96378,6,0,B|51:267,1,75
48,282,96678,1,0,0:0:0:0:
26,299,96778,1,0,0:0:0:0:
168,378,96978,1,0,0:0:0:0:
385,199,97178,1,0,0:0:0:0:
490,256,97378,1,0,0:0:0:0:
462,281,97478,1,0,0:0:0:0:
424,288,97578,2,0,P|411:252|410:215,1,75
490,43,97978,5,0,0:0:0:0:
481,80,98078,1,0,0:0:0:0:
456,108,98178,1,0,0:0:0:0:
420,120,98278,1,0,0:0:0:0:
384,113,98378,2,0,L|352:91,1,37.5
150,46,98578,1,0,0:0:0:0:
134,53,98678,1,0,0:0:0:0:
124,63,98778,6,0,L|130:100,1,37.5
237,151,98978,2,0,L|228:88,1,37.5
42,122,99178,5,0,0:0:0:0:
103,168,99278,2,0,P|127:173|152:172,1,37.5
313,208,99478,5,0,0:0:0:0:
252,253,99578,2,0,P|233:257|215:258,1,37.5
88,346,99778,1,0,0:0:0:0:
92,316,99878,1,0,0:0:0:0:
97,286,99978,1,0,0:0:0:0:
103,256,100078,1,0,0:0:0:0:
49,197,100178,2,0,P|30:194|9:196,1,37.5
194,112,100378,6,0,L|241:114,1,37.5
99,50,100578,2,0,L|61:48,1,37.5
79,67,100778,2,0,L|41:65,1,37.5
44,199,100978,1,0,0:0:0:0:
129,208,101078,1,0,0:0:0:0:
192,149,101178,6,0,L|194:102,1,37.5
273,23,101378,2,0,L|271:60,1,37.5
290,43,101578,2,0,L|288:80,1,37.5
414,147,101778,5,0,0:0:0:0:
329,156,101878,1,0,0:0:0:0:
380,225,101978,2,0,L|381:262,1,37.5
363,245,102178,2,0,L|364:282,1,37.5
257,374,102378,2,0,L|255:336,1,37.5
147,282,102578,2,0,L|149:245,1,37.5
288,80,102778,5,0,0:0:0:0:
249,144,102878,2,0,B|234:152|234:152|213:155,1,37.5
0,123,103078,1,0,0:0:0:0:
49,66,103178,2,0,B|65:60|65:60|85:60,1,37.5
313,183,103378,5,0,0:0:0:0:
318,194,103478,2,0,B|301:281,1,75
385,119,103778,2,0,B|376:164,1,37.5
230,233,103978,5,0,0:0:0:0:
138,160,104078,2,0,P|139:137|149:112,1,37.5
318,194,104278,5,0,0:0:0:0:
410,267,104378,2,0,P|409:290|399:315,1,37.5
171,254,104578,5,0,0:0:0:0:
156,247,104678,2,0,B|243:230,1,75
64,206,104978,2,0,B|109:197,1,37.5
211,73,105178,5,0,0:0:0:0:
218,87,105278,2,0,B|215:106|215:106|203:120,1,37.5
104,323,105478,1,0,0:0:0:0:
91,317,105578,2,0,B|83:300|83:300|86:281,1,37.5
94,122,105778,5,0,0:0:0:0:
129,108,105878,1,0,0:0:0:0:
167,107,105978,1,0,0:0:0:0:
203,120,106078,1,0,0:0:0:0:
148,210,106178,2,0,L|155:246,1,37.5
320,239,106378,1,0,0:0:0:0:
240,262,106478,2,0,L|229:342,1,75
320,239,106778,2,0,L|325:201,1,37.5
174,52,106978,5,0,0:0:0:0:
200,78,107078,1,0,0:0:0:0:
235,89,107178,1,0,0:0:0:0:
272,86,107278,1,0,0:0:0:0:
349,45,107378,2,0,L|345:6,1,37.5
225,180,107578,5,0,0:0:0:0:
240,262,107678,2,0,B|251:276|251:276|266:287,1,37.5
441,207,107878,5,0,0:0:0:0:
359,187,107978,2,0,B|340:191|340:191|324:201,1,37.5
86,331,108178,5,0,0:0:0:0:
74,325,108278,1,0,0:0:0:0:
116,301,108378,1,0,0:0:0:0:
159,279,108478,1,0,0:0:0:0:
202,257,108578,2,0,L|242:262,1,37.5
70,189,108778,5,0,0:0:0:0:
146,148,108878,2,0,L|186:153,1,37.5
368,139,109078,5,0,0:0:0:0:
292,98,109178,2,0,L|252:103,1,37.5
239,261,109378,5,0,0:0:0:0:
244,274,109478,1,0,0:0:0:0:
249,287,109578,1,0,0:0:0:0:
254,298,109678,1,0,0:0:0:0:
259,309,109778,2,0,L|299:313,1,37.5
176,300,109978,1,0,0:0:0:0:
152,297,110078,1,0,0:0:0:0:
408,160,110278,5,0,0:0:0:0:
447,195,110378,1,0,0:0:0:0:
435,247,110478,1,0,0:0:0:0:
386,263,110578,1,0,0:0:0:0:
347,227,110678,1,0,0:0:0:0:
357,176,110778,1,0,0:0:0:0:
408,160,110878,2,0,L|414:112,2,37.5
317,305,111178,2,0,L|312:345,1,37.5
157,239,111378,5,0,0:0:0:0:
118,274,111478,1,0,0:0:0:0:
130,326,111578,1,0,0:0:0:0:
179,342,111678,1,0,0:0:0:0:
218,306,111778,1,0,0:0:0:0:
208,255,111878,1,0,0:0:0:0:
157,239,111978,2,0,L|151:191,2,37.5
54,144,112378,5,0,0:0:0:0:
42,134,112478,2,0,L|33:82,1,37.5
172,49,112678,1,0,0:0:0:0:
180,64,112778,2,0,L|164:117,1,37.5
48,264,112978,5,0,0:0:0:0:
71,245,113078,1,0,0:0:0:0:
99,235,113178,1,0,0:0:0:0:
128,233,113278,1,0,0:0:0:0:
157,239,113378,1,0,0:0:0:0:
315,186,113578,5,0,0:0:0:0:
299,189,113678,2,0,L|268:231,1,37.5
368,300,113878,1,0,0:0:0:0:
378,286,113978,2,0,L|370:231,1,37.5
166,129,114178,1,0,0:0:0:0:
149,154,114278,1,0,0:0:0:0:
142,183,114378,1,0,0:0:0:0:
145,212,114478,1,0,0:0:0:0:
157,239,114578,1,0,0:0:0:0:
308,280,114778,5,0,0:0:0:0:
319,266,114878,2,0,L|309:220,1,37.5
226,193,115078,2,0,L|233:230,1,37.5
401,117,115378,1,0,0:0:0:0:
381,140,115478,1,0,0:0:0:0:
352,150,115578,1,0,0:0:0:0:
322,150,115678,1,0,0:0:0:0:
293,139,115778,1,0,0:0:0:0:
381,310,115978,5,0,0:0:0:0:
319,352,116078,2,0,B|302:353|302:353|281:347,1,37.5
157,239,116278,1,0,0:0:0:0:
225,207,116378,2,0,B|242:208|242:208|260:216,1,37.5
91,362,116578,1,0,0:0:0:0:
33,303,116678,1,0,0:0:0:0:
55,227,116778,1,0,0:0:0:0:
217,127,116978,1,0,0:0:0:0:
79,57,117178,6,0,L|88:93,3,37.5
196,204,117778,2,0,L|187:240,3,37.5
309,169,118378,5,0,0:0:0:0:
323,173,118444,1,0,0:0:0:0:
337,177,118511,1,0,0:0:0:0:
351,181,118578,1,0,0:0:0:0:
365,185,118644,1,0,0:0:0:0:
379,189,118711,1,0,0:0:0:0:
389,191,118778,2,0,L|398:227,3,37.5
507,78,119378,2,0,L|498:114,3,37.5
38,111,119978,5,0,0:0:0:0:
46,147,120078,1,0,0:0:0:0:
118,172,120178,1,0,0:0:0:0:
111,208,120278,1,0,0:0:0:0:
49,251,120378,6,0,B|104:219|134:287|206:260,1,150
393,101,120778,1,0,0:0:0:0:
465,213,120878,1,0,0:0:0:0:
368,279,120978,2,0,P|366:249|382:191,1,75
498,129,121178,2,0,P|484:155|441:198,1,75
351,202,121378,1,0,0:0:0:0:
171,327,121578,5,0,0:0:0:0:
266,315,121678,1,0,0:0:0:0:
146,237,121778,2,0,P|118:248|85:284,1,75
297,223,121978,5,0,0:0:0:0:
315,199,122078,1,0,0:0:0:0:
322,170,122178,1,0,0:0:0:0:
322,140,122278,1,0,0:0:0:0:
307,57,122378,5,0,0:0:0:0:
340,126,122478,1,0,0:0:0:0:
415,144,122578,1,0,0:0:0:0:
482,106,122678,1,0,0:0:0:0:
466,91,122778,2,0,L|476:172,3,75
390,221,123178,5,0,0:0:0:0:
386,250,123278,1,0,0:0:0:0:
445,305,123378,1,0,0:0:0:0:
441,334,123478,1,0,0:0:0:0:
357,335,123578,2,0,B|299:378|232:348|213:298|213:298|171:357|119:343|74:340|59:271,1,360
140,260,123978,6,0,L|130:334,3,75
33,117,124378,5,0,0:0:0:0:
69,110,124478,1,0,0:0:0:0:
136,156,124578,1,0,0:0:0:0:
172,148,124678,1,0,0:0:0:0:
144,67,124778,2,0,B|69:104|59:204|140:244|198:229|198:229|365:155,1,360
417,129,125178,6,0,P|456:124|502:137,1,75
338,283,125378,1,0,0:0:0:0:
318,273,125478,1,0,0:0:0:0:
303,265,125578,2,0,L|385:230,1,75
451,208,125778,2,0,L|437:286,1,75
444,355,125978,5,0,0:0:0:0:
465,236,126078,1,0,0:0:0:0:
486,117,126178,1,0,0:0:0:0:
226,116,126378,6,0,P|271:153|364:148,1,150
430,48,126678,1,0,0:0:0:0:
411,39,126778,6,0,B|326:60,1,75
152,46,126978,2,0,B|224:28,1,75
336,199,127178,5,0,0:0:0:0:
212,143,127278,1,0,0:0:0:0:
317,64,127378,1,0,0:0:0:0:
417,258,127578,6,0,P|362:295|275:278,1,150
60,255,127978,1,0,0:0:0:0:
205,373,128178,5,0,0:0:0:0:
197,346,128378,1,0,0:0:0:0:
184,324,128578,1,0,0:0:0:0:
24,155,128778,6,0,P|88:174|176:130,1,150
379,49,129178,1,0,0:0:0:0:
152,0,129378,5,0,0:0:0:0:
176,14,129578,1,0,0:0:0:0:
192,32,129778,1,0,0:0:0:0:
271,275,129978,6,0,L|286:355,1,75
336,166,130278,6,0,L|351:239,1,75
453,55,130578,5,0,0:0:0:0:
446,89,130678,1,0,0:0:0:0:
365,42,130778,2,0,B|326:40|326:40|278:52,2,75
181,108,131178,6,0,L|279:122,1,75
61,173,131478,6,0,L|159:187,1,75
120,345,131778,1,0,0:0:0:0:
150,325,131878,1,0,0:0:0:0:
84,274,131978,2,0,B|46:273|46:273|8:288,2,75
275,343,132378,6,0,L|371:329,1,75
499,272,132678,6,0,L|403:258,1,75
244,119,132978,1,0,0:0:0:0:
205,205,133078,1,0,0:0:0:0:
316,156,133178,2,0,P|305:66|229:38,1,150
125,90,133578,6,0,L|134:182,1,75
52,196,133878,6,0,L|61:280,1,75
281,364,134178,1,0,0:0:0:0:
435,297,134278,1,0,0:0:0:0:
330,294,134378,2,0,P|267:228|306:146,1,150
438,103,134778,6,0,L|518:96,1,75
313,7,135078,2,0,L|393:15,1,75
161,144,135378,1,0,0:0:0:0:
192,139,135478,1,0,0:0:0:0:
220,69,135578,1,0,0:0:0:0:
165,17,135678,1,0,0:0:0:0:
95,46,135778,1,0,0:0:0:0:
7,254,135978,6,0,B|1:218|1:218|12:173,1,75
194,309,136278,6,0,B|200:273|200:273|189:228,1,75
63,368,136578,1,0,0:0:0:0:
57,339,136678,1,0,0:0:0:0:
131,350,136778,1,0,0:0:0:0:
194,309,136878,1,0,0:0:0:0:
190,235,136978,1,0,0:0:0:0:
36,108,137178,6,0,B|130:85|130:85|189:96,1,150
273,95,137478,2,0,L|187:75,1,75
512,62,137778,1,0,0:0:0:0:
440,43,137878,1,0,0:0:0:0:
370,77,137978,2,0,P|347:140|393:207,1,150
492,348,138378,6,0,B|515:251|515:251|476:159,1,150
436,132,138678,2,0,L|475:220,1,75
349,333,138978,1,0,0:0:0:0:
291,384,139078,1,0,0:0:0:0:
213,384,139178,2,0,P|155:337|156:263,1,150
209,109,139578,5,0,0:0:0:0:
245,212,139678,1,0,0:0:0:0:
187,130,139778,2,0,L|112:117,2,75
359,76,140178,5,0,0:0:0:0:
433,64,140278,1,0,0:0:0:0:
334,61,140378,1,0,0:0:0:0:
458,79,140478,2,0,P|485:67|514:29,2,75
292,132,140778,2,0,P|265:105|254:70,2,75
451,217,141078,1,0,0:0:0:0:
461,240,141178,2,0,P|462:278|436:319,1,75
280,355,141378,5,0,0:0:0:0:
210,324,141478,1,0,0:0:0:0:
136,352,141578,1,0,0:0:0:0:
301,340,141678,2,0,L|307:265,2,75
114,124,141978,6,0,P|119:160|118:198,1,75
421,142,142278,6,0,P|420:104|426:68,1,75
212,197,142578,5,0,0:0:0:0:
182,286,142678,1,0,0:0:0:0:
272,267,142778,2,0,B|284:248|284:248|259:179|173:152|109:205,1,225
38,275,143178,1,0,0:0:0:0:
38,275,143278,1,0,0:0:0:0:
251,367,143478,1,0,0:0:0:0:
251,367,143578,1,0,0:0:0:0:
478,221,143778,5,0,0:0:0:0:
504,137,143878,1,0,0:0:0:0:
456,65,143978,2,0,B|421:74|421:74|346:26|316:134|234:58,1,225
149,87,144378,2,0,P|106:81|68:103,1,75
224,47,144578,1,0,0:0:0:0:
257,151,144678,1,0,0:0:0:0:
190,228,144778,1,0,0:0:0:0:
14,331,144978,5,0,0:0:0:0:
14,331,145078,1,0,0:0:0:0:
141,310,145278,5,0,0:0:0:0:
188,326,145378,1,0,0:0:0:0:
236,315,145478,2,0,P|262:296|284:258,1,75
297,96,145678,5,0,0:0:0:0:
280,169,145778,1,0,0:0:0:0:
346,205,145878,1,0,0:0:0:0:
321,88,145978,1,0,0:0:0:0:
432,58,146178,1,0,0:0:0:0:
432,58,146278,1,0,0:0:0:0:
488,281,146478,5,0,0:0:0:0:
404,359,146578,1,0,0:0:0:0:
290,304,146678,1,0,0:0:0:0:
450,194,146778,6,0,L|468:287,1,75
331,384,146978,2,0,L|316:308,1,75
97,247,147178,2,0,P|178:265|263:207,1,150
376,59,147578,2,0,P|407:48|452:56,1,75
508,208,147778,2,0,P|478:205|433:176,1,75
218,42,147978,6,0,L|253:131,1,75
172,233,148178,2,0,L|146:160,1,75
15,67,148378,2,0,P|85:48|150:84,1,150
230,333,148778,2,0,B|256:357|256:357|307:378,1,75
405,282,148978,2,0,B|370:275|370:275|315:284,1,75
113,309,149178,6,0,L|18:322,2,75
325,87,149578,1,0,0:0:0:0:
312,182,149678,1,0,0:0:0:0:
299,287,149778,1,0,0:0:0:0:
163,217,149978,6,0,L|82:230,2,75
348,68,150378,1,0,0:0:0:0:
332,186,150478,1,0,0:0:0:0:
316,304,150578,1,0,0:0:0:0:
193,83,150778,5,0,0:0:0:0:
127,53,150878,1,0,0:0:0:0:
60,80,150978,1,0,0:0:0:0:
45,150,151078,1,0,0:0:0:0:
88,207,151178,1,0,0:0:0:0:
159,212,151278,1,0,0:0:0:0:
213,259,151378,1,0,0:0:0:0:
217,330,151478,1,0,0:0:0:0:
166,384,151578,2,0,L|70:361,2,75
472,185,151978,5,0,0:0:0:0:
357,223,152078,1,0,0:0:0:0:
458,210,152178,1,0,0:0:0:0:
370,197,152278,1,0,0:0:0:0:
412,217,152378,2,0,P|422:163|282:171,1,225
271,221,152778,6,0,P|274:255|301:295,2,75
163,78,153178,1,0,0:0:0:0:
136,71,153278,1,0,0:0:0:0:
14,161,153378,1,0,0:0:0:0:
88,140,153478,1,0,0:0:0:0:
131,230,153578,2,0,B|141:285|82:324|27:296|25:261|25:261|23:229|57:222|59:231,1,225
214,195,153978,6,0,B|234:205|259:207|259:207|137:228,1,150
400,190,154378,6,0,P|417:218|421:271,1,75
395,346,154578,1,0,0:0:0:0:
281,106,154778,1,0,0:0:0:0:
323,40,154878,1,0,0:0:0:0:
401,44,154978,1,0,0:0:0:0:
283,281,155178,6,0,B|263:271|237:268|237:268|360:248,1,150
138,151,155578,6,0,P|110:132|85:97,1,75
76,15,155778,1,0,0:0:0:0:
294,189,155978,1,0,0:0:0:0:
282,263,156078,1,0,0:0:0:0:
215,298,156178,1,0,0:0:0:0:
55,281,156378,6,0,L|49:363,1,75
82,262,156578,1,0,0:0:0:0:
16,216,156678,1,0,0:0:0:0:
120,179,156778,1,0,0:0:0:0:
4,188,156878,1,0,0:0:0:0:
4,188,157178,6,0,B|13:74|119:43|203:93|203:93|217:142|217:142|272:187|357:168,1,450
424,75,157578,6,0,L|419:147,1,60
495,192,157778,1,0,0:0:0:0:
410,216,157878,1,0,0:0:0:0:
512,227,157978,1,0,0:0:0:0:
377,196,158078,1,0,0:0:0:0:
377,196,158378,6,0,P|193:174|321:328,1,450
361,373,158778,2,0,L|365:314,1,60
377,196,158978,1,0,0:0:0:0:
150,359,159178,5,0,0:0:0:0:
113,190,159278,1,0,0:0:0:0:
281,234,159378,1,0,0:0:0:0:
493,196,159578,6,0,L|489:137,1,60
478,25,159778,1,0,0:0:0:0:
281,234,159978,5,0,0:0:0:0:
194,148,160078,1,0,0:0:0:0:
311,113,160178,1,0,0:0:0:0:
406,378,160378,5,0,0:0:0:0:
459,329,160478,1,0,0:0:0:0:
459,256,160578,1,0,0:0:0:0:
399,215,160678,1,0,0:0:0:0:
329,232,160778,1,0,0:0:0:0:
258,215,160878,1,0,0:0:0:0:
214,156,160978,1,0,0:0:0:0:
220,84,161078,1,0,0:0:0:0:
272,34,161178,2,0,L|350:11,2,60
88,209,161578,5,0,0:0:0:0:
72,204,161678,1,0,0:0:0:0:
101,201,161778,1,0,0:0:0:0:
88,225,161878,1,0,0:0:0:0:
88,209,161978,2,0,B|38:161|104:113|114:54|114:54|134:110|232:137|163:202|193:227,1,360
350,325,162378,5,0,0:0:0:0:
397,320,162478,1,0,0:0:0:0:
435,291,162578,1,0,0:0:0:0:
454,247,162678,1,0,0:0:0:0:
403,56,162778,5,0,0:0:0:0:
339,90,162878,1,0,0:0:0:0:
325,163,162978,1,0,0:0:0:0:
360,231,163078,1,0,0:0:0:0:
433,251,163178,2,0,B|331:122|271:321|111:213|151:111,1,360
292,9,163578,6,0,P|296:46|276:100,1,60
234,140,163778,1,0,0:0:0:0:
36,71,163978,2,0,P|74:77|126:65,1,60
210,42,164178,1,0,0:0:0:0:
111,194,164378,6,0,P|76:207|37:244,1,60
9,291,164578,1,0,0:0:0:0:
229,337,164778,2,0,P|217:302|213:259,1,60
234,140,164978,1,0,0:0:0:0:
87,357,165178,6,0,L|155:334,1,60
297,279,165378,1,0,0:0:0:0:
458,220,165578,2,0,L|390:197,1,60
234,140,165778,1,0,0:0:0:0:
419,58,165978,2,0,L|405:142,1,60
329,171,166178,2,0,L|316:246,1,60
357,384,166378,2,0,L|376:269,1,60
316,152,166578,2,0,L|303:227,1,60
472,247,166778,2,0,B|430:182|328:162|244:248|244:248|179:316|113:314|67:273,1,450
6,152,167178,6,0,P|41:155|85:176,1,60
139,211,167378,1,0,0:0:0:0:
91,340,167578,2,0,P|82:311|77:281,1,60
168,58,167778,2,0,P|179:97|179:154,1,60
139,211,167978,2,0,B|141:143|241:100|311:141|335:208|312:277|312:277|267:282|239:235|239:235|259:215|288:209,1,450
406,227,168378,6,0,B|459:240|479:283|479:283|340:271|422:408|237:372|199:312,1,412.5
163,237,170778,5,0,0:0:0:0:
87,253,171044,1,0,0:0:0:0:
163,237,171311,1,0,0:0:0:0:
87,253,171578,2,0,B|89:330|148:363|148:363|132:311|158:254|219:233|219:233|254:183|241:133,1,393.75
153,39,173978,5,0,0:0:0:0:
160,120,174244,1,0,0:0:0:0:
153,39,174511,1,0,0:0:0:0:
86,90,174778,6,0,B|55:99|32:142|48:190|101:217|154:200|168:156|159:120|159:120|240:168|311:125,1,400
351,53,177178,5,0,0:0:0:0:
266,52,177444,1,0,0:0:0:0:
309,126,177711,1,0,0:0:0:0:
351,53,177978,6,0,B|275:24|218:78|226:140|226:140|233:190|188:225|142:217|110:180|106:132|144:106,1,412.5
309,126,180378,2,0,B|336:141|353:165|353:165|328:188|293:198,1,112.5
256,192,181178,12,0,184178,0:0:0:0:
256,192,184378,12,0,185978,0:0:0:0:
317,186,186178,5,0,0:0:0:0:
274,253,186378,1,0,0:0:0:0:
300,329,186578,1,0,0:0:0:0:
494,277,186778,1,0,0:0:0:0:
419,254,186978,1,0,0:0:0:0:
282,346,187178,1,0,0:0:0:0:
324,211,187378,1,0,0:0:0:0:
403,277,187578,2,0,P|316:309|229:257,1,187.5
48,113,188778,5,0,0:0:0:0:
119,158,188978,2,0,L|122:200,1,37.5
0,326,189378,2,0,L|5:275,1,37.5
177,253,189778,2,0,P|111:274|73:258,1,112.5
84,109,190578,1,0,0:0:0:0:
4,146,190778,2,0,B|-7:288|-7:288|23:324,1,187.5
206,365,191978,1,0,0:0:0:0:
274,316,192178,6,0,B|276:256|251:201|251:201|209:195,1,150
152,248,193178,1,0,0:0:0:0:
72,214,193378,2,0,B|51:194|51:194|57:164|68:142,1,75
68,63,193978,6,0,B|20:65|33:121|80:160|121:133|146:97|152:59|133:26|133:26|189:49|189:49|203:150|203:150|236:150|267:116|267:116|283:200|283:200|316:245|404:244|427:196|427:196|440:130|440:130|430:78|369:68|369:68|353:159,1,975
317,336,196778,1,0,0:0:0:0:
176,199,196978,2,0,P|224:225|243:296,1,112.5
258,261,197378,2,0,P|199:187|198:368,1,450
435,252,198778,5,0,0:0:0:0:
339,269,198978,1,0,0:0:0:0:
245,287,199178,1,0,0:0:0:0:
147,305,199378,1,0,0:0:0:0:
140,325,199578,1,0,0:0:0:0:
191,114,199778,1,0,0:0:0:0:
115,192,199978,2,0,P|75:199|15:169,1,75
229,295,200378,6,0,P|269:302|329:272,1,75
379,182,200778,1,0,0:0:0:0:
379,182,200978,1,0,0:0:0:0:
415,338,201178,6,0,P|384:311|369:245,1,75
379,182,201578,1,0,0:0:0:0:
379,182,201778,1,0,0:0:0:0:
268,124,201978,6,0,P|228:117|168:147,1,75
125,194,202378,1,0,0:0:0:0:
125,194,202578,1,0,0:0:0:0:
58,50,202778,6,0,P|93:69|121:130,1,75
125,194,203178,1,0,0:0:0:0:
125,194,203378,1,0,0:0:0:0:
33,343,203578,6,0,P|54:308|117:284,1,75
180,283,203978,1,0,0:0:0:0:
180,283,204178,1,0,0:0:0:0:
279,354,204378,6,0,P|319:361|379:331,1,75
422,284,204778,1,0,0:0:0:0:
422,284,204978,1,0,0:0:0:0:
323,121,205178,6,0,P|363:114|423:144,1,75
273,271,205578,2,0,P|312:261|354:209,1,75
203,54,205978,2,0,P|229:128|162:190,1,150
18,83,206578,1,0,0:0:0:0:
377,22,206778,5,0,0:0:0:0:
20,328,207178,6,0,L|90:266,1,75
377,22,207578,5,0,0:0:0:0:
285,63,207778,1,0,0:0:0:0:
462,167,207978,2,0,L|459:83,1,75
441,357,208378,5,0,0:0:0:0:
412,249,208578,1,0,0:0:0:0:
303,382,208778,2,0,P|345:358|370:317,1,75
451,32,209178,6,0,L|333:15,1,112.5
290,29,209578,2,0,L|401:45,1,112.5
443,119,209978,6,0,P|415:195|337:233,1,150
254,233,210578,2,0,L|264:123,1,75
178,271,210978,2,0,L|172:346,1,75
116,213,211378,1,0,0:0:0:0:
474,264,211578,5,0,0:0:0:0:
96,341,211778,5,0,0:0:0:0:
420,361,211978,5,0,0:0:0:0:
298,56,212178,5,0,0:0:0:0:
260,293,212378,1,0,0:0:0:0:
312,295,212478,1,0,0:0:0:0:
361,276,212578,1,0,0:0:0:0:
390,232,212678,1,0,0:0:0:0:
393,179,212778,5,0,0:0:0:0:
294,167,212878,1,0,0:0:0:0:
196,158,212978,1,0,0:0:0:0:
74,259,213178,6,0,L|-13:252,1,75
302,61,213578,1,0,0:0:0:0:
98,242,213778,1,0,0:0:0:0:
295,337,213978,6,0,L|376:345,1,75
195,110,214378,1,0,0:0:0:0:
211,285,214578,1,0,0:0:0:0:
301,37,214778,2,0,L|289:133,1,75
68,332,215178,2,0,L|90:260,1,75
336,152,215578,6,0,P|392:148|437:179,1,112.5
431,202,215978,2,0,P|375:205|330:174,1,112.5
222,184,216378,2,0,L|237:79,1,75
352,369,216778,1,0,0:0:0:0:
307,74,216979,6,0,L|297:0,1,75
241,259,217378,2,0,L|324:249,1,75
465,226,217778,1,0,0:0:0:0:
41,292,217978,5,0,0:0:0:0:
227,67,218178,1,0,0:0:0:0:
259,358,218378,1,0,0:0:0:0:
259,358,218578,1,0,0:0:0:0:
145,232,218778,2,0,P|129:195|137:142,1,75
143,145,219178,2,0,P|158:181|151:235,1,75
55,85,219578,6,0,P|136:45|240:103,1,202.499993820191
247,188,219978,1,0,0:0:0:0:
285,30,220178,1,0,0:0:0:0:
315,269,220378,2,0,B|365:331|365:331|418:273|418:273|429:250|426:222,1,202.499993820191
399,148,220778,1,0,0:0:0:0:
451,355,220978,1,0,0:0:0:0:
500,182,221178,2,0,P|481:82|381:37,1,202.499993820191
301,62,221578,1,0,0:0:0:0:
512,96,221778,1,0,0:0:0:0:
243,176,221978,6,0,B|144:170|144:170|93:106|157:29,1,202.499993820191
205,109,222378,2,0,P|220:197|181:256,1,134.999995880127
21,318,222778,6,0,B|67:272|130:282|130:282|161:325|231:314,1,202.499993820191
295,288,223178,1,0,0:0:0:0:
132,169,223378,1,0,0:0:0:0:
338,69,223578,2,0,B|409:81|409:81|385:167|308:147,1,202.499993820191
232,116,223978,1,0,0:0:0:0:
465,153,224178,1,0,0:0:0:0:
295,288,224378,2,0,B|372:322|416:254|416:254|384:179,1,202.499993820191
356,117,224778,1,0,0:0:0:0:
456,334,224978,1,0,0:0:0:0:
250,196,225178,6,0,B|163:172|150:287|48:248,1,202.499993820191
16,188,225578,2,0,P|91:127|151:133,1,134.999995880127
325,247,225978,6,0,B|294:311|294:311|227:258|255:174,1,202.499993820191
279,117,226378,1,0,0:0:0:0:
364,338,226578,1,0,0:0:0:0:
378,148,226778,2,0,B|418:95|487:117|487:117|510:165|488:210,1,202.499993820191
435,254,227178,1,0,0:0:0:0:
478,32,227378,1,0,0:0:0:0:
303,206,227578,6,0,P|223:219|143:106,1,202.499993820191
145,45,227978,1,0,0:0:0:0:
306,78,228178,1,0,0:0:0:0:
58,196,228378,2,0,B|14:276|88:332|88:332|191:339,1,202.499993820191
221,275,228778,2,0,B|306:279|306:279|323:308|355:324,1,134.999995880127
415,154,229178,6,0,P|477:208|435:319,1,202.499993820191
393,241,229578,1,0,0:0:0:0:
440,68,229778,1,0,0:0:0:0:
282,175,229978,2,0,P|176:163|127:102,1,134.999995880127
93,53,230378,2,0,P|175:40|231:76,1,134.999995880127
440,195,230778,2,0,P|459:121|434:60,1,134.999995880127
320,220,231178,2,0,P|359:292|427:314,1,134.999995880127
500,310,231578,1,0,0:0:0:0:
281,137,231978,5,0,0:0:0:0:
281,137,232178,1,0,0:0:0:0:
164,61,232378,6,0,L|137:148,1,75
116,207,232778,1,0,0:0:0:0:
164,61,232978,2,0,L|147:108,1,37.5
154,282,233378,2,0,P|191:247|196:196,1,75
164,61,233778,2,0,P|127:96|122:147,1,75
51,244,234178,2,0,L|122:203,1,75
318,72,234578,5,0,0:0:0:0:
282,323,234778,2,0,P|331:266|305:203,1,150
245,162,235378,1,0,0:0:0:0:
215,96,235478,1,0,0:0:0:0:
249,33,235578,2,0,P|320:36|373:83,1,140.625
393,171,235978,2,0,L|337:183,1,56.2500021457673
255,265,236178,6,0,P|273:233|308:223,1,75
488,230,236579,2,0,P|469:261|434:272,1,75
343,303,236978,2,0,L|376:228,1,75
471,21,237378,6,0,P|464:14|460:10|457:7|453:3|450:0|447:-2|443:-6|440:-9|436:-13|433:-16|429:-20|426:-23|423:-26|434:15|429:51,1,75
471,21,237578,2,0,P|434:46|399:54,1,75
345,248,237778,2,0,B|338:241|334:237|331:234|327:230|324:227|321:224|317:220|314:217|310:213|307:210|303:206|300:203|297:200|335:196|350:147,1,75
345,248,237978,2,0,B|305:222|310:167,1,75
152,58,238178,6,0,P|131:37|121:27|110:16|100:6|90:-3|80:-13|69:-24|59:-34|49:-44|38:-55|28:-65|18:-75|8:-85|-14:-42|-9:4,1,75
152,58,238378,2,0,P|138:44|131:37|124:30|117:23|110:16|104:10|97:3|90:-3|83:-10|76:-17|69:-24|62:-31|56:-37|96:-6|146:2,1,75
152,58,238578,2,0,P|145:51|141:47|138:44|134:40|131:37|128:34|124:30|121:27|117:23|114:20|110:16|107:13|104:10|143:-17|168:-46,1,75
152,58,238778,6,0,P|85:74|55:126,1,112.500004291535
58,174,238978,1,0,0:0:0:0:
94,230,239078,2,0,P|135:241|178:234,1,75
255,84,239478,1,0,0:0:0:0:
255,84,239678,1,0,0:0:0:0:
424,89,239878,1,0,0:0:0:0:
417,156,239978,2,0,P|385:184|343:196,1,75
255,84,240378,5,0,0:0:0:0:
157,184,240578,1,0,0:0:0:0:
94,230,240678,2,0,P|123:253|160:261,1,75
255,84,241078,1,0,0:0:0:0:
255,84,241278,1,0,0:0:0:0:
349,229,241478,1,0,0:0:0:0:
392,295,241578,2,0,P|354:306|319:302,1,75
84,256,241978,5,0,0:0:0:0:
140,59,242178,1,0,0:0:0:0:
194,60,242278,2,0,P|224:90|236:128,1,75
84,256,242678,1,0,0:0:0:0:
84,256,242878,1,0,0:0:0:0:
182,110,243078,1,0,0:0:0:0:
235,120,243178,2,0,P|259:155|265:194,1,75
291,356,243578,5,0,0:0:0:0:
448,228,243778,1,0,0:0:0:0:
453,175,243878,2,0,P|412:130|367:123,1,75
291,356,244278,1,0,0:0:0:0:
291,356,244478,1,0,0:0:0:0:
332,194,244678,1,0,0:0:0:0:
311,145,244778,2,0,P|270:133|239:107,2,75
256,192,245178,12,0,248178,0:0:0:0:
224,144,341178,6,0,B|201:241|226:286|266:318|266:318|274:270|266:222|170:158|170:158,1,382.500007295609
304,104,342778,1,0,0:0:0:0:
408,72,343178,1,0,0:0:0:0:
408,72,343578,1,0,0:0:0:0:
272,56,343778,1,0,0:0:0:0:
128,88,343978,2,0,P|144:120|176:144,1,63.7500012159348
312,208,344378,6,0,P|296:256|296:208,2,127.50000243187
152,288,345578,1,0,0:0:0:0:
128,160,345978,5,0,0:0:0:0:
256,232,346178,1,0,0:0:0:0:
392,240,346378,2,0,B|384:208|384:208|400:168|440:128,1,127.50000243187
504,64,347178,5,0,0:0:0:0:
448,224,347378,6,0,B|448:192|448:192|480:152,1,69.3749997353554
360,256,347578,2,0,B|348:227|348:227|288:200,1,73.1250002789497
480,336,347778,2,0,B|456:304|456:304|392:288,3,76.8750011730194
272,328,348178,2,0,L|272:312,1,11.2499996566773
128,248,348378,2,0,L|136:232,1,11.2499996566773
136,56,348578,2,0,L|152:56,1,11.2499996566773
112,160,348778,2,0,L|128:152,1,11.2499996566773
216,272,348978,2,0,L|224:264,2,11.2499996566773
160,320,349244,5,0,0:0:0:0:
174,334,349310,1,0,0:0:0:0:
172,355,349377,1,0,0:0:0:0:
155,366,349444,1,0,0:0:0:0:
135,360,349510,1,0,0:0:0:0:
128,344,349578,2,0,B|120:304|104:280|104:280|160:304|208:296|208:296|240:344|312:344|312:344|352:384|408:384|448:376|488:336,1,487.499977684022
392,272,350778,5,0,0:0:0:0:
432,168,350978,1,0,0:0:0:0:
288,256,351178,1,0,0:0:0:0:
296,112,351378,1,0,0:0:0:0:
168,208,351578,1,0,0:0:0:0:
120,48,351778,1,0,0:0:0:0:
40,224,351978,1,0,0:0:0:0:
236,227,352378,5,0,0:0:0:0:
108,192,352578,1,0,0:0:0:0:
236,249,352778,1,0,0:0:0:0:
200,113,352978,1,0,0:0:0:0:
229,263,353178,1,0,0:0:0:0:
322,120,353378,1,0,0:0:0:0:
415,270,353578,1,0,0:0:0:0:
279,292,353978,5,0,0:0:0:0:
195,315,354178,1,0,0:0:0:0:
165,156,354378,1,0,0:0:0:0:
250,175,354578,1,0,0:0:0:0:
88,264,354778,1,0,0:0:0:0:
304,256,354978,1,0,0:0:0:0:
165,156,355178,1,0,0:0:0:0:
379,113,355578,5,0,0:0:0:0:
250,170,355778,1,0,0:0:0:0:
386,92,355978,1,0,0:0:0:0:
293,277,356178,1,0,0:0:0:0:
379,63,356378,1,0,0:0:0:0:
272,177,356578,1,0,0:0:0:0:
358,35,356778,1,0,0:0:0:0:
358,35,357178,5,0,0:0:0:0:
272,56,357378,1,0,0:0:0:0:
456,136,357578,2,0,B|344:248|232:40|112:192,1,350.625006687641
272,128,358778,5,0,0:0:0:0:
416,304,358978,1,0,0:0:0:0:
416,304,359178,1,0,0:0:0:0:
304,104,359378,1,0,0:0:0:0:
80,224,359578,1,0,0:0:0:0:
80,224,359778,1,0,0:0:0:0:
408,184,359978,2,0,L|432:176,1,14.0625005364418
