osu file format v14

[General]
AudioFilename: audio.mp3
AudioLeadIn: 0
PreviewTime: 151108
Countdown: 1
SampleSet: Normal
StackLeniency: 0.7
Mode: 1
LetterboxInBreaks: 0
WidescreenStoryboard: 0

[Editor]
Bookmarks: 24539,315425
DistanceSpacing: 0.8
BeatDivisor: 8
GridSize: 8
TimelineZoom: 4.499997

[Metadata]
Title:The Way it Ends
TitleUnicode:The Way it Ends
Artist:Prototype
ArtistUnicode:Prototype
Creator:Dytrus
Version:Relentless Oni
Source:Guitar Hero 3
Tags:gh3 prototype taiko thrash metal continuum
BeatmapID:1776668
BeatmapSetID:849663

[Difficulty]
HPDrainRate:6
CircleSize:5
OverallDifficulty:6
ApproachRate:8
SliderMultiplier:1.4
SliderTickRate:1

[Events]
//Background and Video events
0,0,"Oscuro Gotico Leon Aldaba.jpg",0,0
//Break Periods
2,34033,38154
2,250385,253678
//Storyboard Layer 0 (Background)
//Storyboard Layer 1 (Fail)
//Storyboard Layer 2 (Pass)
//Storyboard Layer 3 (Foreground)
//Storyboard Sound Samples

[TimingPoints]
279,319.216854649925,4,1,0,15,1,8
1755,-86.9565217391304,4,1,0,15,0,8
4668,-76.9230769230769,4,1,0,15,0,8
24499,-66.6666666666667,4,1,0,15,0,8
49159,-100,4,1,0,15,0,8
50316,-66.6666666666667,4,1,0,15,0,8
65558,-100,4,1,0,15,0,9
86307,-100,4,1,0,15,0,8
170261,-66.6666666666667,4,1,0,15,0,8
177385,-142.857142857143,4,1,0,15,0,0
198691,-71.4285714285714,4,2,0,15,0,0
281934,-71.4285714285714,4,2,0,15,0,1
300076,-71.4285714285714,4,2,0,15,0,0

[HitObjects]
256,192,279,6,0,L|312:192,17,35
256,192,1821,1,4,3:0:0:0:
256,192,2154,1,8,0:0:0:0:
256,192,2234,1,0,0:0:0:0:
256,192,2314,1,0,0:0:0:0:
256,192,2394,1,8,0:0:0:0:
256,192,2473,1,8,0:0:0:0:
256,192,2553,1,0,0:0:0:0:
256,192,2633,1,0,0:0:0:0:
256,192,2713,1,8,0:0:0:0:
256,192,2872,1,8,0:0:0:0:
256,192,2952,1,0,0:0:0:0:
256,192,3032,1,8,0:0:0:0:
256,192,3191,1,8,0:0:0:0:
256,192,3271,1,0,0:0:0:0:
256,192,3351,1,0,0:0:0:0:
256,192,3431,1,0,0:0:0:0:
256,192,3590,1,8,0:0:0:0:
256,192,3750,1,0,0:0:0:0:
256,192,3830,1,8,0:0:0:0:
256,192,3909,1,8,0:0:0:0:
256,192,4069,1,8,0:0:0:0:
256,192,4149,1,0,0:0:0:0:
256,192,4229,1,8,0:0:0:0:
256,192,4309,1,8,0:0:0:0:
256,192,4388,1,8,0:0:0:0:
256,192,4468,1,8,0:0:0:0:
256,192,4548,1,0,0:0:0:0:
256,192,4748,5,12,0:0:0:0:
256,192,6423,5,0,0:0:0:0:
256,192,6583,1,8,0:0:0:0:
256,192,7142,1,8,0:0:0:0:
256,192,7301,1,0,0:0:0:0:
256,192,7700,5,12,0:0:0:0:
256,192,10493,5,4,0:0:0:0:
256,192,11930,5,12,0:0:0:0:
256,192,13366,5,0,0:0:0:0:
256,192,16160,5,12,0:0:0:0:
256,192,17756,5,0,0:0:0:0:
256,192,17942,1,12,0:0:0:0:
256,192,18474,1,8,0:0:0:0:
256,192,18687,1,0,0:0:0:0:
256,192,19059,5,12,0:0:0:0:
256,192,19272,1,0,0:0:0:0:
256,192,19352,1,0,0:0:0:0:
256,192,19432,1,8,0:0:0:0:
256,192,19511,1,8,0:0:0:0:
256,192,19591,1,0,0:0:0:0:
256,192,19671,1,0,0:0:0:0:
256,192,19751,1,8,0:0:0:0:
256,192,19830,1,8,0:0:0:0:
256,192,19910,1,8,0:0:0:0:
256,192,20283,1,8,0:0:0:0:
256,192,20336,1,8,0:0:0:0:
256,192,20389,1,8,0:0:0:0:
256,192,20443,1,0,0:0:0:0:
256,192,20788,1,8,0:0:0:0:
256,192,20868,1,0,0:0:0:0:
256,192,20948,1,8,0:0:0:0:
256,192,21028,1,0,0:0:0:0:
256,192,21108,1,8,0:0:0:0:
256,192,21267,1,8,0:0:0:0:
256,192,21864,5,8,0:0:0:0:
256,192,22342,1,12,0:0:0:0:
256,192,22661,1,0,0:0:0:0:
256,192,22821,1,8,0:0:0:0:
256,192,23140,1,8,0:0:0:0:
256,192,23300,1,8,0:0:0:0:
256,192,23380,1,8,0:0:0:0:
256,192,23459,1,0,0:0:0:0:
256,192,23619,1,8,0:0:0:0:
256,192,24178,1,0,0:0:0:0:
256,192,24539,5,8,0:0:0:0:
256,192,24778,5,0,0:0:0:0:
256,192,24858,1,0,0:0:0:0:
256,192,24937,1,0,0:0:0:0:
256,192,25017,1,0,0:0:0:0:
256,192,25098,1,8,0:0:0:0:
256,192,25257,5,0,0:0:0:0:
256,192,25337,1,0,0:0:0:0:
256,192,25416,1,0,0:0:0:0:
256,192,25496,1,0,0:0:0:0:
256,192,25577,1,8,0:0:0:0:
256,192,25736,1,0,0:0:0:0:
256,192,25816,1,0,0:0:0:0:
256,192,25896,1,8,0:0:0:0:
256,192,26055,5,0,0:0:0:0:
256,192,26135,1,0,0:0:0:0:
256,192,26214,1,0,0:0:0:0:
256,192,26294,1,0,0:0:0:0:
256,192,26375,1,8,0:0:0:0:
256,192,26534,5,0,0:0:0:0:
256,192,26614,1,0,0:0:0:0:
256,192,26693,1,0,0:0:0:0:
256,192,26773,1,0,0:0:0:0:
256,192,26854,1,8,0:0:0:0:
256,192,27013,1,0,0:0:0:0:
256,192,27093,1,0,0:0:0:0:
256,192,27173,1,8,0:0:0:0:
256,192,27332,5,0,0:0:0:0:
256,192,27412,1,0,0:0:0:0:
256,192,27491,1,0,0:0:0:0:
256,192,27571,1,0,0:0:0:0:
256,192,27652,1,8,0:0:0:0:
256,192,27811,5,0,0:0:0:0:
256,192,27891,1,0,0:0:0:0:
256,192,27970,1,0,0:0:0:0:
256,192,28050,1,0,0:0:0:0:
256,192,28131,1,8,0:0:0:0:
256,192,28290,1,0,0:0:0:0:
256,192,28370,1,0,0:0:0:0:
256,192,28450,1,8,0:0:0:0:
256,192,28636,5,12,0:0:0:0:
256,192,28795,1,12,0:0:0:0:
256,192,28968,1,0,0:0:0:0:
256,192,29048,1,0,0:0:0:0:
256,192,29128,1,0,0:0:0:0:
256,192,29287,1,12,0:0:0:0:
256,192,29447,1,12,0:0:0:0:
256,192,29843,1,8,0:0:0:0:
256,192,30003,1,0,0:0:0:0:
256,192,30082,1,0,0:0:0:0:
256,192,30162,1,8,0:0:0:0:
256,192,30242,1,8,0:0:0:0:
256,192,30322,1,8,0:0:0:0:
256,192,30721,1,0,0:0:0:0:
256,192,30880,1,8,0:0:0:0:
256,192,31040,1,0,0:0:0:0:
256,192,31120,1,0,0:0:0:0:
256,192,31200,1,8,0:0:0:0:
256,192,31279,1,8,0:0:0:0:
256,192,31359,1,0,0:0:0:0:
256,192,31439,1,0,0:0:0:0:
256,192,31599,1,8,0:0:0:0:
256,192,31918,1,8,0:0:0:0:
256,192,31998,1,8,0:0:0:0:
256,192,32077,1,0,0:0:0:0:
256,192,32157,1,0,0:0:0:0:
256,192,32237,1,0,0:0:0:0:
256,192,32317,1,0,0:0:0:0:
256,192,32397,1,8,0:0:0:0:
256,192,32875,1,0,0:0:0:0:
256,192,33195,1,8,0:0:0:0:
256,192,33354,1,0,0:0:0:0:
256,192,33673,1,0,0:0:0:0:
256,192,33833,1,0,0:0:0:0:
256,192,38904,5,12,0:0:0:0:
256,192,39063,1,12,0:0:0:0:
256,192,39236,1,0,0:0:0:0:
256,192,39316,1,0,0:0:0:0:
256,192,39396,1,0,0:0:0:0:
256,192,39555,1,12,0:0:0:0:
256,192,39715,1,12,0:0:0:0:
256,192,39861,1,0,0:0:0:0:
256,192,39941,1,0,0:0:0:0:
256,192,40021,1,8,0:0:0:0:
256,192,40181,5,0,0:0:0:0:
256,192,40261,1,0,0:0:0:0:
256,192,40341,1,0,0:0:0:0:
256,192,40420,1,0,0:0:0:0:
256,192,40500,1,0,0:0:0:0:
256,192,40580,1,8,0:0:0:0:
256,192,40739,1,0,0:0:0:0:
256,192,40819,1,0,0:0:0:0:
256,192,40899,1,0,0:0:0:0:
256,192,40978,1,0,0:0:0:0:
256,192,41058,1,0,0:0:0:0:
256,192,41138,1,8,0:0:0:0:
256,192,41298,1,0,0:0:0:0:
256,192,41378,1,0,0:0:0:0:
256,192,41458,1,8,0:0:0:0:
256,192,41617,1,0,0:0:0:0:
256,192,41697,1,0,0:0:0:0:
256,192,41777,1,0,0:0:0:0:
256,192,41856,1,0,0:0:0:0:
256,192,41936,1,0,0:0:0:0:
256,192,42016,1,8,0:0:0:0:
256,192,42175,1,0,0:0:0:0:
256,192,42255,1,0,0:0:0:0:
256,192,42335,1,8,0:0:0:0:
256,192,42414,1,8,0:0:0:0:
256,192,42495,1,8,0:0:0:0:
256,192,42574,1,8,0:0:0:0:
256,192,42655,1,4,0:0:0:0:
256,192,42814,5,0,0:0:0:0:
256,192,42894,1,0,0:0:0:0:
256,192,42974,1,8,0:0:0:0:
256,192,43134,5,0,0:0:0:0:
256,192,43214,1,0,0:0:0:0:
256,192,43294,1,0,0:0:0:0:
256,192,43373,1,0,0:0:0:0:
256,192,43453,1,0,0:0:0:0:
256,192,43533,1,8,0:0:0:0:
256,192,43692,5,0,0:0:0:0:
256,192,43772,1,0,0:0:0:0:
256,192,43852,1,12,0:0:0:0:
256,192,43931,1,0,0:0:0:0:
256,192,44011,1,0,0:0:0:0:
256,192,44091,1,8,0:0:0:0:
256,192,44171,1,0,0:0:0:0:
256,192,44251,1,8,0:0:0:0:
256,192,44330,1,0,0:0:0:0:
256,192,44410,1,8,0:0:0:0:
256,192,44450,1,8,0:0:0:0:
256,192,44490,1,0,0:0:0:0:
256,192,44570,1,8,0:0:0:0:
256,192,44649,1,0,0:0:0:0:
256,192,44690,1,0,0:0:0:0:
256,192,44729,1,0,0:0:0:0:
256,192,44809,1,8,0:0:0:0:
256,192,44889,1,8,0:0:0:0:
256,192,44969,1,0,0:0:0:0:
256,192,45164,5,12,0:0:0:0:
256,192,45323,1,0,0:0:0:0:
256,192,45403,1,0,0:0:0:0:
256,192,45483,1,8,0:0:0:0:
256,192,45643,1,8,0:0:0:0:
256,192,45802,1,0,0:0:0:0:
256,192,45962,1,0,0:0:0:0:
256,192,46042,1,8,0:0:0:0:
256,192,46121,1,8,0:0:0:0:
256,192,46201,1,8,0:0:0:0:
256,192,46281,1,8,0:0:0:0:
256,192,46361,1,8,0:0:0:0:
256,192,46520,1,0,0:0:0:0:
256,192,46680,1,0,0:0:0:0:
256,192,46760,1,0,0:0:0:0:
256,192,46840,1,8,0:0:0:0:
256,192,46999,1,0,0:0:0:0:
256,192,47079,1,0,0:0:0:0:
256,192,47159,1,0,0:0:0:0:
256,192,47318,1,8,0:0:0:0:
256,192,47398,1,8,0:0:0:0:
256,192,47478,1,8,0:0:0:0:
256,192,47558,1,8,0:0:0:0:
256,192,47638,1,0,0:0:0:0:
256,192,47717,1,0,0:0:0:0:
256,192,47797,1,8,0:0:0:0:
256,192,47877,1,8,0:0:0:0:
256,192,47957,1,0,0:0:0:0:
256,192,48037,1,0,0:0:0:0:
256,192,48116,1,0,0:0:0:0:
256,192,48196,1,8,0:0:0:0:
256,192,48276,1,0,0:0:0:0:
256,192,48356,1,0,0:0:0:0:
256,192,48436,1,0,0:0:0:0:
256,192,48515,1,0,0:0:0:0:
256,192,48595,1,0,0:0:0:0:
256,192,48675,1,0,0:0:0:0:
256,192,48755,1,8,0:0:0:0:
256,192,48834,1,0,0:0:0:0:
256,192,48914,1,0,0:0:0:0:
256,192,49198,5,12,0:0:0:0:
256,192,49331,1,12,0:0:0:0:
256,192,49518,1,8,0:0:0:0:
256,192,49697,1,0,0:0:0:0:
256,192,49864,1,12,0:0:0:0:
256,192,49997,1,12,0:0:0:0:
256,192,50176,1,0,0:0:0:0:
256,192,50356,5,8,0:0:0:0:
256,192,50435,1,0,0:0:0:0:
256,192,50590,1,8,0:0:0:0:
256,192,50670,1,8,0:0:0:0:
256,192,50750,1,0,0:0:0:0:
256,192,50829,1,0,0:0:0:0:
256,192,50909,1,0,0:0:0:0:
256,192,50989,1,0,0:0:0:0:
256,192,51069,1,0,0:0:0:0:
256,192,51149,1,0,0:0:0:0:
256,192,51228,1,0,0:0:0:0:
256,192,51308,1,0,0:0:0:0:
256,192,51388,1,0,0:0:0:0:
256,192,51468,1,0,0:0:0:0:
256,192,51548,1,0,0:0:0:0:
256,192,51627,1,0,0:0:0:0:
256,192,51707,1,0,0:0:0:0:
256,192,51787,1,0,0:0:0:0:
256,192,51867,1,0,0:0:0:0:
256,192,51947,1,0,0:0:0:0:
256,192,52026,1,0,0:0:0:0:
256,192,52106,1,0,0:0:0:0:
256,192,52186,1,0,0:0:0:0:
256,192,52266,1,0,0:0:0:0:
256,192,52345,1,0,0:0:0:0:
256,192,52425,1,0,0:0:0:0:
256,192,52505,1,0,0:0:0:0:
256,192,52585,1,0,0:0:0:0:
256,192,52665,1,0,0:0:0:0:
256,192,52744,1,0,0:0:0:0:
256,192,52824,1,0,0:0:0:0:
256,192,52904,1,0,0:0:0:0:
256,192,52984,1,0,0:0:0:0:
256,192,53064,1,0,0:0:0:0:
256,192,53143,1,0,0:0:0:0:
256,192,53223,1,0,0:0:0:0:
256,192,53303,1,0,0:0:0:0:
256,192,53383,1,0,0:0:0:0:
256,192,53463,1,0,0:0:0:0:
256,192,53542,1,0,0:0:0:0:
256,192,53622,1,0,0:0:0:0:
256,192,53702,1,0,0:0:0:0:
256,192,53782,1,0,0:0:0:0:
256,192,53862,1,0,0:0:0:0:
256,192,53941,1,0,0:0:0:0:
256,192,54021,1,0,0:0:0:0:
256,192,54101,1,0,0:0:0:0:
256,192,54181,1,0,0:0:0:0:
256,192,54261,1,0,0:0:0:0:
256,192,54340,1,0,0:0:0:0:
256,192,54420,1,0,0:0:0:0:
256,192,54500,1,0,0:0:0:0:
256,192,54580,1,0,0:0:0:0:
256,192,54660,1,0,0:0:0:0:
256,192,54739,1,0,0:0:0:0:
256,192,54819,1,0,0:0:0:0:
256,192,54899,1,0,0:0:0:0:
256,192,54979,1,0,0:0:0:0:
256,192,55059,1,0,0:0:0:0:
256,192,55138,1,0,0:0:0:0:
256,192,55218,1,0,0:0:0:0:
256,192,55298,1,0,0:0:0:0:
256,192,55378,1,0,0:0:0:0:
256,192,55458,1,0,0:0:0:0:
256,192,55617,1,0,0:0:0:0:
256,192,55697,1,0,0:0:0:0:
256,192,55777,1,0,0:0:0:0:
256,192,55857,1,0,0:0:0:0:
256,192,55936,1,0,0:0:0:0:
256,192,56096,1,0,0:0:0:0:
256,192,56176,1,0,0:0:0:0:
256,192,56255,1,0,0:0:0:0:
256,192,56335,1,0,0:0:0:0:
256,192,56415,1,0,0:0:0:0:
256,192,56575,1,0,0:0:0:0:
256,192,56654,1,0,0:0:0:0:
256,192,56734,1,0,0:0:0:0:
256,192,56814,1,0,0:0:0:0:
256,192,56894,1,0,0:0:0:0:
256,192,57053,1,0,0:0:0:0:
256,192,57133,1,0,0:0:0:0:
256,192,57213,1,0,0:0:0:0:
256,192,57293,1,0,0:0:0:0:
256,192,57373,1,0,0:0:0:0:
256,192,57532,1,0,0:0:0:0:
256,192,57612,1,0,0:0:0:0:
256,192,57692,1,0,0:0:0:0:
256,192,57772,1,0,0:0:0:0:
256,192,57851,1,0,0:0:0:0:
256,192,58011,1,0,0:0:0:0:
256,192,58091,1,0,0:0:0:0:
256,192,58171,1,0,0:0:0:0:
256,192,58250,1,0,0:0:0:0:
256,192,58330,1,0,0:0:0:0:
256,192,58490,1,0,0:0:0:0:
256,192,58570,1,0,0:0:0:0:
256,192,58649,1,0,0:0:0:0:
256,192,58729,1,0,0:0:0:0:
256,192,58809,1,0,0:0:0:0:
256,192,58889,1,0,0:0:0:0:
256,192,59048,1,0,0:0:0:0:
256,192,59128,1,0,0:0:0:0:
256,192,59208,1,0,0:0:0:0:
256,192,59288,1,0,0:0:0:0:
256,192,59368,1,0,0:0:0:0:
256,192,59447,1,0,0:0:0:0:
256,192,59607,1,0,0:0:0:0:
256,192,59766,1,0,0:0:0:0:
256,192,59926,1,0,0:0:0:0:
256,192,60086,1,0,0:0:0:0:
256,192,60245,1,0,0:0:0:0:
256,192,60405,5,0,0:0:0:0:
256,192,60485,1,0,0:0:0:0:
256,192,60564,1,0,0:0:0:0:
256,192,60644,1,0,0:0:0:0:
256,192,60724,1,0,0:0:0:0:
256,192,60804,1,0,0:0:0:0:
256,192,60884,1,0,0:0:0:0:
256,192,60963,1,0,0:0:0:0:
256,192,61043,1,0,0:0:0:0:
256,192,61123,1,0,0:0:0:0:
256,192,61203,1,0,0:0:0:0:
256,192,61283,1,0,0:0:0:0:
256,192,61362,1,0,0:0:0:0:
256,192,61442,1,0,0:0:0:0:
256,192,61522,1,0,0:0:0:0:
256,192,61602,1,0,0:0:0:0:
256,192,61682,1,0,0:0:0:0:
256,192,61761,1,0,0:0:0:0:
256,192,61841,1,0,0:0:0:0:
256,192,61921,1,0,0:0:0:0:
256,192,62001,1,0,0:0:0:0:
256,192,62081,1,0,0:0:0:0:
256,192,62160,1,0,0:0:0:0:
256,192,62240,1,0,0:0:0:0:
256,192,62320,1,0,0:0:0:0:
256,192,62400,1,0,0:0:0:0:
256,192,62480,1,0,0:0:0:0:
256,192,62559,1,0,0:0:0:0:
256,192,62719,1,0,0:0:0:0:
256,192,62799,1,0,0:0:0:0:
256,192,62879,1,0,0:0:0:0:
256,192,62958,1,0,0:0:0:0:
256,192,63038,1,0,0:0:0:0:
256,192,63244,1,0,0:0:0:0:
256,192,63324,1,0,0:0:0:0:
256,192,63404,1,0,0:0:0:0:
256,192,63483,1,0,0:0:0:0:
256,192,63517,1,0,0:0:0:0:
256,192,63597,1,0,0:0:0:0:
256,192,63676,1,0,0:0:0:0:
256,192,63756,1,0,0:0:0:0:
256,192,63836,1,0,0:0:0:0:
256,192,63916,1,0,0:0:0:0:
256,192,63996,1,0,0:0:0:0:
256,192,64075,1,0,0:0:0:0:
256,192,64155,1,0,0:0:0:0:
256,192,64235,1,0,0:0:0:0:
256,192,64315,1,0,0:0:0:0:
256,192,64395,1,0,0:0:0:0:
256,192,64474,1,0,0:0:0:0:
256,192,64554,1,0,0:0:0:0:
256,192,64634,1,0,0:0:0:0:
256,192,64714,1,0,0:0:0:0:
256,192,64794,1,0,0:0:0:0:
256,192,64873,1,0,0:0:0:0:
256,192,64953,1,0,0:0:0:0:
256,192,65033,1,0,0:0:0:0:
256,192,65113,1,0,0:0:0:0:
256,192,65193,1,0,0:0:0:0:
256,192,65272,1,0,0:0:0:0:
256,192,65352,1,0,0:0:0:0:
256,192,65432,1,0,0:0:0:0:
256,192,65558,5,8,0:0:0:0:
256,192,65671,1,0,0:0:0:0:
256,192,65751,1,0,0:0:0:0:
256,192,65831,1,0,0:0:0:0:
256,192,65911,1,0,0:0:0:0:
256,192,66070,1,0,0:0:0:0:
256,192,66150,1,0,0:0:0:0:
256,192,66230,1,0,0:0:0:0:
256,192,66310,1,0,0:0:0:0:
256,192,66390,1,0,0:0:0:0:
256,192,66549,1,0,0:0:0:0:
256,192,66629,1,0,0:0:0:0:
256,192,66709,1,0,0:0:0:0:
256,192,66789,1,0,0:0:0:0:
256,192,66868,1,0,0:0:0:0:
256,192,66948,1,0,0:0:0:0:
256,192,67108,1,0,0:0:0:0:
256,192,67187,1,0,0:0:0:0:
256,192,67267,1,0,0:0:0:0:
256,192,67347,1,0,0:0:0:0:
256,192,67427,1,0,0:0:0:0:
256,192,67507,1,0,0:0:0:0:
256,192,67666,1,0,0:0:0:0:
256,192,67746,1,0,0:0:0:0:
256,192,67826,1,0,0:0:0:0:
256,192,67906,1,0,0:0:0:0:
256,192,67985,1,0,0:0:0:0:
256,192,68065,1,0,0:0:0:0:
256,192,68145,1,0,0:0:0:0:
256,192,68225,1,0,0:0:0:0:
256,192,68305,1,0,0:0:0:0:
256,192,68384,1,0,0:0:0:0:
256,192,68464,1,0,0:0:0:0:
256,192,68544,1,0,0:0:0:0:
256,192,68624,1,0,0:0:0:0:
256,192,68704,1,0,0:0:0:0:
256,192,68783,1,0,0:0:0:0:
256,192,68863,1,0,0:0:0:0:
256,192,68943,1,0,0:0:0:0:
256,192,69023,1,0,0:0:0:0:
256,192,69103,1,0,0:0:0:0:
256,192,69182,1,0,0:0:0:0:
256,192,69262,1,0,0:0:0:0:
256,192,69342,1,0,0:0:0:0:
256,192,69422,1,0,0:0:0:0:
256,192,69502,1,0,0:0:0:0:
256,192,69581,1,0,0:0:0:0:
256,192,69661,1,0,0:0:0:0:
256,192,69741,1,0,0:0:0:0:
256,192,69821,1,0,0:0:0:0:
256,192,69980,1,0,0:0:0:0:
256,192,70140,1,0,0:0:0:0:
256,192,70300,1,0,0:0:0:0:
256,192,70379,1,0,0:0:0:0:
256,192,70459,1,0,0:0:0:0:
256,192,70539,1,0,0:0:0:0:
256,192,70619,1,0,0:0:0:0:
256,192,70699,1,0,0:0:0:0:
256,192,70778,1,0,0:0:0:0:
256,192,70858,1,0,0:0:0:0:
256,192,70938,1,0,0:0:0:0:
256,192,71018,1,0,0:0:0:0:
256,192,71097,1,0,0:0:0:0:
256,192,71177,1,0,0:0:0:0:
256,192,71257,1,0,0:0:0:0:
256,192,71337,1,0,0:0:0:0:
256,192,71417,1,0,0:0:0:0:
256,192,71496,1,0,0:0:0:0:
256,192,71576,1,0,0:0:0:0:
256,192,71656,1,0,0:0:0:0:
256,192,71736,1,0,0:0:0:0:
256,192,71816,1,0,0:0:0:0:
256,192,71895,1,0,0:0:0:0:
256,192,71975,1,0,0:0:0:0:
256,192,72055,1,0,0:0:0:0:
256,192,72135,1,0,0:0:0:0:
256,192,72215,1,0,0:0:0:0:
256,192,72294,1,0,0:0:0:0:
256,192,72374,1,0,0:0:0:0:
256,192,72454,1,0,0:0:0:0:
256,192,72534,1,0,0:0:0:0:
256,192,72614,1,0,0:0:0:0:
256,192,72693,1,0,0:0:0:0:
256,192,72773,1,0,0:0:0:0:
256,192,72853,1,0,0:0:0:0:
256,192,72933,1,0,0:0:0:0:
256,192,73013,1,0,0:0:0:0:
256,192,73092,1,0,0:0:0:0:
256,192,73172,1,0,0:0:0:0:
256,192,73332,1,0,0:0:0:0:
256,192,73412,1,0,0:0:0:0:
256,192,73491,1,0,0:0:0:0:
256,192,73651,1,0,0:0:0:0:
256,192,73731,1,0,0:0:0:0:
256,192,73811,1,0,0:0:0:0:
256,192,73890,1,0,0:0:0:0:
256,192,73970,1,0,0:0:0:0:
256,192,74050,1,0,0:0:0:0:
256,192,74130,1,0,0:0:0:0:
256,192,74210,1,0,0:0:0:0:
256,192,74289,1,0,0:0:0:0:
256,192,74369,1,0,0:0:0:0:
256,192,74449,1,0,0:0:0:0:
256,192,74529,1,0,0:0:0:0:
256,192,74609,1,0,0:0:0:0:
256,192,74688,1,0,0:0:0:0:
256,192,74768,1,0,0:0:0:0:
256,192,74848,1,0,0:0:0:0:
256,192,74928,1,0,0:0:0:0:
256,192,75007,1,0,0:0:0:0:
256,192,75087,1,0,0:0:0:0:
256,192,75135,1,0,0:0:0:0:
256,192,75215,1,0,0:0:0:0:
256,192,75294,1,0,0:0:0:0:
256,192,75454,1,0,0:0:0:0:
256,192,75614,1,0,0:0:0:0:
256,192,75805,1,0,0:0:0:0:
256,192,75965,1,0,0:0:0:0:
256,192,76045,1,0,0:0:0:0:
256,192,76125,1,0,0:0:0:0:
256,192,76204,1,0,0:0:0:0:
256,192,76284,1,0,0:0:0:0:
256,192,76364,1,0,0:0:0:0:
256,192,76444,1,0,0:0:0:0:
256,192,76524,1,0,0:0:0:0:
256,192,76603,1,0,0:0:0:0:
256,192,76683,1,0,0:0:0:0:
256,192,76763,1,0,0:0:0:0:
256,192,76843,1,0,0:0:0:0:
256,192,76923,1,0,0:0:0:0:
256,192,77002,1,0,0:0:0:0:
256,192,77082,1,0,0:0:0:0:
256,192,77162,1,0,0:0:0:0:
256,192,77242,1,0,0:0:0:0:
256,192,77322,1,0,0:0:0:0:
256,192,77401,1,0,0:0:0:0:
256,192,77481,1,0,0:0:0:0:
256,192,77561,1,0,0:0:0:0:
256,192,77641,1,0,0:0:0:0:
256,192,77721,1,0,0:0:0:0:
256,192,77800,1,0,0:0:0:0:
256,192,77880,1,0,0:0:0:0:
256,192,77960,1,0,0:0:0:0:
256,192,78040,1,0,0:0:0:0:
256,192,78120,1,0,0:0:0:0:
256,192,78199,1,0,0:0:0:0:
256,192,78279,1,0,0:0:0:0:
256,192,78359,1,0,0:0:0:0:
256,192,78439,1,0,0:0:0:0:
256,192,78518,1,0,0:0:0:0:
256,192,78598,1,0,0:0:0:0:
256,192,78678,1,0,0:0:0:0:
256,192,78758,1,0,0:0:0:0:
256,192,78838,1,0,0:0:0:0:
256,192,78917,1,0,0:0:0:0:
256,192,78997,1,0,0:0:0:0:
256,192,79077,1,0,0:0:0:0:
256,192,79157,1,0,0:0:0:0:
256,192,79237,1,0,0:0:0:0:
256,192,79316,1,0,0:0:0:0:
256,192,79396,1,0,0:0:0:0:
256,192,79476,1,0,0:0:0:0:
256,192,79556,1,0,0:0:0:0:
256,192,79636,1,0,0:0:0:0:
256,192,79715,1,0,0:0:0:0:
256,192,79795,1,0,0:0:0:0:
256,192,79875,1,0,0:0:0:0:
256,192,79955,1,0,0:0:0:0:
256,192,80035,1,0,0:0:0:0:
256,192,80114,1,0,0:0:0:0:
256,192,80194,1,0,0:0:0:0:
256,192,80274,1,0,0:0:0:0:
256,192,80354,1,0,0:0:0:0:
256,192,80434,1,0,0:0:0:0:
256,192,80513,1,0,0:0:0:0:
256,192,80593,1,0,0:0:0:0:
256,192,80673,1,0,0:0:0:0:
256,192,80753,1,0,0:0:0:0:
256,192,80833,1,0,0:0:0:0:
256,192,80912,1,0,0:0:0:0:
256,192,80992,1,0,0:0:0:0:
256,192,81072,1,0,0:0:0:0:
256,192,81152,1,0,0:0:0:0:
256,192,81232,1,0,0:0:0:0:
256,192,81311,1,0,0:0:0:0:
256,192,81391,1,0,0:0:0:0:
256,192,81471,1,0,0:0:0:0:
256,192,81551,1,0,0:0:0:0:
256,192,81631,1,0,0:0:0:0:
256,192,81710,1,0,0:0:0:0:
256,192,81790,1,0,0:0:0:0:
256,192,81870,1,0,0:0:0:0:
256,192,81950,1,0,0:0:0:0:
256,192,82030,1,0,0:0:0:0:
256,192,82109,1,0,0:0:0:0:
256,192,82189,1,0,0:0:0:0:
256,192,82269,1,0,0:0:0:0:
256,192,82349,1,0,0:0:0:0:
256,192,82428,1,0,0:0:0:0:
256,192,82508,1,0,0:0:0:0:
256,192,82588,1,0,0:0:0:0:
256,192,82668,1,0,0:0:0:0:
256,192,82748,1,0,0:0:0:0:
256,192,82827,1,0,0:0:0:0:
256,192,82907,1,0,0:0:0:0:
256,192,82987,1,0,0:0:0:0:
256,192,83067,1,0,0:0:0:0:
256,192,83147,1,0,0:0:0:0:
256,192,83226,1,0,0:0:0:0:
256,192,83306,1,0,0:0:0:0:
256,192,83386,1,0,0:0:0:0:
256,192,83466,1,0,0:0:0:0:
256,192,83546,1,0,0:0:0:0:
256,192,83625,1,0,0:0:0:0:
256,192,83705,1,0,0:0:0:0:
256,192,84073,1,0,0:0:0:0:
256,192,84552,1,0,0:0:0:0:
256,192,85221,1,0,0:0:0:0:
256,192,85301,1,0,0:0:0:0:
256,192,85381,1,0,0:0:0:0:
256,192,85461,1,0,0:0:0:0:
256,192,85541,1,0,0:0:0:0:
256,192,85620,1,0,0:0:0:0:
256,192,85700,1,0,0:0:0:0:
256,192,85780,1,0,0:0:0:0:
256,192,85860,1,0,0:0:0:0:
256,192,85988,1,0,0:0:0:0:
256,192,86041,1,0,0:0:0:0:
256,192,86095,1,0,0:0:0:0:
256,192,86148,1,0,0:0:0:0:
256,192,86307,5,12,0:0:0:0:
256,192,86578,1,0,0:0:0:0:
256,192,86658,1,0,0:0:0:0:
256,192,86737,1,0,0:0:0:0:
256,192,86817,1,0,0:0:0:0:
256,192,86897,1,0,0:0:0:0:
256,192,86977,1,0,0:0:0:0:
256,192,87057,1,8,0:0:0:0:
256,192,87136,1,8,0:0:0:0:
256,192,87216,1,0,0:0:0:0:
256,192,87296,1,0,0:0:0:0:
256,192,87376,1,0,0:0:0:0:
256,192,87456,1,0,0:0:0:0:
256,192,87535,1,0,0:0:0:0:
256,192,87615,1,0,0:0:0:0:
256,192,87695,1,0,0:0:0:0:
256,192,87775,1,0,0:0:0:0:
256,192,87855,1,0,0:0:0:0:
256,192,87934,1,0,0:0:0:0:
256,192,88014,1,0,0:0:0:0:
256,192,88094,1,0,0:0:0:0:
256,192,88174,1,0,0:0:0:0:
256,192,88254,1,0,0:0:0:0:
256,192,88333,1,0,0:0:0:0:
256,192,88413,1,8,0:0:0:0:
256,192,88493,1,8,0:0:0:0:
256,192,88573,1,0,0:0:0:0:
256,192,88653,1,0,0:0:0:0:
256,192,88732,1,0,0:0:0:0:
256,192,88812,1,0,0:0:0:0:
256,192,88892,1,0,0:0:0:0:
256,192,88972,1,0,0:0:0:0:
256,192,89052,1,0,0:0:0:0:
256,192,89131,1,0,0:0:0:0:
256,192,89211,1,0,0:0:0:0:
256,192,89291,1,0,0:0:0:0:
256,192,89371,1,0,0:0:0:0:
256,192,89451,1,0,0:0:0:0:
256,192,89530,1,0,0:0:0:0:
256,192,89610,1,0,0:0:0:0:
256,192,89690,1,0,0:0:0:0:
256,192,89770,1,8,0:0:0:0:
256,192,89849,1,0,0:0:0:0:
256,192,89929,1,0,0:0:0:0:
256,192,90009,1,0,0:0:0:0:
256,192,90089,1,0,0:0:0:0:
256,192,90169,1,0,0:0:0:0:
256,192,90248,1,0,0:0:0:0:
256,192,90328,1,0,0:0:0:0:
256,192,90408,1,0,0:0:0:0:
256,192,90568,1,0,0:0:0:0:
256,192,90647,1,0,0:0:0:0:
256,192,90727,1,0,0:0:0:0:
256,192,90807,1,0,0:0:0:0:
256,192,90887,1,0,0:0:0:0:
256,192,90967,1,0,0:0:0:0:
256,192,91126,1,8,0:0:0:0:
256,192,91206,1,0,0:0:0:0:
256,192,91286,1,0,0:0:0:0:
256,192,91366,1,0,0:0:0:0:
256,192,91445,1,0,0:0:0:0:
256,192,91525,1,0,0:0:0:0:
256,192,91685,1,0,0:0:0:0:
256,192,91765,1,0,0:0:0:0:
256,192,91844,1,0,0:0:0:0:
256,192,91924,1,0,0:0:0:0:
256,192,92004,1,0,0:0:0:0:
256,192,92084,1,0,0:0:0:0:
256,192,92164,1,0,0:0:0:0:
256,192,92243,1,0,0:0:0:0:
256,192,92323,1,0,0:0:0:0:
256,192,92403,1,8,0:0:0:0:
256,192,92483,1,8,0:0:0:0:
256,192,92563,1,0,0:0:0:0:
256,192,92642,1,0,0:0:0:0:
256,192,92722,1,0,0:0:0:0:
256,192,92802,1,0,0:0:0:0:
256,192,92882,1,0,0:0:0:0:
256,192,92962,1,0,0:0:0:0:
256,192,93041,1,0,0:0:0:0:
256,192,93121,1,0,0:0:0:0:
256,192,93201,1,0,0:0:0:0:
256,192,93281,1,0,0:0:0:0:
256,192,93360,1,0,0:0:0:0:
256,192,93440,1,0,0:0:0:0:
256,192,93520,1,0,0:0:0:0:
256,192,93600,1,0,0:0:0:0:
256,192,93680,1,0,0:0:0:0:
256,192,93759,1,8,0:0:0:0:
256,192,93839,1,8,0:0:0:0:
256,192,93919,1,0,0:0:0:0:
256,192,93999,1,0,0:0:0:0:
256,192,94079,1,0,0:0:0:0:
256,192,94158,1,0,0:0:0:0:
256,192,94238,1,0,0:0:0:0:
256,192,94318,1,0,0:0:0:0:
256,192,94398,1,0,0:0:0:0:
256,192,94478,1,0,0:0:0:0:
256,192,94557,1,0,0:0:0:0:
256,192,94637,1,0,0:0:0:0:
256,192,94717,1,0,0:0:0:0:
256,192,94797,1,0,0:0:0:0:
256,192,94877,1,0,0:0:0:0:
256,192,94956,1,0,0:0:0:0:
256,192,95036,1,0,0:0:0:0:
256,192,95116,1,8,0:0:0:0:
256,192,95196,1,0,0:0:0:0:
256,192,95276,1,0,0:0:0:0:
256,192,95355,1,0,0:0:0:0:
256,192,95435,1,0,0:0:0:0:
256,192,95515,1,0,0:0:0:0:
256,192,95595,1,0,0:0:0:0:
256,192,95675,1,0,0:0:0:0:
256,192,95754,1,0,0:0:0:0:
256,192,95834,1,0,0:0:0:0:
256,192,95914,1,0,0:0:0:0:
256,192,95994,1,0,0:0:0:0:
256,192,96074,1,0,0:0:0:0:
256,192,96153,1,0,0:0:0:0:
256,192,96233,1,0,0:0:0:0:
256,192,96313,1,0,0:0:0:0:
256,192,96393,1,8,0:0:0:0:
256,192,96473,1,8,0:0:0:0:
256,192,96552,1,0,0:0:0:0:
256,192,96632,1,0,0:0:0:0:
256,192,96712,1,0,0:0:0:0:
256,192,96792,1,0,0:0:0:0:
256,192,96872,1,0,0:0:0:0:
256,192,96951,1,0,0:0:0:0:
256,192,97031,1,0,0:0:0:0:
256,192,97111,1,0,0:0:0:0:
256,192,97191,1,0,0:0:0:0:
256,192,97270,1,0,0:0:0:0:
256,192,97350,1,0,0:0:0:0:
256,192,97430,1,0,0:0:0:0:
256,192,97510,1,0,0:0:0:0:
256,192,97590,1,0,0:0:0:0:
256,192,97669,1,0,0:0:0:0:
256,192,97749,1,8,0:0:0:0:
256,192,97829,1,8,0:0:0:0:
256,192,97909,1,0,0:0:0:0:
256,192,97989,1,0,0:0:0:0:
256,192,98068,1,0,0:0:0:0:
256,192,98148,1,0,0:0:0:0:
256,192,98228,1,0,0:0:0:0:
256,192,98308,1,0,0:0:0:0:
256,192,98388,1,0,0:0:0:0:
256,192,98467,1,0,0:0:0:0:
256,192,98547,1,0,0:0:0:0:
256,192,98627,1,0,0:0:0:0:
256,192,98707,1,0,0:0:0:0:
256,192,98787,1,0,0:0:0:0:
256,192,98866,1,0,0:0:0:0:
256,192,98946,1,0,0:0:0:0:
256,192,99026,1,0,0:0:0:0:
256,192,99106,1,8,0:0:0:0:
256,192,99186,1,0,0:0:0:0:
256,192,99265,1,0,0:0:0:0:
256,192,99345,1,0,0:0:0:0:
256,192,99425,1,0,0:0:0:0:
256,192,99505,1,0,0:0:0:0:
256,192,99585,1,0,0:0:0:0:
256,192,99664,1,0,0:0:0:0:
256,192,99744,1,0,0:0:0:0:
256,192,99824,1,0,0:0:0:0:
256,192,99904,1,0,0:0:0:0:
256,192,99984,1,0,0:0:0:0:
256,192,100063,1,0,0:0:0:0:
256,192,100143,1,0,0:0:0:0:
256,192,100223,1,0,0:0:0:0:
256,192,100303,1,0,0:0:0:0:
256,192,100383,1,0,0:0:0:0:
256,192,100462,1,8,0:0:0:0:
256,192,100542,1,0,0:0:0:0:
256,192,100622,1,0,0:0:0:0:
256,192,100702,1,0,0:0:0:0:
256,192,100781,1,0,0:0:0:0:
256,192,100861,1,0,0:0:0:0:
256,192,100941,1,0,0:0:0:0:
256,192,101021,1,0,0:0:0:0:
256,192,101101,1,0,0:0:0:0:
256,192,101180,1,0,0:0:0:0:
256,192,101260,1,8,0:0:0:0:
256,192,101340,1,8,0:0:0:0:
256,192,101420,1,0,0:0:0:0:
256,192,101500,1,0,0:0:0:0:
256,192,101579,1,0,0:0:0:0:
256,192,101659,1,0,0:0:0:0:
256,192,101739,1,8,0:0:0:0:
256,192,101819,1,8,0:0:0:0:
256,192,101899,1,0,0:0:0:0:
256,192,101978,1,0,0:0:0:0:
256,192,102058,1,0,0:0:0:0:
256,192,102138,1,0,0:0:0:0:
256,192,102218,1,8,0:0:0:0:
256,192,102298,1,8,0:0:0:0:
256,192,102377,1,0,0:0:0:0:
256,192,102457,1,0,0:0:0:0:
256,192,102537,1,8,0:0:0:0:
256,192,102617,1,8,0:0:0:0:
256,192,102697,1,8,0:0:0:0:
256,192,102776,1,8,0:0:0:0:
256,192,102856,1,8,0:0:0:0:
256,192,102936,1,8,0:0:0:0:
256,192,103016,1,8,0:0:0:0:
256,192,103096,1,8,0:0:0:0:
256,192,103175,1,8,0:0:0:0:
256,192,103255,1,8,0:0:0:0:
256,192,103335,1,8,0:0:0:0:
256,192,103415,1,8,0:0:0:0:
256,192,103495,1,8,0:0:0:0:
256,192,103574,1,8,0:0:0:0:
256,192,103654,1,8,0:0:0:0:
256,192,103734,1,8,0:0:0:0:
256,192,103814,1,8,0:0:0:0:
256,192,103894,1,8,0:0:0:0:
256,192,103973,1,8,0:0:0:0:
256,192,104133,1,8,0:0:0:0:
256,192,104213,1,8,0:0:0:0:
256,192,104293,1,8,0:0:0:0:
256,192,104372,1,8,0:0:0:0:
256,192,104452,1,8,0:0:0:0:
256,192,104532,1,8,0:0:0:0:
256,192,104691,1,8,0:0:0:0:
256,192,104771,1,8,0:0:0:0:
256,192,104851,1,8,0:0:0:0:
256,192,104931,1,8,0:0:0:0:
256,192,105011,1,8,0:0:0:0:
256,192,105090,1,8,0:0:0:0:
256,192,105250,1,8,0:0:0:0:
256,192,105330,1,8,0:0:0:0:
256,192,105410,1,8,0:0:0:0:
256,192,105489,1,8,0:0:0:0:
256,192,105569,1,8,0:0:0:0:
256,192,105649,1,8,0:0:0:0:
256,192,105729,1,8,0:0:0:0:
256,192,105809,1,8,0:0:0:0:
256,192,105888,1,8,0:0:0:0:
256,192,105968,1,8,0:0:0:0:
256,192,106048,1,8,0:0:0:0:
256,192,106128,1,8,0:0:0:0:
256,192,106208,1,8,0:0:0:0:
256,192,106287,1,8,0:0:0:0:
256,192,106367,1,8,0:0:0:0:
256,192,106447,1,8,0:0:0:0:
256,192,106527,1,8,0:0:0:0:
256,192,106607,1,8,0:0:0:0:
256,192,106686,1,8,0:0:0:0:
256,192,106766,1,8,0:0:0:0:
256,192,106846,1,8,0:0:0:0:
256,192,106926,1,8,0:0:0:0:
256,192,107085,1,8,0:0:0:0:
256,192,107165,1,8,0:0:0:0:
256,192,107245,1,8,0:0:0:0:
256,192,107325,1,8,0:0:0:0:
256,192,107405,1,8,0:0:0:0:
256,192,107484,1,8,0:0:0:0:
256,192,107564,1,8,0:0:0:0:
256,192,107644,1,8,0:0:0:0:
256,192,108203,1,8,0:0:0:0:
256,192,108761,1,0,0:0:0:0:
256,192,109080,1,0,0:0:0:0:
256,192,109559,1,8,0:0:0:0:
256,192,109719,1,0,0:0:0:0:
256,192,110038,1,8,0:0:0:0:
256,192,110118,1,8,0:0:0:0:
256,192,110197,1,0,0:0:0:0:
256,192,110437,5,0,0:0:0:0:
256,192,110517,1,0,0:0:0:0:
256,192,110596,1,0,0:0:0:0:
256,192,110676,1,0,0:0:0:0:
256,192,110728,1,8,0:0:0:0:
256,192,110916,1,0,0:0:0:0:
256,192,110995,1,0,0:0:0:0:
256,192,111075,1,0,0:0:0:0:
256,192,111155,1,0,0:0:0:0:
256,192,111235,1,8,0:0:0:0:
256,192,111394,1,0,0:0:0:0:
256,192,111474,1,0,0:0:0:0:
256,192,111554,1,0,0:0:0:0:
256,192,111714,1,0,0:0:0:0:
256,192,111793,1,0,0:0:0:0:
256,192,111873,1,0,0:0:0:0:
256,192,111953,1,0,0:0:0:0:
256,192,112033,1,0,0:0:0:0:
256,192,112112,1,8,0:0:0:0:
256,192,112272,1,0,0:0:0:0:
256,192,112352,1,0,0:0:0:0:
256,192,112432,1,0,0:0:0:0:
256,192,112511,1,0,0:0:0:0:
256,192,112591,1,0,0:0:0:0:
256,192,112671,1,8,0:0:0:0:
256,192,112831,1,0,0:0:0:0:
256,192,112910,1,0,0:0:0:0:
256,192,112990,1,8,0:0:0:0:
256,192,113150,1,0,0:0:0:0:
256,192,113230,1,0,0:0:0:0:
256,192,113309,1,0,0:0:0:0:
256,192,113389,1,0,0:0:0:0:
256,192,113469,1,8,0:0:0:0:
256,192,113629,1,0,0:0:0:0:
256,192,113708,1,0,0:0:0:0:
256,192,113788,1,0,0:0:0:0:
256,192,113868,1,0,0:0:0:0:
256,192,113948,1,0,0:0:0:0:
256,192,114000,1,8,0:0:0:0:
256,192,114187,1,0,0:0:0:0:
256,192,114347,1,8,0:0:0:0:
256,192,114506,1,0,0:0:0:0:
256,192,114666,1,0,0:0:0:0:
256,192,114826,1,8,0:0:0:0:
256,192,114985,1,0,0:0:0:0:
256,192,115145,1,8,0:0:0:0:
256,192,115304,1,8,0:0:0:0:
256,192,115464,1,0,0:0:0:0:
256,192,115544,1,0,0:0:0:0:
256,192,115624,1,0,0:0:0:0:
256,192,115703,1,0,0:0:0:0:
256,192,115783,1,0,0:0:0:0:
256,192,115863,1,0,0:0:0:0:
256,192,115943,1,0,0:0:0:0:
256,192,116022,1,0,0:0:0:0:
256,192,116102,1,0,0:0:0:0:
256,192,116182,1,0,0:0:0:0:
256,192,116262,1,0,0:0:0:0:
256,192,116342,1,0,0:0:0:0:
256,192,116421,1,0,0:0:0:0:
256,192,116501,1,0,0:0:0:0:
256,192,116581,1,0,0:0:0:0:
256,192,116661,1,0,0:0:0:0:
256,192,116741,1,0,0:0:0:0:
256,192,116820,1,0,0:0:0:0:
256,192,116900,1,0,0:0:0:0:
256,192,116980,1,0,0:0:0:0:
256,192,117060,1,0,0:0:0:0:
256,192,117140,1,0,0:0:0:0:
256,192,117219,1,0,0:0:0:0:
256,192,117271,1,8,0:0:0:0:
256,192,117459,1,0,0:0:0:0:
256,192,117539,1,0,0:0:0:0:
256,192,117618,1,0,0:0:0:0:
256,192,117698,1,0,0:0:0:0:
256,192,117778,1,0,0:0:0:0:
256,192,117858,1,0,0:0:0:0:
256,192,117938,1,8,0:0:0:0:
256,192,118017,1,0,0:0:0:0:
256,192,118097,1,0,0:0:0:0:
256,192,118177,1,0,0:0:0:0:
256,192,118257,1,0,0:0:0:0:
256,192,118337,1,0,0:0:0:0:
256,192,118416,1,0,0:0:0:0:
256,192,118496,1,0,0:0:0:0:
256,192,118576,1,0,0:0:0:0:
256,192,118656,1,0,0:0:0:0:
256,192,118736,1,0,0:0:0:0:
256,192,118815,1,0,0:0:0:0:
256,192,118895,1,0,0:0:0:0:
256,192,118975,1,0,0:0:0:0:
256,192,119055,1,0,0:0:0:0:
256,192,119135,1,0,0:0:0:0:
256,192,119214,1,0,0:0:0:0:
256,192,119294,1,0,0:0:0:0:
256,192,119374,1,0,0:0:0:0:
256,192,119454,1,0,0:0:0:0:
256,192,119533,1,0,0:0:0:0:
256,192,119613,1,0,0:0:0:0:
256,192,119693,1,0,0:0:0:0:
256,192,119773,1,0,0:0:0:0:
256,192,119853,1,0,0:0:0:0:
256,192,119932,1,0,0:0:0:0:
256,192,120012,1,0,0:0:0:0:
256,192,120092,1,0,0:0:0:0:
256,192,120172,1,0,0:0:0:0:
256,192,120252,1,0,0:0:0:0:
256,192,120331,1,0,0:0:0:0:
256,192,120411,1,0,0:0:0:0:
256,192,120491,1,0,0:0:0:0:
256,192,120651,1,0,0:0:0:0:
256,192,120730,1,0,0:0:0:0:
256,192,120810,1,0,0:0:0:0:
256,192,120890,1,0,0:0:0:0:
256,192,120970,1,0,0:0:0:0:
256,192,121129,1,0,0:0:0:0:
256,192,121209,1,0,0:0:0:0:
256,192,121289,1,0,0:0:0:0:
256,192,121369,1,0,0:0:0:0:
256,192,121449,1,0,0:0:0:0:
256,192,121608,1,0,0:0:0:0:
256,192,121688,1,0,0:0:0:0:
256,192,121768,1,0,0:0:0:0:
256,192,121927,1,0,0:0:0:0:
256,192,122007,1,0,0:0:0:0:
256,192,122087,1,0,0:0:0:0:
256,192,122167,1,0,0:0:0:0:
256,192,122247,1,0,0:0:0:0:
256,192,122406,1,0,0:0:0:0:
256,192,122486,1,0,0:0:0:0:
256,192,122566,1,0,0:0:0:0:
256,192,122646,1,0,0:0:0:0:
256,192,122725,1,0,0:0:0:0:
256,192,122885,1,0,0:0:0:0:
256,192,122965,1,0,0:0:0:0:
256,192,123045,1,0,0:0:0:0:
256,192,123204,1,0,0:0:0:0:
256,192,123284,1,0,0:0:0:0:
256,192,123364,1,0,0:0:0:0:
256,192,123443,1,0,0:0:0:0:
256,192,123523,1,0,0:0:0:0:
256,192,123683,1,0,0:0:0:0:
256,192,123763,1,0,0:0:0:0:
256,192,123842,1,0,0:0:0:0:
256,192,123922,1,0,0:0:0:0:
256,192,124002,1,0,0:0:0:0:
256,192,124082,1,0,0:0:0:0:
256,192,124162,1,0,0:0:0:0:
256,192,124241,1,0,0:0:0:0:
256,192,124321,1,0,0:0:0:0:
256,192,124481,1,0,0:0:0:0:
256,192,124640,1,0,0:0:0:0:
256,192,124800,1,0,0:0:0:0:
256,192,124960,1,0,0:0:0:0:
256,192,125119,1,0,0:0:0:0:
256,192,125279,1,0,0:0:0:0:
256,192,125438,1,0,0:0:0:0:
256,192,125518,1,0,0:0:0:0:
256,192,125598,1,0,0:0:0:0:
256,192,125678,1,0,0:0:0:0:
256,192,125758,1,0,0:0:0:0:
256,192,125837,1,0,0:0:0:0:
256,192,125917,1,0,0:0:0:0:
256,192,125997,1,0,0:0:0:0:
256,192,126077,1,0,0:0:0:0:
256,192,126157,1,0,0:0:0:0:
256,192,126236,1,0,0:0:0:0:
256,192,126316,1,0,0:0:0:0:
256,192,126396,1,0,0:0:0:0:
256,192,126476,1,0,0:0:0:0:
256,192,126556,1,0,0:0:0:0:
256,192,126635,1,0,0:0:0:0:
256,192,126715,1,0,0:0:0:0:
256,192,126795,1,0,0:0:0:0:
256,192,126875,1,0,0:0:0:0:
256,192,126954,1,0,0:0:0:0:
256,192,127034,1,0,0:0:0:0:
256,192,127114,1,0,0:0:0:0:
256,192,127194,1,0,0:0:0:0:
256,192,127274,1,0,0:0:0:0:
256,192,127353,1,0,0:0:0:0:
256,192,127433,1,0,0:0:0:0:
256,192,127513,1,0,0:0:0:0:
256,192,127593,1,0,0:0:0:0:
256,192,127673,1,0,0:0:0:0:
256,192,127752,1,0,0:0:0:0:
256,192,127832,1,0,0:0:0:0:
256,192,127912,1,0,0:0:0:0:
256,192,127992,1,0,0:0:0:0:
256,192,128072,1,0,0:0:0:0:
256,192,128151,1,0,0:0:0:0:
256,192,128231,1,0,0:0:0:0:
256,192,128311,1,0,0:0:0:0:
256,192,128391,1,0,0:0:0:0:
256,192,128471,1,0,0:0:0:0:
256,192,128550,1,0,0:0:0:0:
256,192,128630,1,0,0:0:0:0:
256,192,128710,1,0,0:0:0:0:
256,192,128790,1,0,0:0:0:0:
256,192,128870,1,0,0:0:0:0:
256,192,128949,1,0,0:0:0:0:
256,192,129029,1,0,0:0:0:0:
256,192,129109,1,0,0:0:0:0:
256,192,129189,1,0,0:0:0:0:
256,192,129269,1,0,0:0:0:0:
256,192,129348,1,0,0:0:0:0:
256,192,129428,1,0,0:0:0:0:
256,192,129508,1,0,0:0:0:0:
256,192,129588,1,0,0:0:0:0:
256,192,129668,1,0,0:0:0:0:
256,192,129747,1,0,0:0:0:0:
256,192,129827,1,0,0:0:0:0:
256,192,129907,1,0,0:0:0:0:
256,192,129987,1,0,0:0:0:0:
256,192,130067,1,0,0:0:0:0:
256,192,130146,1,0,0:0:0:0:
256,192,130226,1,0,0:0:0:0:
256,192,130386,1,0,0:0:0:0:
256,192,130466,5,8,0:0:0:0:
256,192,130545,1,8,0:0:0:0:
256,192,130625,1,8,0:0:0:0:
256,192,130705,1,8,0:0:0:0:
256,192,130864,1,8,0:0:0:0:
256,192,130944,1,8,0:0:0:0:
256,192,131024,1,8,0:0:0:0:
256,192,131104,1,0,0:0:0:0:
256,192,131184,1,0,0:0:0:0:
256,192,131343,1,0,0:0:0:0:
256,192,131423,1,0,0:0:0:0:
256,192,131503,1,0,0:0:0:0:
256,192,131583,1,0,0:0:0:0:
256,192,131662,1,0,0:0:0:0:
256,192,131822,1,0,0:0:0:0:
256,192,131902,1,0,0:0:0:0:
256,192,131982,1,0,0:0:0:0:
256,192,132061,1,0,0:0:0:0:
256,192,132141,1,0,0:0:0:0:
256,192,132221,1,0,0:0:0:0:
256,192,132301,1,0,0:0:0:0:
256,192,132381,1,0,0:0:0:0:
256,192,132460,1,0,0:0:0:0:
256,192,132540,1,0,0:0:0:0:
256,192,132620,1,0,0:0:0:0:
256,192,132700,1,0,0:0:0:0:
256,192,132780,1,0,0:0:0:0:
256,192,132859,1,0,0:0:0:0:
256,192,132939,1,0,0:0:0:0:
256,192,133019,1,0,0:0:0:0:
256,192,133099,1,0,0:0:0:0:
256,192,133179,1,0,0:0:0:0:
256,192,133258,1,0,0:0:0:0:
256,192,133338,1,0,0:0:0:0:
256,192,133418,1,0,0:0:0:0:
256,192,133498,1,0,0:0:0:0:
256,192,133578,1,0,0:0:0:0:
256,192,133657,1,0,0:0:0:0:
256,192,133737,1,0,0:0:0:0:
256,192,133817,1,0,0:0:0:0:
256,192,133897,1,0,0:0:0:0:
256,192,133977,1,0,0:0:0:0:
256,192,134056,1,0,0:0:0:0:
256,192,134136,1,0,0:0:0:0:
256,192,134216,1,0,0:0:0:0:
256,192,134296,1,0,0:0:0:0:
256,192,134375,1,0,0:0:0:0:
256,192,134455,1,0,0:0:0:0:
256,192,134535,1,0,0:0:0:0:
256,192,134615,1,0,0:0:0:0:
256,192,134695,1,0,0:0:0:0:
256,192,134774,1,0,0:0:0:0:
256,192,134854,1,0,0:0:0:0:
256,192,134934,1,0,0:0:0:0:
256,192,135014,1,0,0:0:0:0:
256,192,135094,1,0,0:0:0:0:
256,192,135173,1,0,0:0:0:0:
256,192,135253,1,0,0:0:0:0:
256,192,135333,1,0,0:0:0:0:
256,192,135413,1,0,0:0:0:0:
256,192,135493,1,0,0:0:0:0:
256,192,135572,1,0,0:0:0:0:
256,192,135652,1,0,0:0:0:0:
256,192,135732,1,0,0:0:0:0:
256,192,135812,1,0,0:0:0:0:
256,192,135892,1,0,0:0:0:0:
256,192,135971,1,0,0:0:0:0:
256,192,136051,1,0,0:0:0:0:
256,192,136131,1,0,0:0:0:0:
256,192,136211,1,0,0:0:0:0:
256,192,136291,1,0,0:0:0:0:
256,192,136370,1,0,0:0:0:0:
256,192,136450,1,0,0:0:0:0:
256,192,136530,1,0,0:0:0:0:
256,192,136610,1,0,0:0:0:0:
256,192,136690,1,0,0:0:0:0:
256,192,136769,1,0,0:0:0:0:
256,192,136849,1,0,0:0:0:0:
256,192,136929,1,0,0:0:0:0:
256,192,137009,1,0,0:0:0:0:
256,192,137089,1,0,0:0:0:0:
256,192,137168,1,0,0:0:0:0:
256,192,137248,1,0,0:0:0:0:
256,192,137328,1,0,0:0:0:0:
256,192,137408,1,0,0:0:0:0:
256,192,137488,1,0,0:0:0:0:
256,192,137567,1,0,0:0:0:0:
256,192,137647,1,0,0:0:0:0:
256,192,137727,1,0,0:0:0:0:
256,192,137807,1,0,0:0:0:0:
256,192,137887,1,0,0:0:0:0:
256,192,137966,1,0,0:0:0:0:
256,192,138046,1,0,0:0:0:0:
256,192,138126,1,0,0:0:0:0:
256,192,138206,1,0,0:0:0:0:
256,192,138285,1,0,0:0:0:0:
256,192,138365,1,0,0:0:0:0:
256,192,138445,1,0,0:0:0:0:
256,192,138525,1,0,0:0:0:0:
256,192,138605,1,0,0:0:0:0:
256,192,138684,1,0,0:0:0:0:
256,192,138764,1,0,0:0:0:0:
256,192,138844,1,0,0:0:0:0:
256,192,138924,1,0,0:0:0:0:
256,192,139004,1,0,0:0:0:0:
256,192,139083,1,0,0:0:0:0:
256,192,139163,1,0,0:0:0:0:
256,192,139243,1,0,0:0:0:0:
256,192,139323,1,0,0:0:0:0:
256,192,139403,1,0,0:0:0:0:
256,192,139482,1,0,0:0:0:0:
256,192,139562,1,0,0:0:0:0:
256,192,139642,1,0,0:0:0:0:
256,192,139722,1,0,0:0:0:0:
256,192,139802,1,0,0:0:0:0:
256,192,139881,1,0,0:0:0:0:
256,192,139961,1,0,0:0:0:0:
256,192,140041,1,0,0:0:0:0:
256,192,140121,1,0,0:0:0:0:
256,192,140201,1,0,0:0:0:0:
256,192,140280,1,0,0:0:0:0:
256,192,140360,1,0,0:0:0:0:
256,192,140440,1,0,0:0:0:0:
256,192,140520,1,0,0:0:0:0:
256,192,140600,1,0,0:0:0:0:
256,192,140679,1,0,0:0:0:0:
256,192,140759,1,0,0:0:0:0:
256,192,140839,1,0,0:0:0:0:
256,192,140919,1,0,0:0:0:0:
256,192,140999,1,0,0:0:0:0:
256,192,141078,1,0,0:0:0:0:
256,192,141158,1,0,0:0:0:0:
256,192,141238,1,0,0:0:0:0:
256,192,141318,1,0,0:0:0:0:
256,192,141398,1,0,0:0:0:0:
256,192,141477,1,0,0:0:0:0:
256,192,141557,1,0,0:0:0:0:
256,192,141637,1,0,0:0:0:0:
256,192,141717,1,0,0:0:0:0:
256,192,141796,1,0,0:0:0:0:
256,192,141876,1,0,0:0:0:0:
256,192,141956,1,0,0:0:0:0:
256,192,142036,1,0,0:0:0:0:
256,192,142116,1,0,0:0:0:0:
256,192,142195,1,0,0:0:0:0:
256,192,142275,1,0,0:0:0:0:
256,192,142355,1,0,0:0:0:0:
256,192,142435,1,0,0:0:0:0:
256,192,142515,1,0,0:0:0:0:
256,192,142594,1,0,0:0:0:0:
256,192,142674,1,0,0:0:0:0:
256,192,142754,1,0,0:0:0:0:
256,192,142834,1,0,0:0:0:0:
256,192,142914,1,0,0:0:0:0:
256,192,142993,1,0,0:0:0:0:
256,192,143073,1,0,0:0:0:0:
256,192,143153,1,0,0:0:0:0:
256,192,143233,1,0,0:0:0:0:
256,192,143313,1,0,0:0:0:0:
256,192,143392,1,0,0:0:0:0:
256,192,143472,1,0,0:0:0:0:
256,192,143552,1,0,0:0:0:0:
256,192,143632,1,0,0:0:0:0:
256,192,143712,1,0,0:0:0:0:
256,192,143791,1,0,0:0:0:0:
256,192,143871,1,0,0:0:0:0:
256,192,143951,1,0,0:0:0:0:
256,192,144031,1,0,0:0:0:0:
256,192,144111,1,0,0:0:0:0:
256,192,144190,1,0,0:0:0:0:
256,192,144270,1,0,0:0:0:0:
256,192,144350,1,0,0:0:0:0:
256,192,144430,1,0,0:0:0:0:
256,192,144510,1,0,0:0:0:0:
256,192,144589,1,0,0:0:0:0:
256,192,144669,1,0,0:0:0:0:
256,192,144749,1,0,0:0:0:0:
256,192,144829,1,0,0:0:0:0:
256,192,144909,1,0,0:0:0:0:
256,192,144988,1,0,0:0:0:0:
256,192,145068,1,0,0:0:0:0:
256,192,145148,1,0,0:0:0:0:
256,192,145228,1,0,0:0:0:0:
256,192,145308,1,0,0:0:0:0:
256,192,145387,1,0,0:0:0:0:
256,192,145467,1,0,0:0:0:0:
256,192,145547,1,0,0:0:0:0:
256,192,145627,1,0,0:0:0:0:
256,192,145706,1,0,0:0:0:0:
256,192,145786,1,0,0:0:0:0:
256,192,145866,1,0,0:0:0:0:
256,192,145946,1,0,0:0:0:0:
256,192,146026,1,0,0:0:0:0:
256,192,146105,1,0,0:0:0:0:
256,192,146185,1,0,0:0:0:0:
256,192,146265,1,0,0:0:0:0:
256,192,146345,1,0,0:0:0:0:
256,192,146425,1,0,0:0:0:0:
256,192,146504,1,0,0:0:0:0:
256,192,146584,1,0,0:0:0:0:
256,192,146664,1,0,0:0:0:0:
256,192,146744,1,0,0:0:0:0:
256,192,146824,1,0,0:0:0:0:
256,192,146903,1,0,0:0:0:0:
256,192,146983,1,0,0:0:0:0:
256,192,147063,1,0,0:0:0:0:
256,192,147143,1,0,0:0:0:0:
256,192,147223,1,0,0:0:0:0:
256,192,147302,1,0,0:0:0:0:
256,192,147382,1,0,0:0:0:0:
256,192,147462,1,0,0:0:0:0:
256,192,147542,1,0,0:0:0:0:
256,192,147622,1,0,0:0:0:0:
256,192,147701,1,0,0:0:0:0:
256,192,147781,1,0,0:0:0:0:
256,192,147861,1,0,0:0:0:0:
256,192,147941,1,0,0:0:0:0:
256,192,148021,1,0,0:0:0:0:
256,192,148100,1,0,0:0:0:0:
256,192,148180,1,0,0:0:0:0:
256,192,148260,1,0,0:0:0:0:
256,192,148340,1,0,0:0:0:0:
256,192,148420,1,0,0:0:0:0:
256,192,148499,1,0,0:0:0:0:
256,192,148579,1,0,0:0:0:0:
256,192,148659,1,0,0:0:0:0:
256,192,148739,1,0,0:0:0:0:
256,192,149058,1,0,0:0:0:0:
256,192,149537,1,0,0:0:0:0:
256,192,149696,1,0,0:0:0:0:
256,192,149856,1,0,0:0:0:0:
256,192,149936,1,0,0:0:0:0:
256,192,150015,1,0,0:0:0:0:
256,192,150095,1,0,0:0:0:0:
256,192,150175,1,0,0:0:0:0:
256,192,150335,1,0,0:0:0:0:
256,192,150494,1,0,0:0:0:0:
256,192,150654,1,0,0:0:0:0:
256,192,150813,1,0,0:0:0:0:
256,192,150973,1,0,0:0:0:0:
256,192,151053,1,0,0:0:0:0:
256,192,151212,5,4,0:0:0:0:
256,192,151348,1,8,0:0:0:0:
256,192,151428,1,0,0:0:0:0:
256,192,151508,1,0,0:0:0:0:
256,192,151587,1,0,0:0:0:0:
256,192,151667,1,0,0:0:0:0:
256,192,151747,1,0,0:0:0:0:
256,192,151826,1,0,0:0:0:0:
256,192,151906,1,0,0:0:0:0:
256,192,151986,1,0,0:0:0:0:
256,192,152066,1,0,0:0:0:0:
256,192,152146,1,0,0:0:0:0:
256,192,152225,1,0,0:0:0:0:
256,192,152305,1,0,0:0:0:0:
256,192,152385,1,0,0:0:0:0:
256,192,152465,1,0,0:0:0:0:
256,192,152545,1,0,0:0:0:0:
256,192,152624,1,0,0:0:0:0:
256,192,152704,1,0,0:0:0:0:
256,192,152784,1,0,0:0:0:0:
256,192,152864,1,0,0:0:0:0:
256,192,152943,1,0,0:0:0:0:
256,192,153023,1,0,0:0:0:0:
256,192,153103,1,0,0:0:0:0:
256,192,153183,1,0,0:0:0:0:
256,192,153263,1,0,0:0:0:0:
256,192,153342,1,0,0:0:0:0:
256,192,153422,1,0,0:0:0:0:
256,192,153502,1,0,0:0:0:0:
256,192,153582,1,0,0:0:0:0:
256,192,153662,1,0,0:0:0:0:
256,192,153741,1,0,0:0:0:0:
256,192,153821,1,0,0:0:0:0:
256,192,153901,1,8,0:0:0:0:
256,192,153981,1,0,0:0:0:0:
256,192,154061,1,0,0:0:0:0:
256,192,154140,1,0,0:0:0:0:
256,192,154220,1,12,0:0:0:0:
256,192,154300,1,0,0:0:0:0:
256,192,154380,1,0,0:0:0:0:
256,192,154460,1,0,0:0:0:0:
256,192,154539,1,0,0:0:0:0:
256,192,154619,1,0,0:0:0:0:
256,192,154699,1,0,0:0:0:0:
256,192,154779,1,0,0:0:0:0:
256,192,154859,1,0,0:0:0:0:
256,192,154938,1,0,0:0:0:0:
256,192,155018,1,0,0:0:0:0:
256,192,155098,1,0,0:0:0:0:
256,192,155178,1,8,0:0:0:0:
256,192,155258,1,0,0:0:0:0:
256,192,155337,1,0,0:0:0:0:
256,192,155417,1,0,0:0:0:0:
256,192,155497,1,0,0:0:0:0:
256,192,155577,1,0,0:0:0:0:
256,192,155657,1,8,0:0:0:0:
256,192,155736,1,0,0:0:0:0:
256,192,155816,1,0,0:0:0:0:
256,192,155896,1,0,0:0:0:0:
256,192,155976,1,0,0:0:0:0:
256,192,156056,1,0,0:0:0:0:
256,192,156136,1,8,0:0:0:0:
256,192,156215,1,0,0:0:0:0:
256,192,156295,1,0,0:0:0:0:
256,192,156375,1,0,0:0:0:0:
256,192,156455,1,8,0:0:0:0:
256,192,156534,1,8,0:0:0:0:
256,192,156614,1,8,0:0:0:0:
256,192,156694,1,8,0:0:0:0:
256,192,156774,1,8,0:0:0:0:
256,192,156853,1,8,0:0:0:0:
256,192,156933,1,8,0:0:0:0:
256,192,157013,1,8,0:0:0:0:
256,192,157093,1,8,0:0:0:0:
256,192,157173,1,8,0:0:0:0:
256,192,157252,1,8,0:0:0:0:
256,192,157332,1,8,0:0:0:0:
256,192,157412,1,8,0:0:0:0:
256,192,157492,1,8,0:0:0:0:
256,192,157572,1,8,0:0:0:0:
256,192,157651,1,8,0:0:0:0:
256,192,157731,1,8,0:0:0:0:
256,192,157811,1,8,0:0:0:0:
256,192,157891,1,8,0:0:0:0:
256,192,157971,1,8,0:0:0:0:
256,192,158050,1,8,0:0:0:0:
256,192,158130,1,8,0:0:0:0:
256,192,158210,1,8,0:0:0:0:
256,192,158290,1,8,0:0:0:0:
256,192,158370,1,8,0:0:0:0:
256,192,158449,1,8,0:0:0:0:
256,192,158529,1,8,0:0:0:0:
256,192,158609,1,8,0:0:0:0:
256,192,158689,1,8,0:0:0:0:
256,192,158769,1,8,0:0:0:0:
256,192,158848,1,8,0:0:0:0:
256,192,158928,1,8,0:0:0:0:
256,192,159008,1,8,0:0:0:0:
256,192,159088,1,8,0:0:0:0:
256,192,159168,1,8,0:0:0:0:
256,192,159247,1,8,0:0:0:0:
256,192,159327,1,8,0:0:0:0:
256,192,159407,1,8,0:0:0:0:
256,192,159487,1,8,0:0:0:0:
256,192,159567,1,8,0:0:0:0:
256,192,159646,1,8,0:0:0:0:
256,192,159726,1,8,0:0:0:0:
256,192,159806,1,8,0:0:0:0:
256,192,159886,1,8,0:0:0:0:
256,192,159966,1,8,0:0:0:0:
256,192,160045,1,8,0:0:0:0:
256,192,160125,1,8,0:0:0:0:
256,192,160205,1,8,0:0:0:0:
256,192,160285,1,8,0:0:0:0:
256,192,160364,1,8,0:0:0:0:
256,192,160444,1,8,0:0:0:0:
256,192,160524,1,8,0:0:0:0:
256,192,160604,1,8,0:0:0:0:
256,192,160684,1,8,0:0:0:0:
256,192,160763,1,8,0:0:0:0:
256,192,160843,1,8,0:0:0:0:
256,192,160923,1,8,0:0:0:0:
256,192,161003,1,8,0:0:0:0:
256,192,161083,1,8,0:0:0:0:
256,192,161162,1,8,0:0:0:0:
256,192,161242,1,8,0:0:0:0:
256,192,161322,1,8,0:0:0:0:
256,192,161402,1,8,0:0:0:0:
256,192,161482,1,8,0:0:0:0:
256,192,161561,1,8,0:0:0:0:
256,192,161641,1,8,0:0:0:0:
256,192,161721,1,8,0:0:0:0:
256,192,161801,1,8,0:0:0:0:
256,192,161881,1,8,0:0:0:0:
256,192,161960,1,8,0:0:0:0:
256,192,162040,1,8,0:0:0:0:
256,192,162120,1,8,0:0:0:0:
256,192,162200,1,8,0:0:0:0:
256,192,162280,1,8,0:0:0:0:
256,192,162359,1,8,0:0:0:0:
256,192,162439,1,8,0:0:0:0:
256,192,162519,1,8,0:0:0:0:
256,192,162599,1,8,0:0:0:0:
256,192,162679,1,8,0:0:0:0:
256,192,162758,1,8,0:0:0:0:
256,192,162838,1,8,0:0:0:0:
256,192,162918,1,8,0:0:0:0:
256,192,162998,1,8,0:0:0:0:
256,192,163078,1,8,0:0:0:0:
256,192,163157,1,8,0:0:0:0:
256,192,163237,1,8,0:0:0:0:
256,192,163317,1,8,0:0:0:0:
256,192,163397,1,8,0:0:0:0:
256,192,163477,1,8,0:0:0:0:
256,192,163556,1,8,0:0:0:0:
256,192,163636,1,8,0:0:0:0:
256,192,163716,1,8,0:0:0:0:
256,192,163796,1,8,0:0:0:0:
256,192,163876,1,8,0:0:0:0:
256,192,163955,1,8,0:0:0:0:
256,192,164035,1,8,0:0:0:0:
256,192,164115,1,8,0:0:0:0:
256,192,164195,1,8,0:0:0:0:
256,192,164274,1,8,0:0:0:0:
256,192,164354,1,8,0:0:0:0:
256,192,164434,1,8,0:0:0:0:
256,192,164514,1,8,0:0:0:0:
256,192,164594,1,8,0:0:0:0:
256,192,164673,1,8,0:0:0:0:
256,192,164753,1,8,0:0:0:0:
256,192,164833,1,8,0:0:0:0:
256,192,164913,1,8,0:0:0:0:
256,192,164993,1,8,0:0:0:0:
256,192,165072,1,8,0:0:0:0:
256,192,165152,1,8,0:0:0:0:
256,192,165232,1,8,0:0:0:0:
256,192,165312,1,8,0:0:0:0:
256,192,165392,1,8,0:0:0:0:
256,192,165471,1,8,0:0:0:0:
256,192,165551,1,8,0:0:0:0:
256,192,165631,1,8,0:0:0:0:
256,192,165711,5,8,0:0:0:0:
256,192,165791,1,8,0:0:0:0:
256,192,165870,1,8,0:0:0:0:
256,192,165950,1,8,0:0:0:0:
256,192,166030,1,8,0:0:0:0:
256,192,166110,1,8,0:0:0:0:
256,192,166190,1,8,0:0:0:0:
256,192,166269,1,8,0:0:0:0:
256,192,166349,1,8,0:0:0:0:
256,192,166429,1,8,0:0:0:0:
256,192,166509,1,8,0:0:0:0:
256,192,166589,1,8,0:0:0:0:
256,192,166668,1,8,0:0:0:0:
256,192,166748,1,8,0:0:0:0:
256,192,166828,1,8,0:0:0:0:
256,192,166908,1,8,0:0:0:0:
256,192,166988,1,8,0:0:0:0:
256,192,167067,1,8,0:0:0:0:
256,192,167147,1,8,0:0:0:0:
256,192,167227,1,8,0:0:0:0:
256,192,167307,1,8,0:0:0:0:
256,192,167387,1,8,0:0:0:0:
256,192,167466,1,8,0:0:0:0:
256,192,167546,1,8,0:0:0:0:
256,192,167626,1,8,0:0:0:0:
256,192,167706,1,8,0:0:0:0:
256,192,167785,1,8,0:0:0:0:
256,192,168027,1,0,0:0:0:0:
256,192,168107,1,0,0:0:0:0:
256,192,168187,1,0,0:0:0:0:
256,192,168267,1,0,0:0:0:0:
256,192,168346,1,0,0:0:0:0:
256,192,168426,1,0,0:0:0:0:
256,192,168506,1,0,0:0:0:0:
256,192,168586,1,0,0:0:0:0:
256,192,168666,1,0,0:0:0:0:
256,192,168745,1,0,0:0:0:0:
256,192,168825,1,0,0:0:0:0:
256,192,168905,1,0,0:0:0:0:
256,192,168985,1,0,0:0:0:0:
256,192,169065,1,0,0:0:0:0:
256,192,169144,1,0,0:0:0:0:
256,192,169224,1,0,0:0:0:0:
256,192,169304,1,0,0:0:0:0:
256,192,169384,1,0,0:0:0:0:
256,192,169464,1,0,0:0:0:0:
256,192,169543,1,0,0:0:0:0:
256,192,169623,1,0,0:0:0:0:
256,192,169703,1,0,0:0:0:0:
256,192,169783,1,0,0:0:0:0:
256,192,169863,1,0,0:0:0:0:
256,192,169942,1,0,0:0:0:0:
256,192,170022,1,0,0:0:0:0:
256,192,170102,1,0,0:0:0:0:
256,192,170368,5,0,0:0:0:0:
256,192,170416,1,8,0:0:0:0:
256,192,170474,1,8,0:0:0:0:
256,192,170527,1,0,0:0:0:0:
256,192,170580,1,0,0:0:0:0:
256,192,170634,1,0,0:0:0:0:
256,192,170687,1,0,0:0:0:0:
256,192,170740,1,0,0:0:0:0:
256,192,170793,1,0,0:0:0:0:
256,192,170847,1,0,0:0:0:0:
256,192,170900,1,0,0:0:0:0:
256,192,170953,1,0,0:0:0:0:
256,192,171099,5,4,0:0:0:0:
256,192,171498,1,8,0:0:0:0:
256,192,171897,1,0,0:0:0:0:
256,192,172296,1,0,0:0:0:0:
256,192,172696,1,0,0:0:0:0:
256,192,173134,1,8,0:0:0:0:
256,192,173533,1,8,0:0:0:0:
256,192,173972,1,4,0:0:0:0:
256,192,175050,1,8,0:0:0:0:
256,192,175103,1,0,0:0:0:0:
256,192,175156,1,0,0:0:0:0:
256,192,175209,1,8,0:0:0:0:
256,192,175263,1,8,0:0:0:0:
256,192,175369,1,8,0:0:0:0:
256,192,175475,1,8,0:0:0:0:
256,192,176348,12,0,177306,0:0:0:0:
256,192,178263,5,0,0:0:0:0:
256,192,178662,1,0,0:0:0:0:
256,192,179061,1,8,0:0:0:0:
256,192,179859,1,0,0:0:0:0:
256,192,180258,1,8,0:0:0:0:
256,192,181136,1,0,0:0:0:0:
256,192,181535,1,8,0:0:0:0:
256,192,182732,1,0,0:0:0:0:
256,192,183450,2,0,L|277:174,28,24.4999992523194
256,192,185844,1,0,0:0:0:0:
256,192,186642,1,8,0:0:0:0:
256,192,186881,1,0,0:0:0:0:
256,192,187041,1,8,0:0:0:0:
256,192,187120,1,0,0:0:0:0:
256,192,187918,1,0,0:0:0:0:
256,192,188158,1,0,0:0:0:0:
256,192,188397,1,8,0:0:0:0:
256,192,188876,1,8,0:0:0:0:
256,192,189681,1,0,0:0:0:0:
256,192,190106,1,8,0:0:0:0:
256,192,190319,1,0,0:0:0:0:
256,192,190745,1,0,0:0:0:0:
256,192,190851,1,8,0:0:0:0:
256,192,192128,1,0,0:0:0:0:
256,192,192234,1,8,0:0:0:0:
256,192,192660,1,8,0:0:0:0:
256,192,193085,1,8,0:0:0:0:
256,192,193405,1,8,0:0:0:0:
256,192,193511,1,0,0:0:0:0:
256,192,195978,1,0,0:0:0:0:
256,192,196058,1,0,0:0:0:0:
256,192,196137,1,8,0:0:0:0:
256,192,196536,1,0,0:0:0:0:
256,192,196935,1,0,0:0:0:0:
256,192,197255,1,0,0:0:0:0:
256,192,197334,1,0,0:0:0:0:
256,192,197414,1,8,0:0:0:0:
256,192,198725,5,0,0:0:0:0:
256,192,198831,1,0,0:0:0:0:
256,192,198938,1,0,0:0:0:0:
256,192,199151,1,8,0:0:0:0:
256,192,199576,1,0,0:0:0:0:
256,192,200002,5,0,0:0:0:0:
256,192,200108,1,0,0:0:0:0:
256,192,200215,1,0,0:0:0:0:
256,192,200427,1,8,0:0:0:0:
256,192,200640,1,8,0:0:0:0:
256,192,200853,1,0,0:0:0:0:
256,192,201066,1,8,0:0:0:0:
256,192,201279,5,0,0:0:0:0:
256,192,201385,1,0,0:0:0:0:
256,192,201492,1,0,0:0:0:0:
256,192,201704,1,8,0:0:0:0:
256,192,202130,1,8,0:0:0:0:
256,192,202556,5,8,0:0:0:0:
256,192,202662,1,8,0:0:0:0:
256,192,202769,1,8,0:0:0:0:
256,192,202981,1,0,0:0:0:0:
256,192,203407,1,8,0:0:0:0:
256,192,203832,5,0,0:0:0:0:
256,192,203938,1,0,0:0:0:0:
256,192,204045,1,0,0:0:0:0:
256,192,204257,1,8,0:0:0:0:
256,192,204470,1,0,0:0:0:0:
256,192,204684,1,8,0:0:0:0:
256,192,204897,1,8,0:0:0:0:
256,192,205109,5,0,0:0:0:0:
256,192,205215,1,0,0:0:0:0:
256,192,205322,1,0,0:0:0:0:
256,192,205534,1,0,0:0:0:0:
256,192,205747,1,8,0:0:0:0:
256,192,205961,1,8,0:0:0:0:
256,192,206333,5,0,0:0:0:0:
256,192,206439,1,0,0:0:0:0:
256,192,206546,1,0,0:0:0:0:
256,192,206758,1,12,0:0:0:0:
256,192,206971,1,0,0:0:0:0:
256,192,207184,1,12,0:0:0:0:
256,192,207610,5,0,0:0:0:0:
256,192,207716,1,0,0:0:0:0:
256,192,207823,1,0,0:0:0:0:
256,192,208035,1,12,0:0:0:0:
256,192,208193,1,8,0:0:0:0:
256,192,208248,1,8,0:0:0:0:
256,192,208301,1,8,0:0:0:0:
256,192,208408,1,8,0:0:0:0:
256,192,208514,1,8,0:0:0:0:
256,192,208622,1,0,0:0:0:0:
256,192,208728,1,0,0:0:0:0:
256,192,208942,5,0,0:0:0:0:
256,192,209048,1,0,0:0:0:0:
256,192,209153,1,0,0:0:0:0:
256,192,209472,1,0,0:0:0:0:
256,192,209898,1,0,0:0:0:0:
256,192,210111,5,8,0:0:0:0:
256,192,210217,1,0,0:0:0:0:
256,192,210322,1,0,0:0:0:0:
256,192,210749,1,0,0:0:0:0:
256,192,211175,1,0,0:0:0:0:
256,192,211388,5,8,0:0:0:0:
256,192,211494,1,0,0:0:0:0:
256,192,211599,1,0,0:0:0:0:
256,192,211919,1,0,0:0:0:0:
256,192,212345,1,0,0:0:0:0:
256,192,212558,5,8,0:0:0:0:
256,192,212664,1,0,0:0:0:0:
256,192,212769,1,0,0:0:0:0:
256,192,213090,1,0,0:0:0:0:
256,192,213516,1,0,0:0:0:0:
256,192,213729,5,8,0:0:0:0:
256,192,213835,1,0,0:0:0:0:
256,192,213940,1,0,0:0:0:0:
256,192,214367,1,0,0:0:0:0:
256,192,214793,1,0,0:0:0:0:
256,192,215006,5,8,0:0:0:0:
256,192,215112,1,0,0:0:0:0:
256,192,215217,1,0,0:0:0:0:
256,192,215537,1,0,0:0:0:0:
256,192,215963,1,0,0:0:0:0:
256,192,216176,5,8,0:0:0:0:
256,192,216282,1,0,0:0:0:0:
256,192,216387,1,0,0:0:0:0:
256,192,216495,1,0,0:0:0:0:
256,192,216654,1,8,0:0:0:0:
256,192,217080,1,0,0:0:0:0:
256,192,217186,1,0,0:0:0:0:
256,192,217291,1,0,0:0:0:0:
256,192,217400,5,8,0:0:0:0:
256,192,217505,1,0,0:0:0:0:
256,192,217611,1,0,0:0:0:0:
256,192,217716,1,0,0:0:0:0:
256,192,217878,5,12,0:0:0:0:
256,192,218304,2,0,L|312:192,3,32.6666656697591
256,192,218623,5,0,0:0:0:0:
256,192,218729,1,8,0:0:0:0:
256,192,218836,1,0,0:0:0:0:
256,192,218942,1,8,0:0:0:0:
256,192,219048,1,8,0:0:0:0:
256,192,219155,1,0,0:0:0:0:
256,192,219261,1,0,0:0:0:0:
256,192,219368,1,8,0:0:0:0:
256,192,219474,1,8,0:0:0:0:
256,192,219580,1,8,0:0:0:0:
256,192,219687,1,0,0:0:0:0:
256,192,220019,1,8,0:0:0:0:
256,192,220099,1,8,0:0:0:0:
256,192,220179,1,0,0:0:0:0:
256,192,220339,1,8,0:0:0:0:
256,192,220458,1,0,0:0:0:0:
256,192,220578,1,8,0:0:0:0:
256,192,220698,1,0,0:0:0:0:
256,192,220738,1,0,0:0:0:0:
256,192,220897,1,8,0:0:0:0:
256,192,221017,1,8,0:0:0:0:
256,192,221137,1,8,0:0:0:0:
256,192,221283,12,0,222240,0:0:0:0:
256,192,222550,6,0,L|277:174,14,24.4999992523194
256,192,223571,1,0,0:0:0:0:
256,192,223730,1,0,0:0:0:0:
256,192,223890,1,0,0:0:0:0:
256,192,223916,1,0,0:0:0:0:
256,192,223943,1,8,0:0:0:0:
256,192,223996,1,8,0:0:0:0:
256,192,224049,1,0,0:0:0:0:
256,192,224315,1,0,0:0:0:0:
256,192,224316,1,0,0:0:0:0:
256,192,224369,1,8,0:0:0:0:
256,192,224582,1,0,0:0:0:0:
256,192,224848,1,8,0:0:0:0:
256,192,225114,1,8,0:0:0:0:
256,192,225273,1,0,0:0:0:0:
256,192,225310,1,0,0:0:0:0:
256,192,225363,1,8,0:0:0:0:
256,192,225416,1,8,0:0:0:0:
256,192,225469,1,0,0:0:0:0:
256,192,225699,1,0,0:0:0:0:
256,192,225912,1,0,0:0:0:0:
256,192,226124,1,0,0:0:0:0:
256,192,226284,2,0,L|304:192,12,48.9999985046387
256,192,227601,1,8,0:0:0:0:
256,192,227774,1,0,0:0:0:0:
256,192,227827,1,0,0:0:0:0:
256,192,227880,1,0,0:0:0:0:
256,192,227933,1,0,0:0:0:0:
256,192,228040,1,8,0:0:0:0:
256,192,228974,1,0,0:0:0:0:
256,192,229053,1,0,0:0:0:0:
256,192,229133,1,0,0:0:0:0:
256,192,229332,1,0,0:0:0:0:
256,192,229373,1,0,0:0:0:0:
256,192,229412,1,8,0:0:0:0:
256,192,229652,1,0,0:0:0:0:
256,192,229731,1,0,0:0:0:0:
256,192,229811,1,8,0:0:0:0:
256,192,230051,1,8,0:0:0:0:
256,192,230130,1,8,0:0:0:0:
256,192,230210,1,8,0:0:0:0:
256,192,230450,1,0,0:0:0:0:
256,192,230529,1,8,0:0:0:0:
256,192,230609,1,8,0:0:0:0:
256,192,230689,1,0,0:0:0:0:
256,192,231008,1,0,0:0:0:0:
256,192,231088,1,0,0:0:0:0:
256,192,231168,1,8,0:0:0:0:
256,192,231248,1,8,0:0:0:0:
256,192,231327,1,8,0:0:0:0:
256,192,231407,1,8,0:0:0:0:
256,192,231487,1,0,0:0:0:0:
256,192,231567,1,8,0:0:0:0:
256,192,231646,1,8,0:0:0:0:
256,192,231726,1,8,0:0:0:0:
256,192,231806,1,8,0:0:0:0:
256,192,231886,1,0,0:0:0:0:
256,192,231966,1,8,0:0:0:0:
256,192,232045,1,0,0:0:0:0:
256,192,232125,1,8,0:0:0:0:
256,192,232205,1,0,0:0:0:0:
256,192,232285,1,0,0:0:0:0:
256,192,232365,1,0,0:0:0:0:
256,192,232444,1,0,0:0:0:0:
256,192,232604,1,0,0:0:0:0:
256,192,232684,1,0,0:0:0:0:
256,192,232764,1,0,0:0:0:0:
256,192,233466,5,0,0:0:0:0:
256,192,233706,1,8,0:0:0:0:
256,192,233865,1,0,0:0:0:0:
256,192,234025,1,8,0:0:0:0:
256,192,234105,1,0,0:0:0:0:
256,192,234264,1,0,0:0:0:0:
256,192,234424,1,0,0:0:0:0:
256,192,234584,1,0,0:0:0:0:
256,192,234663,1,0,0:0:0:0:
256,192,234743,1,0,0:0:0:0:
256,192,234823,1,0,0:0:0:0:
256,192,235317,1,0,0:0:0:0:
256,192,235397,1,0,0:0:0:0:
256,192,235477,1,0,0:0:0:0:
256,192,235556,1,0,0:0:0:0:
256,192,235636,1,0,0:0:0:0:
256,192,235716,1,0,0:0:0:0:
256,192,235796,1,0,0:0:0:0:
256,192,235876,1,0,0:0:0:0:
256,192,235955,1,0,0:0:0:0:
256,192,236035,1,0,0:0:0:0:
256,192,236115,1,0,0:0:0:0:
256,192,236195,1,0,0:0:0:0:
256,192,236354,1,0,0:0:0:0:
256,192,236674,1,0,0:0:0:0:
256,192,236913,1,0,0:0:0:0:
256,192,237152,1,0,0:0:0:0:
256,192,237392,1,0,0:0:0:0:
256,192,238414,1,0,0:0:0:0:
256,192,238893,1,12,0:0:0:0:
256,192,239372,1,0,0:0:0:0:
256,192,239532,1,8,0:0:0:0:
256,192,240185,5,8,0:0:0:0:
256,192,240264,1,0,0:0:0:0:
256,192,240344,1,0,0:0:0:0:
256,192,240424,1,0,0:0:0:0:
256,192,240504,1,0,0:0:0:0:
256,192,240584,1,0,0:0:0:0:
256,192,240663,1,0,0:0:0:0:
256,192,240743,1,0,0:0:0:0:
256,192,240823,1,0,0:0:0:0:
256,192,240903,1,0,0:0:0:0:
256,192,240983,1,0,0:0:0:0:
256,192,241062,1,0,0:0:0:0:
256,192,241142,1,0,0:0:0:0:
256,192,241222,1,0,0:0:0:0:
256,192,241302,1,0,0:0:0:0:
256,192,241382,1,0,0:0:0:0:
256,192,241461,1,0,0:0:0:0:
256,192,241541,1,8,0:0:0:0:
256,192,241872,1,0,0:0:0:0:
256,192,242192,1,4,0:0:0:0:
256,192,242511,1,12,0:0:0:0:
256,192,242937,5,8,0:0:0:0:
256,192,243362,1,8,0:0:0:0:
256,192,243415,1,8,0:0:0:0:
256,192,243469,1,8,0:0:0:0:
256,192,243522,1,8,0:0:0:0:
256,192,243575,1,0,0:0:0:0:
256,192,243628,1,0,0:0:0:0:
256,192,243681,1,0,0:0:0:0:
256,192,243735,1,0,0:0:0:0:
256,192,243788,1,8,0:0:0:0:
256,192,243841,1,8,0:0:0:0:
256,192,243894,1,0,0:0:0:0:
256,192,243947,1,0,0:0:0:0:
256,192,244001,1,0,0:0:0:0:
256,192,244054,1,0,0:0:0:0:
256,192,244160,1,12,0:0:0:0:
256,192,244639,5,0,0:0:0:0:
256,192,244852,1,8,0:0:0:0:
256,192,245224,1,0,0:0:0:0:
256,192,245277,1,0,0:0:0:0:
256,192,245331,1,0,0:0:0:0:
256,192,245384,1,0,0:0:0:0:
256,192,245437,1,8,0:0:0:0:
256,192,245637,1,8,0:0:0:0:
256,192,245836,1,0,0:0:0:0:
256,192,245890,1,0,0:0:0:0:
256,192,245943,1,0,0:0:0:0:
256,192,245996,1,0,0:0:0:0:
256,192,246049,1,8,0:0:0:0:
256,192,246249,1,8,0:0:0:0:
256,192,246474,1,0,0:0:0:0:
256,192,246514,1,0,0:0:0:0:
256,192,246554,1,0,0:0:0:0:
256,192,246594,1,0,0:0:0:0:
256,192,246634,1,8,0:0:0:0:
256,192,246674,1,8,0:0:0:0:
256,192,248071,1,8,0:0:0:0:
256,192,248124,1,8,0:0:0:0:
256,192,248178,1,8,0:0:0:0:
256,192,248231,1,8,0:0:0:0:
256,192,248284,1,0,0:0:0:0:
256,192,248337,1,0,0:0:0:0:
256,192,248390,1,0,0:0:0:0:
256,192,248444,1,0,0:0:0:0:
256,192,248497,1,8,0:0:0:0:
256,192,248550,1,8,0:0:0:0:
256,192,248603,1,0,0:0:0:0:
256,192,248656,1,0,0:0:0:0:
256,192,248710,1,0,0:0:0:0:
256,192,248763,1,0,0:0:0:0:
256,192,249228,5,12,0:0:0:0:
256,192,249547,1,4,0:0:0:0:
256,192,249866,1,4,0:0:0:0:
256,192,250185,1,12,0:0:0:0:
256,192,254428,6,0,L|320:192,27,48.9999985046387
256,192,256901,5,4,0:0:0:0:
256,192,257300,1,0,0:0:0:0:
256,192,257460,1,0,0:0:0:0:
256,192,257779,1,0,0:0:0:0:
256,192,257939,1,0,0:0:0:0:
256,192,258258,1,0,0:0:0:0:
256,192,258338,1,0,0:0:0:0:
256,192,258418,1,0,0:0:0:0:
256,192,258577,1,0,0:0:0:0:
256,192,258657,1,0,0:0:0:0:
256,192,258737,1,0,0:0:0:0:
256,192,258816,1,0,0:0:0:0:
256,192,258896,1,8,0:0:0:0:
256,192,258976,1,8,0:0:0:0:
256,192,259056,1,0,0:0:0:0:
256,192,259136,1,0,0:0:0:0:
256,192,259215,1,8,0:0:0:0:
256,192,259535,1,0,0:0:0:0:
256,192,259615,1,0,0:0:0:0:
256,192,259695,1,0,0:0:0:0:
256,192,259775,1,0,0:0:0:0:
256,192,259855,1,0,0:0:0:0:
256,192,259934,1,0,0:0:0:0:
256,192,260014,1,0,0:0:0:0:
256,192,260094,1,0,0:0:0:0:
256,192,260174,1,0,0:0:0:0:
256,192,260254,1,0,0:0:0:0:
256,192,260333,1,0,0:0:0:0:
256,192,260413,1,0,0:0:0:0:
256,192,260493,1,0,0:0:0:0:
256,192,260573,1,0,0:0:0:0:
256,192,260653,1,0,0:0:0:0:
256,192,260732,1,0,0:0:0:0:
256,192,260812,1,0,0:0:0:0:
256,192,260892,1,0,0:0:0:0:
256,192,260972,1,0,0:0:0:0:
256,192,261091,1,0,0:0:0:0:
256,192,261171,1,0,0:0:0:0:
256,192,261251,1,0,0:0:0:0:
256,192,261330,1,0,0:0:0:0:
256,192,261410,1,0,0:0:0:0:
256,192,261490,1,0,0:0:0:0:
256,192,261570,1,0,0:0:0:0:
256,192,261650,1,0,0:0:0:0:
256,192,261729,1,0,0:0:0:0:
256,192,261809,1,0,0:0:0:0:
256,192,261889,1,0,0:0:0:0:
256,192,261969,1,0,0:0:0:0:
256,192,262049,1,0,0:0:0:0:
256,192,262407,1,0,0:0:0:0:
256,192,262527,1,0,0:0:0:0:
256,192,262607,1,0,0:0:0:0:
256,192,262687,1,0,0:0:0:0:
256,192,262767,1,0,0:0:0:0:
256,192,262847,1,0,0:0:0:0:
256,192,262926,1,0,0:0:0:0:
256,192,263006,1,0,0:0:0:0:
256,192,263086,1,0,0:0:0:0:
256,192,263166,1,0,0:0:0:0:
256,192,263246,1,0,0:0:0:0:
256,192,263433,1,0,0:0:0:0:
256,192,263513,1,0,0:0:0:0:
256,192,264071,1,0,0:0:0:0:
256,192,264151,1,0,0:0:0:0:
256,192,264602,1,0,0:0:0:0:
256,192,264682,1,0,0:0:0:0:
256,192,264762,1,0,0:0:0:0:
256,192,264842,1,0,0:0:0:0:
256,192,264921,1,0,0:0:0:0:
256,192,265001,1,0,0:0:0:0:
256,192,265081,1,0,0:0:0:0:
256,192,265161,1,0,0:0:0:0:
256,192,265240,1,0,0:0:0:0:
256,192,265320,1,0,0:0:0:0:
256,192,265400,1,0,0:0:0:0:
256,192,265480,1,0,0:0:0:0:
256,192,265560,1,0,0:0:0:0:
256,192,265639,1,0,0:0:0:0:
256,192,265719,1,0,0:0:0:0:
256,192,265799,1,0,0:0:0:0:
256,192,265879,1,0,0:0:0:0:
256,192,265959,1,0,0:0:0:0:
256,192,266038,1,0,0:0:0:0:
256,192,266118,1,0,0:0:0:0:
256,192,266198,1,0,0:0:0:0:
256,192,266278,1,0,0:0:0:0:
256,192,266358,1,0,0:0:0:0:
256,192,266437,1,0,0:0:0:0:
256,192,266517,1,0,0:0:0:0:
256,192,266597,1,0,0:0:0:0:
256,192,266677,1,0,0:0:0:0:
256,192,266757,1,0,0:0:0:0:
256,192,266836,1,0,0:0:0:0:
256,192,266916,1,0,0:0:0:0:
256,192,266996,1,0,0:0:0:0:
256,192,267076,1,0,0:0:0:0:
256,192,267156,1,0,0:0:0:0:
256,192,267235,1,0,0:0:0:0:
256,192,267315,1,0,0:0:0:0:
256,192,267395,1,0,0:0:0:0:
256,192,267475,1,0,0:0:0:0:
256,192,267555,1,0,0:0:0:0:
256,192,267634,1,0,0:0:0:0:
256,192,267714,1,0,0:0:0:0:
256,192,267794,1,0,0:0:0:0:
256,192,267874,1,0,0:0:0:0:
256,192,267954,1,0,0:0:0:0:
256,192,268033,1,0,0:0:0:0:
256,192,268113,1,0,0:0:0:0:
256,192,268193,1,0,0:0:0:0:
256,192,268273,1,0,0:0:0:0:
256,192,268353,1,0,0:0:0:0:
256,192,268432,1,0,0:0:0:0:
256,192,268512,1,0,0:0:0:0:
256,192,268592,1,0,0:0:0:0:
256,192,268672,1,0,0:0:0:0:
256,192,268751,1,0,0:0:0:0:
256,192,268831,1,0,0:0:0:0:
256,192,268911,1,0,0:0:0:0:
256,192,268991,1,0,0:0:0:0:
256,192,269071,1,0,0:0:0:0:
256,192,269150,1,0,0:0:0:0:
256,192,269230,1,0,0:0:0:0:
256,192,269310,1,0,0:0:0:0:
256,192,269390,1,0,0:0:0:0:
256,192,269470,1,0,0:0:0:0:
256,192,269644,5,0,0:0:0:0:
256,192,269698,1,0,0:0:0:0:
256,192,269751,1,0,0:0:0:0:
256,192,269804,1,0,0:0:0:0:
256,192,269857,1,0,0:0:0:0:
256,192,269910,1,8,0:0:0:0:
256,192,270070,1,8,0:0:0:0:
256,192,270124,1,0,0:0:0:0:
256,192,270177,1,0,0:0:0:0:
256,192,270230,1,0,0:0:0:0:
256,192,270283,1,0,0:0:0:0:
256,192,270336,1,0,0:0:0:0:
256,192,270389,1,8,0:0:0:0:
256,192,270549,1,0,0:0:0:0:
256,192,270602,1,0,0:0:0:0:
256,192,270655,1,8,0:0:0:0:
256,192,270815,5,0,0:0:0:0:
256,192,270869,1,0,0:0:0:0:
256,192,270922,1,0,0:0:0:0:
256,192,270975,1,0,0:0:0:0:
256,192,271028,1,0,0:0:0:0:
256,192,271081,1,8,0:0:0:0:
256,192,271241,1,8,0:0:0:0:
256,192,271295,1,0,0:0:0:0:
256,192,271348,1,0,0:0:0:0:
256,192,271401,1,0,0:0:0:0:
256,192,271454,1,0,0:0:0:0:
256,192,271507,1,0,0:0:0:0:
256,192,271560,1,8,0:0:0:0:
256,192,271720,1,0,0:0:0:0:
256,192,271773,1,0,0:0:0:0:
256,192,271826,1,8,0:0:0:0:
256,192,271879,1,0,0:0:0:0:
256,192,271932,1,0,0:0:0:0:
256,192,271985,1,0,0:0:0:0:
256,192,272038,1,0,0:0:0:0:
256,192,272092,1,0,0:0:0:0:
256,192,272145,1,8,0:0:0:0:
256,192,272198,1,8,0:0:0:0:
256,192,272251,1,0,0:0:0:0:
256,192,272304,1,0,0:0:0:0:
256,192,272358,1,0,0:0:0:0:
256,192,272411,1,0,0:0:0:0:
256,192,272464,1,0,0:0:0:0:
256,192,272517,1,0,0:0:0:0:
256,192,272570,1,0,0:0:0:0:
256,192,272624,1,0,0:0:0:0:
256,192,272677,1,0,0:0:0:0:
256,192,272730,1,0,0:0:0:0:
256,192,272783,1,8,0:0:0:0:
256,192,272890,1,8,0:0:0:0:
256,192,272996,1,0,0:0:0:0:
256,192,273049,1,0,0:0:0:0:
256,192,273102,1,8,0:0:0:0:
256,192,273155,1,0,0:0:0:0:
256,192,273208,1,0,0:0:0:0:
256,192,273261,1,0,0:0:0:0:
256,192,273314,1,0,0:0:0:0:
256,192,273368,1,0,0:0:0:0:
256,192,273421,1,8,0:0:0:0:
256,192,273474,1,8,0:0:0:0:
256,192,273635,1,0,0:0:0:0:
256,192,273688,1,8,0:0:0:0:
256,192,273741,1,8,0:0:0:0:
256,192,273901,1,0,0:0:0:0:
256,192,273954,1,8,0:0:0:0:
256,192,274007,1,8,0:0:0:0:
256,192,274060,1,0,0:0:0:0:
256,192,274113,1,8,0:0:0:0:
256,192,274166,1,8,0:0:0:0:
256,192,274536,1,8,0:0:0:0:
256,192,274616,1,8,0:0:0:0:
256,192,274775,1,0,0:0:0:0:
256,192,275018,2,0,L|306:191,10,32.6666656697591
256,192,275656,5,8,0:0:0:0:
256,192,275763,1,0,0:0:0:0:
256,192,275816,1,0,0:0:0:0:
256,192,275869,1,0,0:0:0:0:
256,192,275922,1,0,0:0:0:0:
256,192,275975,1,0,0:0:0:0:
256,192,276029,1,8,0:0:0:0:
256,192,276188,1,0,0:0:0:0:
256,192,276242,1,12,0:0:0:0:
256,192,276401,1,0,0:0:0:0:
256,192,276454,1,0,0:0:0:0:
256,192,276508,1,8,0:0:0:0:
256,192,276561,1,8,0:0:0:0:
256,192,276615,1,0,0:0:0:0:
256,192,276773,1,0,0:0:0:0:
256,192,276933,1,0,0:0:0:0:
256,192,277040,1,8,0:0:0:0:
256,192,277147,1,0,0:0:0:0:
256,192,277252,1,0,0:0:0:0:
256,192,277382,1,0,0:0:0:0:
256,192,277435,1,8,0:0:0:0:
256,192,277489,1,8,0:0:0:0:
256,192,277542,1,0,0:0:0:0:
256,192,277595,1,0,0:0:0:0:
256,192,277648,1,0,0:0:0:0:
256,192,277808,1,8,0:0:0:0:
256,192,278127,1,0,0:0:0:0:
256,192,278526,1,0,0:0:0:0:
256,192,279005,1,0,0:0:0:0:
256,192,279324,1,4,0:0:0:0:
256,192,279484,1,0,0:0:0:0:
256,192,279564,1,0,0:0:0:0:
256,192,279644,1,0,0:0:0:0:
256,192,279724,1,0,0:0:0:0:
256,192,279803,1,0,0:0:0:0:
256,192,279883,1,0,0:0:0:0:
256,192,279963,1,0,0:0:0:0:
256,192,280043,1,0,0:0:0:0:
256,192,280122,1,0,0:0:0:0:
256,192,280202,1,0,0:0:0:0:
256,192,280282,1,0,0:0:0:0:
256,192,280362,1,0,0:0:0:0:
256,192,280442,1,0,0:0:0:0:
256,192,280521,1,0,0:0:0:0:
256,192,280680,5,8,0:0:0:0:
256,192,281136,1,0,0:0:0:0:
256,192,281615,1,8,0:0:0:0:
256,192,281934,1,0,0:0:0:0:
256,192,282013,1,0,0:0:0:0:
256,192,282093,1,0,0:0:0:0:
256,192,282173,1,0,0:0:0:0:
256,192,282253,1,8,0:0:0:0:
256,192,282333,1,0,0:0:0:0:
256,192,282412,1,0,0:0:0:0:
256,192,282492,1,8,0:0:0:0:
256,192,282572,1,0,0:0:0:0:
256,192,282652,1,0,0:0:0:0:
256,192,282732,1,8,0:0:0:0:
256,192,282811,1,0,0:0:0:0:
256,192,282891,1,0,0:0:0:0:
256,192,282971,1,0,0:0:0:0:
256,192,283051,1,0,0:0:0:0:
256,192,283211,1,12,0:0:0:0:
256,192,283371,1,0,0:0:0:0:
256,192,283424,1,0,0:0:0:0:
256,192,283477,1,0,0:0:0:0:
256,192,283690,1,4,0:0:0:0:
256,192,283849,1,0,0:0:0:0:
256,192,283903,1,0,0:0:0:0:
256,192,283956,1,0,0:0:0:0:
256,192,284191,1,12,0:0:0:0:
256,192,284510,1,0,0:0:0:0:
256,192,284590,1,0,0:0:0:0:
256,192,284670,1,0,0:0:0:0:
256,192,284749,1,0,0:0:0:0:
256,192,284829,1,0,0:0:0:0:
256,192,284909,1,0,0:0:0:0:
256,192,284989,1,8,0:0:0:0:
256,192,285069,1,0,0:0:0:0:
256,192,285148,1,0,0:0:0:0:
256,192,285233,1,8,0:0:0:0:
256,192,285308,1,0,0:0:0:0:
256,192,285388,1,0,0:0:0:0:
256,192,285468,1,8,0:0:0:0:
256,192,285547,1,0,0:0:0:0:
256,192,285627,1,0,0:0:0:0:
256,192,285707,1,8,0:0:0:0:
256,192,285787,1,0,0:0:0:0:
256,192,285867,1,0,0:0:0:0:
256,192,285946,1,0,0:0:0:0:
256,192,286026,1,0,0:0:0:0:
256,192,286106,1,0,0:0:0:0:
256,192,286186,1,0,0:0:0:0:
256,192,286266,1,0,0:0:0:0:
256,192,286345,1,0,0:0:0:0:
256,192,286425,1,0,0:0:0:0:
256,192,286505,1,8,0:0:0:0:
256,192,286585,1,0,0:0:0:0:
256,192,286665,1,0,0:0:0:0:
256,192,286744,1,0,0:0:0:0:
256,192,286824,1,8,0:0:0:0:
256,192,286904,1,0,0:0:0:0:
256,192,286984,1,0,0:0:0:0:
256,192,287064,1,0,0:0:0:0:
256,192,287143,1,0,0:0:0:0:
256,192,287223,1,0,0:0:0:0:
256,192,287303,1,0,0:0:0:0:
256,192,287383,1,0,0:0:0:0:
256,192,287462,1,0,0:0:0:0:
256,192,287542,1,0,0:0:0:0:
256,192,287622,1,0,0:0:0:0:
256,192,287702,1,0,0:0:0:0:
256,192,287782,1,0,0:0:0:0:
256,192,287861,1,0,0:0:0:0:
256,192,287941,1,0,0:0:0:0:
256,192,288021,1,0,0:0:0:0:
256,192,288101,1,0,0:0:0:0:
256,192,288181,1,0,0:0:0:0:
256,192,288260,1,0,0:0:0:0:
256,192,288340,1,0,0:0:0:0:
256,192,288420,1,0,0:0:0:0:
256,192,288500,1,0,0:0:0:0:
256,192,288580,1,0,0:0:0:0:
256,192,288659,1,0,0:0:0:0:
256,192,288739,1,0,0:0:0:0:
256,192,288819,1,0,0:0:0:0:
256,192,288899,1,0,0:0:0:0:
256,192,288979,1,8,0:0:0:0:
256,192,289058,1,0,0:0:0:0:
256,192,289138,1,0,0:0:0:0:
256,192,289218,1,0,0:0:0:0:
256,192,289298,1,0,0:0:0:0:
256,192,289436,1,0,0:0:0:0:
256,192,289489,1,0,0:0:0:0:
256,192,289542,1,0,0:0:0:0:
256,192,289702,1,12,0:0:0:0:
256,192,289781,1,0,0:0:0:0:
256,192,289861,1,0,0:0:0:0:
256,192,289941,1,0,0:0:0:0:
256,192,290021,1,12,0:0:0:0:
256,192,290101,1,0,0:0:0:0:
256,192,290180,1,0,0:0:0:0:
256,192,290260,1,0,0:0:0:0:
256,192,290340,1,12,0:0:0:0:
256,192,290420,1,0,0:0:0:0:
256,192,290500,1,0,0:0:0:0:
256,192,290579,1,0,0:0:0:0:
256,192,290659,1,12,0:0:0:0:
256,192,290739,1,0,0:0:0:0:
256,192,290925,1,0,0:0:0:0:
256,192,290978,1,12,0:0:0:0:
256,192,291297,1,12,0:0:0:0:
256,192,291377,1,0,0:0:0:0:
256,192,291457,1,0,0:0:0:0:
256,192,291537,1,0,0:0:0:0:
256,192,291617,1,12,0:0:0:0:
256,192,291696,1,0,0:0:0:0:
256,192,291776,1,0,0:0:0:0:
256,192,291856,1,0,0:0:0:0:
256,192,291936,1,12,0:0:0:0:
256,192,292016,1,0,0:0:0:0:
256,192,292095,1,0,0:0:0:0:
256,192,292175,1,0,0:0:0:0:
256,192,292255,1,12,0:0:0:0:
256,192,292335,1,0,0:0:0:0:
256,192,292415,1,0,0:0:0:0:
256,192,292494,1,0,0:0:0:0:
256,192,292574,1,12,0:0:0:0:
256,192,292654,1,0,0:0:0:0:
256,192,292734,1,0,0:0:0:0:
256,192,292814,1,0,0:0:0:0:
256,192,292893,1,12,0:0:0:0:
256,192,292973,1,0,0:0:0:0:
256,192,293053,1,0,0:0:0:0:
256,192,293133,1,0,0:0:0:0:
256,192,293213,1,12,0:0:0:0:
256,192,293292,1,0,0:0:0:0:
256,192,293372,1,0,0:0:0:0:
256,192,293452,1,0,0:0:0:0:
256,192,293532,1,12,0:0:0:0:
256,192,293691,1,0,0:0:0:0:
256,192,293771,1,0,0:0:0:0:
256,192,293851,1,0,0:0:0:0:
256,192,294011,1,0,0:0:0:0:
256,192,294090,1,0,0:0:0:0:
256,192,294170,1,0,0:0:0:0:
256,192,294330,1,0,0:0:0:0:
256,192,294490,1,0,0:0:0:0:
256,192,294570,1,0,0:0:0:0:
256,192,294649,1,0,0:0:0:0:
256,192,294808,1,12,0:0:0:0:
256,192,294888,1,0,0:0:0:0:
256,192,294968,1,0,0:0:0:0:
256,192,295048,1,0,0:0:0:0:
256,192,295128,1,12,0:0:0:0:
256,192,295207,1,0,0:0:0:0:
256,192,295287,1,0,0:0:0:0:
256,192,295367,1,0,0:0:0:0:
256,192,295447,1,12,0:0:0:0:
256,192,295527,1,0,0:0:0:0:
256,192,295606,1,0,0:0:0:0:
256,192,295686,1,0,0:0:0:0:
256,192,295766,1,12,0:0:0:0:
256,192,295846,1,0,0:0:0:0:
256,192,295926,1,0,0:0:0:0:
256,192,296005,1,0,0:0:0:0:
256,192,296085,1,12,0:0:0:0:
256,192,296165,1,0,0:0:0:0:
256,192,296245,1,0,0:0:0:0:
256,192,296325,1,0,0:0:0:0:
256,192,296404,1,12,0:0:0:0:
256,192,296484,1,0,0:0:0:0:
256,192,296564,1,0,0:0:0:0:
256,192,296644,1,0,0:0:0:0:
256,192,296724,1,12,0:0:0:0:
256,192,296803,1,0,0:0:0:0:
256,192,296883,1,0,0:0:0:0:
256,192,296963,1,0,0:0:0:0:
256,192,297043,1,12,0:0:0:0:
256,192,297123,1,0,0:0:0:0:
256,192,297202,1,0,0:0:0:0:
256,192,297282,1,0,0:0:0:0:
256,192,297362,1,12,0:0:0:0:
256,192,297442,1,0,0:0:0:0:
256,192,297522,1,0,0:0:0:0:
256,192,297601,1,0,0:0:0:0:
256,192,297681,1,12,0:0:0:0:
256,192,297761,1,0,0:0:0:0:
256,192,297841,1,0,0:0:0:0:
256,192,297921,1,0,0:0:0:0:
256,192,298000,1,12,0:0:0:0:
256,192,298080,1,0,0:0:0:0:
256,192,298160,1,0,0:0:0:0:
256,192,298240,1,0,0:0:0:0:
256,192,298320,1,0,0:0:0:0:
256,192,298399,1,0,0:0:0:0:
256,192,298479,1,0,0:0:0:0:
256,192,298560,1,8,0:0:0:0:
256,192,298639,1,8,0:0:0:0:
256,192,298718,1,8,0:0:0:0:
256,192,298798,1,8,0:0:0:0:
256,192,298878,1,8,0:0:0:0:
256,192,298958,1,8,0:0:0:0:
256,192,299038,1,0,0:0:0:0:
256,192,299117,1,0,0:0:0:0:
256,192,299197,1,0,0:0:0:0:
256,192,299277,1,0,0:0:0:0:
256,192,299357,1,0,0:0:0:0:
256,192,299437,1,0,0:0:0:0:
256,192,299516,1,0,0:0:0:0:
256,192,299596,1,0,0:0:0:0:
256,192,299676,1,8,0:0:0:0:
256,192,300076,5,12,0:0:0:0:
256,192,300449,1,0,0:0:0:0:
256,192,300608,1,12,0:0:0:0:
256,192,300981,1,0,0:0:0:0:
256,192,301140,1,12,0:0:0:0:
256,192,301513,1,4,0:0:0:0:
256,192,301885,1,0,0:0:0:0:
256,192,301992,1,8,0:0:0:0:
256,192,302098,1,0,0:0:0:0:
256,192,302204,1,8,0:0:0:0:
256,192,302497,1,0,0:0:0:0:
256,192,302537,1,0,0:0:0:0:
256,192,302577,1,0,0:0:0:0:
256,192,302683,1,12,0:0:0:0:
256,192,303056,1,0,0:0:0:0:
256,192,303375,1,0,0:0:0:0:
256,192,304053,1,0,0:0:0:0:
256,192,304133,1,0,0:0:0:0:
256,192,304213,1,0,0:0:0:0:
256,192,304293,1,12,0:0:0:0:
256,192,305497,1,0,0:0:0:0:
256,192,305577,1,8,0:0:0:0:
256,192,305736,1,4,0:0:0:0:
256,192,306109,1,4,0:0:0:0:
256,192,306587,1,4,0:0:0:0:
256,192,307013,1,0,0:0:0:0:
256,192,307598,5,12,0:0:0:0:
256,192,308928,5,0,0:0:0:0:
256,192,309007,1,0,0:0:0:0:
256,192,309087,1,0,0:0:0:0:
256,192,309167,1,0,0:0:0:0:
256,192,309247,1,0,0:0:0:0:
256,192,309327,1,0,0:0:0:0:
256,192,309406,1,8,0:0:0:0:
256,192,309486,1,8,0:0:0:0:
256,192,309567,1,8,0:0:0:0:
256,192,309646,1,8,0:0:0:0:
256,192,309726,1,0,0:0:0:0:
256,192,309806,1,0,0:0:0:0:
256,192,309887,1,8,0:0:0:0:
256,192,309966,1,8,0:0:0:0:
256,192,310045,1,0,0:0:0:0:
256,192,310124,1,0,0:0:0:0:
256,192,310204,1,8,0:0:0:0:
256,192,310285,1,8,0:0:0:0:
256,192,310364,1,0,0:0:0:0:
256,192,310524,5,0,0:0:0:0:
256,192,310876,1,0,0:0:0:0:
256,192,311276,1,0,0:0:0:0:
256,192,311315,1,0,0:0:0:0:
256,192,315106,1,8,0:0:0:0:
256,192,315186,1,8,0:0:0:0:
256,192,315266,1,0,0:0:0:0:
256,192,315346,1,0,0:0:0:0:
256,192,315425,1,0,0:0:0:0:
