osu file format v14

[General]
AudioFilename: audio.mp3
AudioLeadIn: 0
PreviewTime: 72474
Countdown: 0
SampleSet: Normal
StackLeniency: 0.2
Mode: 0
LetterboxInBreaks: 0
WidescreenStoryboard: 0

[Editor]
Bookmarks: 19332,55331,73617,91903,110188,128474,146760,183331
DistanceSpacing: 2.1
BeatDivisor: 3
GridSize: 8
TimelineZoom: 2.999999

[Metadata]
Title:Genesis
TitleUnicode:Genesis
Artist:Protostar
ArtistUnicode:Protostar
Creator:Jedel
Version:Big Bang
Source:
Tags:monstercat glitch hop protostar genesis dubstep contact
BeatmapID:2035512
BeatmapSetID:972155

[Difficulty]
HPDrainRate:8
CircleSize:4.3
OverallDifficulty:8
ApproachRate:9.5
SliderMultiplier:1.00000000596046
SliderTickRate:1

[Events]
//Background and Video events
0,0,"genesis.jpg",0,0
//Break Periods
//Storyboard Layer 0 (Background)
//Storyboard Layer 1 (Fail)
//Storyboard Layer 2 (Pass)
//Storyboard Layer 3 (Foreground)
//Storyboard Layer 4 (Overlay)
//Storyboard Sound Samples

[TimingPoints]
476,285.714285714286,4,2,0,71,1,0
476,-200,4,2,0,71,0,0
2476,-80,4,2,0,71,0,0
3333,-100,4,2,0,71,0,0
5618,285.714285714286,4,2,0,71,1,0
5618,-200,4,2,0,71,0,0
7046,-100,4,2,0,71,0,0
10189,-200,4,2,0,71,0,0
11618,-100,4,2,0,71,0,0
18760,-100,4,2,0,20,0,0
19332,-133.333333333333,4,1,0,70,0,0
35903,-133.333333333333,4,1,0,70,0,0
37046,285.714285714286,4,1,0,70,1,0
37046,-100,4,2,0,72,0,0
55331,-66.6666666666667,4,2,0,76,0,0
64474,-66.6666666666667,4,3,0,70,0,0
69046,-66.6666666666667,4,3,0,75,0,0
70188,-66.6666666666667,4,3,0,80,0,0
71331,-66.6666666666667,4,3,0,85,0,0
73474,-66.6666666666667,4,1,0,5,0,0
73617,-50,4,1,0,100,0,1
107760,-50,4,1,0,100,0,0
108474,-66.6666666666667,4,1,0,100,0,0
109046,-100,4,1,0,100,0,0
109617,-200,4,1,0,100,0,0
110188,-50,4,1,0,100,0,1
146760,-133.333333333333,4,1,0,100,0,0
146903,-133.333333333333,4,2,0,60,0,0
164331,-100,4,2,0,70,0,0
165046,-66.6666666666667,4,2,0,70,0,0
174188,-66.6666666666667,4,3,0,70,0,0
176474,-66.6666666666667,4,3,0,74,0,0
178760,-66.6666666666667,4,3,0,80,0,0
179903,-66.6666666666667,4,3,0,85,0,0
181046,-66.6666666666667,4,3,0,90,0,0
183188,-66.6666666666667,4,3,0,5,0,0
183331,-50,4,1,0,100,0,1
217522,-50,4,1,0,100,0,0
218188,-66.6666666666667,4,1,0,100,0,0
218760,-100,4,1,0,100,0,0
219331,-200,4,1,0,100,0,0
219903,-50,4,1,0,100,0,1
256474,-50,4,1,0,100,0,0

[Colours]
Combo1 : 239,169,154
Combo2 : 234,67,4
Combo3 : 251,123,96
Combo4 : 227,216,0

[HitObjects]
191,146,476,6,0,P|171:197|179:229,1,75.0000004470348,4|0,0:0|0:0,0:0:0:0:
304,126,1047,2,0,P|337:153|350:192,1,75.0000004470348,0|0,0:0|0:0,0:0:0:0:
263,209,1618,2,0,L|266:248,1,25.0000001490115,0|0,0:0|0:0,0:0:0:0:
195,325,1904,2,0,L|222:322,1,25.0000001490115,0|0,0:0|0:0,0:0:0:0:
345,313,2190,2,0,L|312:315,1,25.0000001490115,0|0,0:0|0:0,0:0:0:0:
210,143,2476,6,0,B|160:143|128:177|128:177|135:135|104:106|104:106|151:111|192:62,1,250.000001490115,0|0,0:0|0:0,0:0:0:0:
274,53,3333,2,0,B|423:1|498:111|473:231|337:256|289:170|289:170|251:283|174:136|90:355|225:346,1,700.000004172322,0|0,0:0|0:0,0:0:0:0:
193,151,5618,6,0,P|230:235|244:246,1,100.000000596046,4|0,0:0|0:0,0:0:0:0:
378,221,6475,2,0,P|379:280|374:289,1,50.000000298023,0|0,0:0|0:0,0:0:0:0:
235,239,7046,6,0,P|188:199|219:63,1,200.000001192092,0|0,0:0|0:0,0:0:0:0:
255,145,7903,1,0,0:0:0:0:
334,132,8189,2,0,B|365:107|421:204|384:278|384:278|424:240|471:255|471:255|460:400|266:396|310:237,1,600.000003576276,0|0,0:0|0:0,0:0:0:0:
206,289,10189,6,0,L|293:280,1,75.0000004470345,4|0,0:0|0:0,0:0:0:0:
343,213,10760,1,0,0:0:0:0:
343,213,10903,1,0,0:0:0:0:
255,189,11046,2,0,P|248:157|260:125,1,50.000000298023,0|0,0:0|0:0,0:0:0:0:
127,90,11618,6,0,B|172:102|211:60|211:60|268:46|312:84,1,200.000001192092,0|0,0:0|0:0,0:0:0:0:
380,111,12475,2,0,B|355:168|366:214|366:214|422:179|479:206|479:206|409:242|404:305|322:287,1,400.000002384184,0|0,0:0|0:0,0:0:0:0:
256,192,13903,1,6,0:0:0:0:
256,192,14046,12,4,18760,0:0:0:0:
209,194,19332,6,0,P|288:210|352:192,1,131.250005789101,6|0,0:0|0:0,0:0:0:0:
278,106,19903,2,0,L|281:73,3,18.7500008270144
377,51,20189,2,0,L|379:83,3,18.7500008270144,2|0|0|0,0:0|0:0|0:0|0:0,0:0:0:0:
418,216,20475,6,0,L|459:219,1,37.5000016540288,8|0,0:0|0:0,0:0:0:0:
380,333,20760,2,0,L|342:329,1,37.5000016540288,2|0,0:0|0:0,0:0:0:0:
248,300,21046,2,0,L|251:259,1,37.5000016540288,0|0,0:0|0:0,0:0:0:0:
307,187,21332,2,0,L|280:189,3,18.7500008270144
234,17,21618,2,0,L|230:61,1,37.5000016540288,8|0,0:0|0:0,0:0:0:0:
89,131,21903,2,0,L|92:91,1,37.5000016540288,2|0,0:0|0:0,0:0:0:0:
37,197,22189,5,0,0:0:0:0:
37,197,22332,2,0,B|40:241,1,37.5000016540288,0|0,0:0|0:0,0:0:0:0:
124,233,22618,1,2,0:0:0:0:
206,345,22760,2,0,B|163:341,1,37.5000016540288,8|0,0:0|0:0,0:0:0:0:
250,239,23046,1,0,0:0:0:0:
268,166,23189,1,0,0:0:0:0:
303,317,23332,2,0,B|346:270|335:207,1,112.500004962086,0|0,0:0|0:0,0:0:0:0:
144,120,23903,6,0,P|188:88|253:71,1,112.500004962086,6|0,0:0|0:0,0:0:0:0:
334,46,24475,2,0,L|367:49,3,18.7500008270144
389,145,24761,2,0,L|363:142,3,18.7500008270144,2|0|0|0,0:0|0:0|0:0|0:0,0:0:0:0:
235,217,25046,1,8,0:0:0:0:
232,317,25332,6,0,L|281:308,1,37.5000016540288,2|0,0:0|0:0,0:0:0:0:
401,340,25618,2,0,L|362:344,1,37.5000016540288,0|0,0:0|0:0,0:0:0:0:
321,207,25903,2,0,L|328:255,1,37.5000016540288,0|0,0:0|0:0,0:0:0:0:
173,192,26189,2,0,L|167:152,1,37.5000016540288,8|0,0:0|0:0,0:0:0:0:
49,73,26475,5,2,0:0:0:0:
49,73,26618,1,0,0:0:0:0:
173,44,26760,5,0,0:0:0:0:
173,44,26903,1,0,0:0:0:0:
261,108,27046,5,0,0:0:0:0:
322,36,27189,1,8,0:0:0:0:
261,108,27332,2,0,L|265:145,1,37.5000016540288,0|0,0:0|0:0,0:0:0:0:
407,210,27618,2,0,B|429:228|447:218|447:218|446:245|460:259,2,75.0000033080576,8|0|0,0:0|0:0|0:0,0:0:0:0:
261,328,28475,6,0,B|293:325|309:293|309:293|292:265|291:232,1,112.500004962086,4|0,0:0|0:0,0:0:0:0:
205,272,29046,2,0,L|176:275,3,18.7500008270144
77,213,29332,2,0,L|95:211,3,18.7500008270144,2|0|0|0,0:0|0:0|0:0|0:0,0:0:0:0:
185,62,29618,1,8,0:0:0:0:
309,148,29903,6,0,L|349:144,1,37.5000016540288,2|0,0:0|0:0,0:0:0:0:
483,201,30189,2,0,L|445:204,1,37.5000016540288,0|0,0:0|0:0,0:0:0:0:
358,238,30475,2,0,L|361:275,1,37.5000016540288,0|0,0:0|0:0,0:0:0:0:
208,297,30760,1,8,0:0:0:0:
108,176,31046,6,0,L|57:181,1,37.5000016540288,2|0,0:0|0:0,0:0:0:0:
49,272,31332,2,0,L|44:309,1,37.5000016540288,0|0,0:0|0:0,0:0:0:0:
128,265,31618,1,0,0:0:0:0:
128,265,31760,6,0,P|163:277|210:275,1,75.0000033080576,8|0,0:0|0:0,0:0:0:0:
328,186,32189,2,0,B|324:125|276:81,1,112.500004962086,8|0,0:0|0:0,0:0:0:0:
82,105,32760,2,0,P|54:130|45:155,1,56.2500024810432,0|8,0:0|0:0,0:0:0:0:
48,221,33046,6,0,L|50:254,3,18.7500008270144,2|0|0|0,0:0|0:0|0:0|0:0,0:0:0:0:
120,301,33332,2,0,L|143:303,3,18.7500008270144,0|0|0|0,0:0|0:0|0:0|0:0,0:0:0:0:
203,233,33618,2,0,L|201:214,3,18.7500008270144,0|0|0|0,0:0|0:0|0:0|0:0,0:0:0:0:
296,303,33903,2,0,L|277:301,3,18.7500008270144,0|0|0|0,0:0|0:0|0:0|0:0,0:0:0:0:
163,174,34189,6,0,L|158:122,1,37.5000016540288,8|0,0:0|0:0,0:0:0:0:
227,45,34475,2,0,L|273:40,1,37.5000016540288,2|0,0:0|0:0,0:0:0:0:
374,64,34760,1,0,0:0:0:0:
483,90,34903,1,0,0:0:0:0:
400,166,35046,1,0,0:0:0:0:
374,64,35189,1,0,0:0:0:0:
263,226,35332,2,8,L|219:222,1,37.5000016540288,8|8,0:0|0:0,0:0:0:0:
141,124,35618,2,0,L|97:120,1,37.5000016540288,2|0,0:0|0:0,0:0:0:0:
47,195,35903,5,0,0:0:0:0:
108,265,36046,2,0,L|180:269,1,37.5000016540288
239,267,36332,1,0,0:0:0:0:
239,267,36618,1,0,0:0:0:0:
239,267,36903,1,0,0:0:0:0:
202,185,37046,6,0,B|239:121|239:121|271:141|326:100,1,150.000000894069,6|0,0:0|0:0,0:0:0:0:
319,223,37617,2,0,P|350:227|388:221,3,50.000000298023,0|0|0|0,0:0|0:0|0:0|0:0,0:0:0:0:
458,182,38188,1,8,0:0:0:0:
290,72,38474,6,0,L|293:34,3,25.0000001490115,0|0|0|0,0:0|0:0|0:0|0:0,0:0:0:0:
214,111,38760,2,0,P|183:107|145:113,3,50.000000298023,0|0|0|0,0:0|0:0|0:0|0:0,0:0:0:0:
75,152,39331,1,8,0:0:0:0:
243,262,39617,6,0,L|240:300,3,25.0000001490115,0|0|0|0,0:0|0:0|0:0|0:0,0:0:0:0:
362,266,39903,2,0,P|385:258|408:242,3,50.000000298023,0|0|0|0,0:0|0:0|0:0|0:0,0:0:0:0:
303,135,40474,1,8,0:0:0:0:
132,127,40760,2,0,L|177:123,3,25.0000001490115,0|0|0|0,0:0|0:0|0:0|0:0,0:0:0:0:
153,225,41046,2,0,L|92:218,1,50.000000298023,0|0,0:0|0:0,0:0:0:0:
26,283,41331,2,0,L|86:289,1,50.000000298023,0|0,0:0|0:0,0:0:0:0:
221,342,41617,6,0,P|252:326|252:216,1,150.000000894069,12|0,0:0|0:0,0:0:0:0:
365,71,42188,2,0,L|431:76,1,50.000000298023,0|0,0:0|0:0,0:0:0:0:
221,95,42474,2,0,L|287:100,1,50.000000298023,0|0,0:0|0:0,0:0:0:0:
341,170,42760,6,0,B|331:229|303:244,1,75.0000004470345,8|0,0:0|0:0,0:0:0:0:
264,313,43046,2,0,L|234:314,3,25.0000001490115,0|0|0|0,0:0|0:0|0:0|0:0,0:0:0:0:
148,214,43331,2,0,P|168:200|185:178,3,50.000000298023,0|0|0|0,0:0|0:0|0:0|0:0,0:0:0:0:
110,136,43903,6,0,P|176:66|240:63,1,150.000000894069,8|0,0:0|0:0,0:0:0:0:
201,141,44474,2,0,P|226:141|252:132,3,50.000000298023,0|0|0|0,0:0|0:0|0:0|0:0,0:0:0:0:
251,233,45046,5,6,0:0:0:0:
201,141,45188,2,0,B|144:136,1,50.000000298023
56,102,45474,1,6,0:0:0:0:
56,102,45760,1,0,0:0:0:0:
56,102,46046,1,0,0:0:0:0:
88,196,46188,6,0,B|94:251|157:226|157:226|173:275|139:327|139:327|165:309|186:315|186:315|189:276|221:248|221:248|228:210|166:135,1,450.000002682207,6|0,0:0|0:0,0:0:0:0:
231,90,47617,2,0,L|264:87,3,25.0000001490115,0|0|0|0,0:0|0:0|0:0|0:0,0:0:0:0:
318,163,47903,2,0,P|342:132|344:111,1,50.000000298023,8|0,0:0|0:0,0:0:0:0:
327,23,48188,2,0,B|376:22|414:52|414:52|443:30|443:30|445:64|490:114|449:148,1,250.000001490115,0|0,0:0|0:0,0:0:0:0:
417,237,49046,5,8,0:0:0:0:
342,171,49188,1,0,0:0:0:0:
331,276,49331,2,0,B|298:258|298:258|305:296|293:330|293:330|224:327|174:254,1,250.000001490115,0|0,0:0|0:0,0:0:0:0:
167,160,50188,5,8,0:0:0:0:
96,231,50331,1,0,0:0:0:0:
130,80,50474,2,0,P|147:55|173:37,1,50.000000298023,0|0,0:0|0:0,0:0:0:0:
229,119,50760,6,0,B|317:59|315:191|417:72|417:72|377:177|451:257,1,400.000002384184,6|0,0:0|0:0,0:0:0:0:
44,199,52474,5,8,0:0:0:0:
345,55,53617,5,8,0:0:0:0:
309,278,54617,5,0,0:0:0:0:
379,174,54760,1,0,0:0:0:0:
291,85,54903,1,0,0:0:0:0:
276,183,55046,2,0,L|194:186,1,75.0000004470345
108,260,55331,6,0,B|73:249|62:250|62:250|58:227|46:197,1,75.0000033080576,6|0,0:0|0:0,0:0:0:0:
196,46,55760,2,0,B|231:57|242:56|242:56|246:79|248:82,1,75.0000033080576
201,185,56188,6,0,L|305:194,1,75.0000033080576
277,282,56474,2,0,L|351:288,1,75.0000033080576
321,64,56903,2,0,L|407:71,1,75.0000033080576
201,185,57331,6,0,P|245:229|280:231,1,75.0000033080576
311,133,57617,2,0,P|344:148|365:179,1,75.0000033080576
162,70,58046,2,0,P|130:89|113:122,1,75.0000033080576
271,283,58474,6,0,B|305:276|305:276|325:216,1,75.0000033080576
236,158,58760,2,0,B|248:119|248:119|282:112,1,75.0000033080576
82,218,59188,2,0,B|66:249|66:249|88:282,1,75.0000033080576
236,158,59617,6,0,P|277:111|297:116,1,75.0000033080576
335,210,59903,2,0,P|294:257|274:252,1,75.0000033080576,4|0,0:0|0:0,0:0:0:0:
122,216,60331,6,0,P|115:251|140:279,1,75.0000033080576
335,210,60760,6,0,L|409:217,1,75.0000033080576
392,329,61046,2,0,L|466:336,1,75.0000033080576
242,255,61474,2,0,L|234:329,1,75.0000033080576
128,85,61903,6,0,B|122:109|98:114|98:114|107:139|91:175,1,75.0000033080576
155,242,62188,2,0,B|160:219|184:214|184:214|175:189|182:183,1,75.0000033080576
56,237,62617,2,0,B|50:261|26:266|26:266|35:291|19:327,1,75.0000033080576
250,339,63046,6,0,P|326:328|342:314,1,75.0000033080576
281,225,63331,2,0,P|316:212|353:216,1,75.0000033080576
412,95,63760,5,0,0:0:0:0:
412,95,63903,1,8,0:0:0:0:
412,95,64046,1,8,0:0:0:0:
307,136,64188,2,0,P|306:78|318:27,1,75.0000033080576
197,74,64474,6,0,L|111:72,1,75.0000033080576,6|0,0:0|0:0,0:0:0:0:
61,144,64760,2,0,L|136:146,1,75.0000033080576,2|0,0:0|0:0,0:0:0:0:
272,245,65046,6,0,P|313:185|333:182,1,75.0000033080576,2|0,0:0|0:0,0:0:0:0:
398,183,65331,2,0,P|388:218|360:242,1,75.0000033080576,2|0,0:0|0:0,0:0:0:0:
269,79,65617,5,2,0:0:0:0:
269,79,65760,1,0,0:0:0:0:
177,237,65903,1,2,0:0:0:0:
177,237,66046,1,0,0:0:0:0:
309,172,66188,5,2,0:0:0:0:
309,172,66331,1,0,0:0:0:0:
358,313,66474,1,2,0:0:0:0:
358,313,66617,1,0,0:0:0:0:
208,329,66760,6,0,B|178:322|169:306|169:306|148:318|117:312,1,75.0000033080576,6|0,0:0|0:0,0:0:0:0:
76,221,67046,2,0,B|106:228|115:244|115:244|136:232|167:238,1,75.0000033080576,2|0,0:0|0:0,0:0:0:0:
344,144,67331,2,0,B|328:100|328:100|351:56,1,75.0000033080576,2|0,0:0|0:0,0:0:0:0:
411,102,67617,2,0,B|427:146|427:146|404:190,1,75.0000033080576,2|0,0:0|0:0,0:0:0:0:
151,49,67903,5,2,0:0:0:0:
151,49,68046,1,0,0:0:0:0:
96,188,68188,1,2,0:0:0:0:
96,188,68331,1,0,0:0:0:0:
232,169,68474,5,2,0:0:0:0:
232,169,68617,1,0,0:0:0:0:
320,289,68759,1,2,0:0:0:0:
320,289,68902,1,0,0:0:0:0:
59,326,69046,6,2,L|50:217,1,75.0000033080576
119,76,69331,2,2,L|128:185,1,75.0000033080576
187,329,69617,2,2,L|177:219,1,75.0000033080576
246,79,69902,2,2,L|255:188,1,75.0000033080576
446,327,70188,6,2,L|455:217,1,75.0000033080576
386,76,70473,2,2,L|376:185,1,75.0000033080576
318,329,70759,2,2,L|327:219,1,75.0000033080576
259,79,71044,2,2,L|249:188,1,75.0000033080576
102,244,71331,5,10,0:0:0:0:
139,93,71474,1,10,0:0:0:0:
335,219,71617,1,10,0:0:0:0:
259,79,71760,1,10,0:0:0:0:
210,318,71903,5,10,0:0:0:0:
372,143,72046,1,10,0:0:0:0:
443,293,72188,1,10,0:0:0:0:
252,156,72331,1,10,0:0:0:0:
256,192,72474,12,0,73474,0:0:0:0:
136,71,73617,6,0,P|150:78|170:61,4,33.3333335320153,6|0|0|0|0,0:0|0:0|0:0|0:0|0:0,0:0:0:0:
75,185,73903,2,0,P|61:192|41:175,4,33.3333335320153,2|0|0|0|0,0:0|0:0|0:0|0:0|0:0,0:0:0:0:
186,298,74188,2,0,P|223:219|271:207,1,100.000000596046,8|0,0:0|0:0,0:0:0:0:
374,355,74474,2,0,P|468:311|478:283,1,100.000000596046,2|0,0:0|0:0,0:0:0:0:
466,83,74760,1,0,0:0:0:0:
391,271,74903,1,0,0:0:0:0:
318,84,75046,6,0,L|208:77,1,100.000000596046,2|0,0:0|0:0,0:0:0:0:
243,325,75331,1,8,0:0:0:0:
344,152,75474,1,0,0:0:0:0:
143,147,75617,1,2,0:0:0:0:
243,325,75760,2,0,B|288:328|288:328|303:284|343:260,1,100.000000596046
367,54,76046,5,0,0:0:0:0:
322,214,76188,2,0,L|360:217,4,33.3333335320153,6|0|0|0|0,0:0|0:0|0:0|0:0|0:0,0:0:0:0:
345,346,76474,2,0,P|393:344|458:282,1,100.000000596046,8|0,0:0|0:0,0:0:0:0:
95,215,76760,5,0,0:0:0:0:
124,51,76903,2,0,B|172:31|247:26,1,100.000000596046,2|0,0:0|0:0,0:0:0:0:
386,140,77188,1,0,0:0:0:0:
322,329,77331,2,0,B|274:349|199:354,1,100.000000596046,2|0,0:0|0:0,0:0:0:0:
267,69,77617,2,0,B|199:80|199:80|113:46,1,150.000000894069,8|0,0:0|0:0,0:0:0:0:
144,148,77903,2,0,B|191:167|191:167|317:144,1,150.000000894069,8|0,0:0|0:0,0:0:0:0:
60,117,78188,6,0,L|56:153,4,33.3333335320153,6|0|0|0|0,0:0|0:0|0:0|0:0|0:0,0:0:0:0:
179,190,78474,2,0,L|222:186,4,33.3333335320153,2|0|0|0|0,0:0|0:0|0:0|0:0|0:0,0:0:0:0:
379,126,78760,6,0,P|432:161|457:220,1,100.000000596046,8|0,0:0|0:0,0:0:0:0:
196,282,79046,2,0,P|196:218|232:165,1,100.000000596046,2|0,0:0|0:0,0:0:0:0:
273,108,79331,1,0,0:0:0:0:
79,57,79474,1,0,0:0:0:0:
87,244,79617,2,0,P|103:308|131:340,1,100.000000596046,2|0,0:0|0:0,0:0:0:0:
399,70,79903,1,8,0:0:0:0:
332,285,80046,1,0,0:0:0:0:
205,117,80188,1,2,0:0:0:0:
399,70,80331,2,0,P|399:171|376:194,1,100.000000596046,0|0,0:0|0:0,0:0:0:0:
276,321,80617,5,0,0:0:0:0:
276,321,80760,2,0,L|280:229,1,50.000000298023
287,121,80903,2,0,P|190:128|174:191,1,150.000000894069
89,156,81188,2,0,P|138:64|194:46,1,150.000000894069
391,160,81474,5,0,0:0:0:0:
445,352,81617,1,0,0:0:0:0:
391,160,81760,1,0,0:0:0:0:
241,293,81903,5,2,0:0:0:0:
287,98,82046,1,0,0:0:0:0:
79,254,82188,5,8,0:0:0:0:
84,173,82284,1,8,0:0:0:0:
156,140,82379,1,8,0:0:0:0:
214,194,82474,1,8,0:0:0:0:
292,208,82569,1,8,0:0:0:0:
354,157,82665,1,8,0:0:0:0:
353,77,82760,1,8,0:0:0:0:
190,109,83331,6,0,B|152:78|152:78|74:66,1,100.000000596046,8|0,0:0|0:0,0:0:0:0:
328,300,83617,2,0,B|366:330|366:330|443:342,1,100.000000596046,6|0,0:0|0:0,0:0:0:0:
312,30,83903,5,0,0:0:0:0:
306,64,83974,1,0,0:0:0:0:
296,98,84046,1,0,0:0:0:0:
279,128,84117,1,0,0:0:0:0:
256,154,84188,1,2,0:0:0:0:
227,174,84259,1,0,0:0:0:0:
195,190,84331,1,0,0:0:0:0:
160,196,84402,1,0,0:0:0:0:
134,197,84474,2,0,P|85:180|64:121,1,100.000000596046,8|0,0:0|0:0,0:0:0:0:
205,56,84760,5,2,0:0:0:0:
328,300,84903,2,0,B|366:330|366:330|443:342,1,100.000000596046,0|0,0:0|0:0,0:0:0:0:
421,173,85188,5,0,0:0:0:0:
421,173,85331,2,0,P|420:89|389:50,1,100.000000596046,2|0,0:0|0:0,0:0:0:0:
254,295,85617,2,0,B|289:169|289:169|351:113,1,200.000001192092,8|0,0:0|0:0,0:0:0:0:
416,337,86046,2,0,B|459:284|440:216|440:216,1,100.000000596046,2|0,0:0|0:0,0:0:0:0:
340,122,86331,1,0,0:0:0:0:
131,209,86474,2,0,P|201:189|236:125,1,150.000000894069,2|0,0:0|0:0,0:0:0:0:
40,210,86760,2,0,P|106:130|180:139,1,150.000000894069,8|0,0:0|0:0,0:0:0:0:
397,113,87046,2,0,P|345:165|116:204,1,300.000001788138,6|0,0:0|0:0,0:0:0:0:
273,348,87617,6,0,P|349:314|402:240,1,150.000000894069,2|0,0:0|0:0,0:0:0:0:
397,113,87903,1,8,0:0:0:0:
221,155,88046,2,0,B|167:164|131:205|131:205|130:164|106:140|106:140|70:185|38:175,1,250.000001490115,2|0,0:0|0:0,0:0:0:0:
197,73,88474,2,0,P|251:80|308:122,1,100.000000596046
273,348,88760,6,0,B|325:339|325:339|396:263,1,150.000000894069,2|0,0:0|0:0,0:0:0:0:
397,113,89046,1,8,0:0:0:0:
106,306,89188,2,0,P|67:211|73:136,1,150.000000894069,2|0,0:0|0:0,0:0:0:0:
231,64,89474,6,0,B|284:95|343:77|343:77|388:127|450:131,1,200.000001192092,12|0,0:0|0:0,0:0:0:0:
242,304,89903,2,0,P|176:192|159:185,1,150.000000894069,2|0,0:0|0:0,0:0:0:0:
106,306,90188,1,8,0:0:0:0:
231,64,90331,2,0,B|343:77|343:77|433:136,1,200.000001192092,2|0,0:0|0:0,0:0:0:0:
242,304,90760,1,0,0:0:0:0:
451,33,91046,5,0,0:0:0:0:
348,259,91188,1,8,0:0:0:0:
343,256,91260,1,8,0:0:0:0:
338,253,91331,1,8,0:0:0:0:
83,73,91474,5,8,0:0:0:0:
210,288,91617,1,8,0:0:0:0:
307,57,91760,1,8,0:0:0:0:
371,290,91903,6,0,L|419:286,4,33.3333335320153,6|0|0|0|0,0:0|0:0|0:0|0:0|0:0,0:0:0:0:
436,166,92188,2,0,L|402:168,4,33.3333335320153,2|0|0|0|0,0:0|0:0|0:0|0:0|0:0,0:0:0:0:
230,158,92474,1,8,0:0:0:0:
52,65,92617,1,0,0:0:0:0:
136,243,92760,2,0,P|138:306|70:275,1,100.000000596046,2|0,0:0|0:0,0:0:0:0:
50,143,93046,5,0,0:0:0:0:
74,118,93117,1,0,0:0:0:0:
107,107,93188,1,0,0:0:0:0:
140,119,93260,1,0,0:0:0:0:
155,87,93331,1,2,0:0:0:0:
181,65,93402,1,0,0:0:0:0:
214,54,93473,1,0,0:0:0:0:
248,58,93545,1,0,0:0:0:0:
277,76,93617,2,0,P|310:138|308:173,1,100.000000596046,8|0,0:0|0:0,0:0:0:0:
227,312,93903,5,2,0:0:0:0:
410,231,94046,2,0,P|439:157|439:136,1,100.000000596046,0|0,0:0|0:0,0:0:0:0:
326,50,94331,5,0,0:0:0:0:
326,50,94474,2,0,P|310:133|287:157,1,100.000000596046,2|0,0:0|0:0,0:0:0:0:
206,54,94760,6,0,L|167:56,8,33.3333335320153,8|0|0|0|0|0|0|0|0,0:0|0:0|0:0|0:0|0:0|0:0|0:0|0:0|0:0,0:0:0:0:
202,231,95188,2,0,P|133:148|133:137,1,100.000000596046,2|0,0:0|0:0,0:0:0:0:
307,58,95474,1,0,0:0:0:0:
416,225,95617,2,0,L|426:105,1,100.000000596046,2|0,0:0|0:0,0:0:0:0:
201,230,95903,6,0,P|266:265|298:332,1,150.000000894069,8|0,0:0|0:0,0:0:0:0:
200,324,96188,2,0,P|135:289|103:222,1,150.000000894069,8|0,0:0|0:0,0:0:0:0:
188,140,96474,2,0,P|228:69|301:61,1,150.000000894069,6|0,0:0|0:0,0:0:0:0:
284,159,96760,2,0,L|308:156,5,25.0000001490115,2|0|0|0|0|0,0:0|0:0|0:0|0:0|0:0|0:0,0:0:0:0:
390,99,97046,2,0,P|404:165|393:202,1,100.000000596046,8|0,0:0|0:0,0:0:0:0:
188,140,97331,2,0,P|190:208|210:241,1,100.000000596046,2|0,0:0|0:0,0:0:0:0:
177,35,97617,5,0,0:0:0:0:
129,50,97688,1,0,0:0:0:0:
94,86,97760,1,0,0:0:0:0:
73,131,97831,1,0,0:0:0:0:
60,179,97903,2,0,P|68:272|80:288,1,100.000000596046,2|0,0:0|0:0,0:0:0:0:
282,346,98188,2,0,P|224:358|161:341,1,100.000000596046,8|0,0:0|0:0,0:0:0:0:
188,140,98474,1,2,0:0:0:0:
111,334,98617,1,0,0:0:0:0:
381,61,98903,5,0,0:0:0:0:
381,61,99046,2,0,L|383:146,1,50.000000298023,2|0,0:0|0:0,0:0:0:0:
393,285,99188,2,0,B|286:280|286:280|296:232|288:195,1,150.000000894069
193,187,99474,2,0,B|216:262|161:300|161:300|187:339|209:335,1,150.000000894069
67,32,99760,5,0,0:0:0:0:
121,224,99903,1,0,0:0:0:0:
67,32,100046,1,0,0:0:0:0:
271,91,100189,5,2,0:0:0:0:
225,286,100332,1,0,0:0:0:0:
185,91,100474,5,8,0:0:0:0:
247,34,100569,1,8,0:0:0:0:
330,42,100664,1,8,0:0:0:0:
380,108,100759,1,8,0:0:0:0:
364,190,100854,1,8,0:0:0:0:
293,234,100950,1,8,0:0:0:0:
213,210,101045,1,8,0:0:0:0:
451,61,101617,6,0,B|415:72|410:118|410:118|349:145,1,100.000000596046,8|0,0:0|0:0,0:0:0:0:
358,378,101903,2,0,B|346:356|346:356|299:355|285:321,1,100.000000596046,6|0,0:0|0:0,0:0:0:0:
183,157,102188,5,0,0:0:0:0:
173,180,102259,1,0,0:0:0:0:
182,202,102330,1,0,0:0:0:0:
199,219,102402,1,0,0:0:0:0:
222,228,102473,1,2,0:0:0:0:
240,245,102545,1,0,0:0:0:0:
249,267,102616,1,0,0:0:0:0:
240,290,102687,1,0,0:0:0:0:
232,311,102760,2,0,L|126:320,1,100.000000596046,8|0,0:0|0:0,0:0:0:0:
467,229,103046,5,2,0:0:0:0:
350,67,103188,2,0,L|359:173,1,100.000000596046
117,72,103474,5,0,0:0:0:0:
117,72,103617,2,0,L|100:193,1,100.000000596046,2|0,0:0|0:0,0:0:0:0:
344,187,103903,2,0,L|390:182,7,33.3333335320153,8|0|0|0|0|0|0|0,0:0|0:0|0:0|0:0|0:0|0:0|0:0|0:0,0:0:0:0:
132,317,104331,6,0,B|141:272|192:240|192:240|201:274|218:288|218:288|239:229|315:230,1,250.000001490115,2|0,0:0|0:0,0:0:0:0:
370,367,104760,2,0,B|455:352|455:352|509:267,1,150.000000894069,2|0,0:0|0:0,0:0:0:0:
295,307,105046,2,0,B|406:288|406:288|439:236|439:236,1,150.000000894069,8|0,0:0|0:0,0:0:0:0:
125,114,105331,6,0,B|209:120|254:170|254:170|308:102|377:77,1,300.000001788138,6|0,0:0|0:0,0:0:0:0:
68,328,105903,2,0,P|131:334|169:371,1,100.000000596046,2|0,0:0|0:0,0:0:0:0:
407,328,106188,1,8,0:0:0:0:
238,118,106331,1,0,0:0:0:0:
441,89,106474,2,0,L|483:85,4,33.3333335320153,2|0|0|0|0,0:0|0:0|0:0|0:0|0:0,0:0:0:0:
275,273,106760,5,0,0:0:0:0:
348,33,106903,1,0,0:0:0:0:
488,240,107046,2,0,B|424:281|424:281|364:258,1,100.000000596046,2|0,0:0|0:0,0:0:0:0:
238,118,107331,1,8,0:0:0:0:
424,163,107474,2,0,B|451:91|451:91|512:73,1,100.000000596046,2|0,0:0|0:0,0:0:0:0:
72,40,107760,6,0,B|107:97|186:117|186:117|82:161|72:240|72:240|128:276|151:376,1,450.000002682207,6|0,0:0|0:0,0:0:0:0:
224,344,108474,6,0,B|207:267|165:221|165:221|258:157|305:161|305:161,1,262.500011578202,0|0,0:0|0:0,0:0:0:0:
280,240,109046,6,0,B|309:290|314:332|314:332|346:318|374:298|405:310,1,175.00000104308,0|0,0:0|0:0,0:0:0:0:
376,232,109617,6,0,B|422:228|453:265,1,87.5000005215402,0|0,0:0|0:0,0:0:0:0:
382,56,110188,6,0,L|344:54,7,33.3333335320153,6|0|0|0|0|0|2|0,0:0|0:0|0:0|0:0|0:0|0:0|0:0|0:0,0:0:0:0:
263,223,110617,1,0,0:0:0:0:
73,43,110760,1,8,0:0:0:0:
149,281,110903,1,0,0:0:0:0:
73,43,111046,1,0,0:0:0:0:
314,102,111188,2,0,B|376:106|416:92|416:92|376:139|435:167|382:234,1,250.000001490115,2|0,0:0|0:0,0:0:0:0:
149,281,111617,6,0,P|237:263|306:215,1,150.000000894069,6|0,0:0|0:0,0:0:0:0:
344,296,111903,2,0,P|367:217|327:149,1,150.000000894069,8|0,0:0|0:0,0:0:0:0:
400,112,112188,2,0,B|361:46|251:74|255:162|255:162|230:188|165:207,1,300.000001788138,6|0,0:0|0:0,0:0:0:0:
343,250,112760,1,2,0:0:0:0:
133,112,112903,5,0,0:0:0:0:
58,350,113046,1,8,0:0:0:0:
229,58,113188,5,0,0:0:0:0:
47,227,113331,1,2,0:0:0:0:
339,52,113474,5,0,0:0:0:0:
97,107,113617,1,0,0:0:0:0:
268,289,113760,1,0,0:0:0:0:
339,52,113903,1,0,0:0:0:0:
58,34,114046,5,2,0:0:0:0:
133,272,114188,1,8,0:0:0:0:
47,157,114331,5,0,0:0:0:0:
229,326,114474,1,2,0:0:0:0:
97,277,114617,5,0,0:0:0:0:
341,332,114760,2,0,L|399:337,7,33.3333335320153,6|0|0|0|0|0|2|0,0:0|0:0|0:0|0:0|0:0|0:0|0:0|0:0,0:0:0:0:
192,311,115188,1,0,0:0:0:0:
386,153,115331,1,8,0:0:0:0:
176,122,115474,1,0,0:0:0:0:
341,332,115617,1,0,0:0:0:0:
176,122,115760,6,0,B|132:153|88:127|88:127|66:172|107:205|107:205|120:249|69:275|69:275,1,250.000001490115,2|0,0:0|0:0,0:0:0:0:
191,205,116188,2,0,B|201:273|153:349|99:352,1,150.000000894069,6|0,0:0|0:0,0:0:0:0:
136,37,116474,2,0,B|203:23|281:67|287:121,1,150.000000894069,8|0,0:0|0:0,0:0:0:0:
304,304,116760,2,0,B|336:281|392:267|392:267|306:212|306:212|379:192|395:120,1,300.000001788138,6|0,0:0|0:0,0:0:0:0:
187,306,117331,1,2,0:0:0:0:
299,142,117474,5,0,0:0:0:0:
47,195,117617,1,8,0:0:0:0:
346,179,117760,5,0,0:0:0:0:
101,99,117903,1,2,0:0:0:0:
340,225,118046,5,0,0:0:0:0:
168,33,118189,1,0,0:0:0:0:
105,274,118331,1,0,0:0:0:0:
213,142,118474,5,0,0:0:0:0:
465,195,118617,1,2,0:0:0:0:
166,179,118760,5,8,0:0:0:0:
411,99,118903,1,0,0:0:0:0:
171,225,119046,5,2,0:0:0:0:
343,33,119189,1,0,0:0:0:0:
118,173,119903,5,8,0:0:0:0:
118,173,120046,1,8,0:0:0:0:
315,324,120188,5,8,0:0:0:0:
315,324,120331,1,8,0:0:0:0:
449,113,120474,5,8,0:0:0:0:
449,113,120617,1,8,0:0:0:0:
178,129,120760,6,0,B|193:170|216:199|216:199|186:225|173:289,1,133.333334128061,6|0,0:0|0:0,0:0:0:0:
351,342,121046,2,0,B|315:314|300:282|300:282|275:333|237:326,1,133.333334128061,10|0,0:0|0:0,0:0:0:0:
349,158,121331,2,0,L|411:152,13,33.3333335320153,6|0|0|0|0|0|0|0|0|0|0|0|2|0,0:0|0:0|0:0|0:0|0:0|0:0|0:0|0:0|0:0|0:0|0:0|0:0|0:0|0:0,0:0:0:0:
241,195,122046,6,0,B|194:161|194:161|194:99,1,100.000000596046,0|8,0:0|0:0,0:0:0:0:
376,35,122331,2,0,B|423:69|423:69|423:131,1,100.000000596046,0|2,0:0|0:0,0:0:0:0:
241,195,122617,5,0,0:0:0:0:
446,291,122760,1,0,0:0:0:0:
494,45,122903,1,0,0:0:0:0:
446,291,123046,1,0,0:0:0:0:
111,108,123188,5,2,0:0:0:0:
338,271,123331,1,8,0:0:0:0:
401,108,123474,1,0,0:0:0:0:
174,271,123617,1,2,0:0:0:0:
255,88,123760,1,0,0:0:0:0:
256,288,123903,2,0,B|255:309|255:309|256:333,10,33.3333335320153,6|0|0|0|0|0|2|0|0|0|0,0:0|0:0|0:0|0:0|0:0|0:0|0:0|0:0|0:0|0:0|0:0,0:0:0:0:
387,246,124474,1,8,0:0:0:0:
411,73,124617,5,0,0:0:0:0:
406,74,124688,1,0,0:0:0:0:
401,76,124760,1,2,0:0:0:0:
221,138,124903,5,0,0:0:0:0:
221,138,124974,1,0,0:0:0:0:
221,138,125046,1,0,0:0:0:0:
387,246,125188,5,2,0:0:0:0:
221,138,125331,1,0,0:0:0:0:
29,195,125474,1,0,0:0:0:0:
255,321,125617,1,8,0:0:0:0:
170,57,125760,1,0,0:0:0:0:
371,92,125903,6,0,B|370:137|370:137|424:114|482:175|482:175|421:238|338:191,1,300.000001788138,6|0,0:0|0:0,0:0:0:0:
253,36,126474,1,0,0:0:0:0:
152,105,126617,2,0,P|119:150|119:216,1,100.000000596046,0|8,0:0|0:0,0:0:0:0:
305,253,126903,2,0,P|296:302|199:313,1,100.000000596046,0|6,0:0|0:0,0:0:0:0:
152,105,127188,5,0,0:0:0:0:
259,275,127331,1,0,0:0:0:0:
352,98,127474,1,0,0:0:0:0:
258,74,127617,5,0,0:0:0:0:
380,232,127760,1,0,0:0:0:0:
450,46,127903,1,8,0:0:0:0:
420,120,127998,1,8,0:0:0:0:
454,191,128093,1,8,0:0:0:0:
456,270,128188,1,8,0:0:0:0:
393,319,128283,1,8,0:0:0:0:
315,301,128378,1,8,0:0:0:0:
196,236,128474,6,0,L|190:177,4,33.3333335320153,6|0|0|0|0,0:0|0:0|0:0|0:0|0:0,0:0:0:0:
274,124,128760,2,0,L|271:90,4,33.3333335320153,2|0|0|0|0,0:0|0:0|0:0|0:0|0:0,0:0:0:0:
66,68,129045,1,8,0:0:0:0:
304,220,129188,1,0,0:0:0:0:
80,332,129331,1,0,0:0:0:0:
304,220,129474,2,0,B|346:252|346:252|360:305|360:305|409:214|409:214|446:194,1,250.000001490115,2|0,0:0|0:0,0:0:0:0:
345,155,129903,6,0,B|441:105|441:105|399:54,1,150.000000894069,6|0,0:0|0:0,0:0:0:0:
312,143,130188,2,0,B|392:97|392:97|331:78,1,150.000000894069,8|0,0:0|0:0,0:0:0:0:
279,134,130474,2,0,B|320:93|320:93|249:93|249:93|207:136|207:136|153:135|153:135|208:176,1,300.000001788138,6|0,0:0|0:0,0:0:0:0:
383,261,131046,5,2,0:0:0:0:
102,347,131188,1,0,0:0:0:0:
329,154,131331,1,8,0:0:0:0:
469,362,131474,1,0,0:0:0:0:
241,257,131617,1,2,0:0:0:0:
464,143,131760,1,0,0:0:0:0:
221,82,131903,1,0,0:0:0:0:
416,238,132046,2,0,B|397:290|397:290|341:321,1,100.000000596046,0|0,0:0|0:0,0:0:0:0:
128,224,132331,5,2,0:0:0:0:
319,62,132474,1,8,0:0:0:0:
76,121,132617,5,0,0:0:0:0:
309,31,132760,1,2,0:0:0:0:
237,270,132903,1,0,0:0:0:0:
341,45,133046,6,0,L|389:41,4,33.3333335320153,6|0|0|0|0,0:0|0:0|0:0|0:0|0:0,0:0:0:0:
460,141,133331,2,0,L|464:189,4,33.3333335320153,2|0|0|0|0,0:0|0:0|0:0|0:0|0:0,0:0:0:0:
397,358,133617,5,8,0:0:0:0:
215,132,133760,1,0,0:0:0:0:
460,141,133903,1,0,0:0:0:0:
287,321,134046,2,0,B|241:292|196:324|196:324|200:275|156:262|156:262|121:294|66:306,1,250.000001490115,2|0,0:0|0:0,0:0:0:0:
8,86,134474,2,0,B|53:83|80:34|80:34|64:21|25:34,1,150.000000894069,6|0,0:0|0:0,0:0:0:0:
19,120,134760,2,0,B|66:117|87:78|87:78|132:102|189:82,1,150.000000894069,8|0,0:0|0:0,0:0:0:0:
43,155,135046,2,0,B|80:149|101:122|101:122|134:142|211:129|211:129|254:78|180:2,1,300.000001788138,6|0,0:0|0:0,0:0:0:0:
358,191,135617,5,2,0:0:0:0:
117,258,135760,1,0,0:0:0:0:
197,21,135903,2,0,B|278:41|358:116,1,150.000000894069,8|0,0:0|0:0,0:0:0:0:
227,174,136188,2,0,B|218:132|218:132|319:206|419:149|419:149|385:227,1,300.000001788138,2|0,0:0|0:0,0:0:0:0:
171,289,136760,1,0,0:0:0:0:
328,90,136903,5,2,0:0:0:0:
328,90,136974,1,0,0:0:0:0:
328,90,137046,1,8,0:0:0:0:
130,178,138188,6,8,P|199:262|229:264,1,100.000000596046,8|8,0:0|0:0,0:0:0:0:
153,116,138474,2,8,P|171:224|196:240,1,100.000000596046,8|8,0:0|0:0,0:0:0:0:
205,75,138760,2,8,P|166:177|180:204,1,100.000000596046,8|8,0:0|0:0,0:0:0:0:
270,66,139046,2,0,P|185:134|205:210,1,150.000000894069,6|0,0:0|0:0,0:0:0:0:
307,176,139331,2,0,P|396:118|395:80,1,150.000000894069,8|0,0:0|0:0,0:0:0:0:
108,90,139617,6,0,L|112:57,13,33.3333335320153,6|0|0|0|0|0|0|0|0|0|0|0|2|0,0:0|0:0|0:0|0:0|0:0|0:0|0:0|0:0|0:0|0:0|0:0|0:0|0:0|0:0,0:0:0:0:
81,243,140331,6,0,B|131:290|131:290|177:286,1,100.000000596046,0|8,0:0|0:0,0:0:0:0:
370,146,140617,2,0,B|319:98|319:98|273:102,1,100.000000596046,0|2,0:0|0:0,0:0:0:0:
121,169,140903,5,0,0:0:0:0:
370,146,141046,1,0,0:0:0:0:
196,324,141188,1,0,0:0:0:0:
131,82,141331,1,0,0:0:0:0:
370,146,141474,1,2,0:0:0:0:
118,213,141617,2,0,P|142:295|203:324,1,150.000000894069,8|0,0:0|0:0,0:0:0:0:
207,241,141903,2,0,B|270:258|272:319|272:319|345:310,1,150.000000894069,2|0,0:0|0:0,0:0:0:0:
87,76,142188,2,0,L|82:122,10,33.3333335320153,6|0|0|0|0|0|0|0|0|0|0,0:0|0:0|0:0|0:0|0:0|0:0|0:0|0:0|0:0|0:0|0:0,0:0:0:0:
240,77,142760,1,8,0:0:0:0:
474,163,142903,5,0,0:0:0:0:
470,166,142974,1,0,0:0:0:0:
466,169,143046,1,2,0:0:0:0:
269,303,143188,5,0,0:0:0:0:
266,298,143260,1,0,0:0:0:0:
263,293,143331,1,0,0:0:0:0:
170,138,143474,5,2,0:0:0:0:
348,47,143617,1,0,0:0:0:0:
170,138,143760,1,0,0:0:0:0:
338,245,143903,2,0,L|451:254,1,100.000000596046,8|0,0:0|0:0,0:0:0:0:
224,72,144188,6,0,B|185:114|153:91|153:91|123:145|177:182|177:182|130:174|90:198|66:159,1,300.000001788138,6|0,0:0|0:0,0:0:0:0:
261,158,144760,1,2,0:0:0:0:
101,260,144903,2,0,L|219:270,1,100.000000596046,0|8,0:0|0:0,0:0:0:0:
361,148,145188,2,0,L|372:279,1,100.000000596046
260,115,145474,5,0,0:0:0:0:
323,294,145617,1,0,0:0:0:0:
466,169,145760,1,0,0:0:0:0:
263,88,145903,5,2,0:0:0:0:
326,267,146046,1,0,0:0:0:0:
469,142,146189,1,8,0:0:0:0:
417,81,146284,1,8,0:0:0:0:
345,91,146379,1,8,0:0:0:0:
282,140,146474,1,8,0:0:0:0:
205,163,146569,1,8,0:0:0:0:
126,142,146665,1,8,0:0:0:0:
102,65,146760,1,14,0:0:0:0:
256,192,146903,12,0,149331,0:0:0:0:
69,227,149617,6,0,B|111:218|132:202|132:202|143:228|175:255|175:255|200:228|271:253,1,225.000009924173,0|0,0:0|0:0,0:0:0:0:
405,336,150760,2,0,B|435:326|459:265|421:254|421:254|421:193|471:138,1,225.000009924173,0|0,0:0|0:0,0:0:0:0:
222,292,151903,2,0,P|191:295|101:150,1,225.000009924173,0|0,0:0|0:0,0:0:0:0:
199,194,153046,2,0,P|262:200|304:341,1,225.000009924173,0|0,0:0|0:0,0:0:0:0:
456,72,154188,2,0,L|336:60,1,112.500004962086,0|0,0:0|0:0,0:0:0:0:
191,95,154760,5,2,0:0:0:0:
117,153,154903,2,0,L|113:195,1,37.5000016540288
175,255,155188,1,2,0:0:0:0:
175,255,155474,1,0,0:0:0:0:
175,255,155760,1,0,0:0:0:0:
283,223,155903,6,0,B|293:192|276:162|276:162|321:152|343:132|373:105|373:105|351:179|379:243|379:243|345:256|320:277,1,375.000016540288,6|0,0:0|0:0,0:0:0:0:
123,192,157617,2,0,B|131:157|152:138|152:138|167:109|158:81|158:81|196:59|269:77,1,225.000009924173,0|0,0:0|0:0,0:0:0:0:
148,199,158760,2,0,B|186:152|183:88|183:88|213:75|288:94,1,225.000009924173,0|0,0:0|0:0,0:0:0:0:
195,212,159903,2,0,P|212:179|218:142,1,75.0000033080576,0|0,0:0|0:0,0:0:0:0:
266,284,160474,2,0,B|297:233|355:233|355:233|355:284|393:309|393:309|423:255|473:240|473:240|442:207|436:175,1,375.000016540288,6|0,0:0|0:0,0:0:0:0:
346,145,162188,5,0,0:0:0:0:
163,324,163331,5,0,0:0:0:0:
309,278,164331,5,0,0:0:0:0:
453,179,164474,1,0,0:0:0:0:
384,340,164617,1,0,0:0:0:0:
339,168,164760,2,0,L|271:162,1,66.6666670640307,0|0,0:0|0:0,0:0:0:0:
135,273,165046,2,0,P|182:296|249:278,1,100.000004410743,6|0,0:0|0:0,0:0:0:0:
160,186,165522,6,0,P|169:156|167:101,1,50.0000022053717
56,50,165807,6,0,P|46:89|48:134,1,50.0000022053717
176,32,166093,5,0,0:0:0:0:
249,19,166188,2,0,P|298:40|319:92,1,100.000004410743,0|0,0:0|0:0,0:0:0:0:
104,258,166665,6,0,P|135:270|188:265,1,50.0000022053717
312,348,166950,6,0,P|322:307|319:263,1,50.0000022053717
252,113,167236,5,0,0:0:0:0:
311,70,167331,2,0,P|356:50|434:60,1,100.000004410743,0|0,0:0|0:0,0:0:0:0:
108,154,167807,6,0,P|74:148|23:161,1,50.0000022053717
227,285,168093,6,0,P|263:288|311:277,1,50.0000022053717
377,264,168379,5,0,0:0:0:0:
418,203,168474,2,0,P|430:148|422:92,1,100.000004410743,0|0,0:0|0:0,0:0:0:0:
177,97,168950,5,0,0:0:0:0:
116,138,169045,1,0,0:0:0:0:
363,197,169331,1,0,0:0:0:0:
177,97,169522,5,0,0:0:0:0:
116,138,169617,2,0,L|105:242,1,100.000004410743,2|0,0:0|0:0,0:0:0:0:
281,226,170093,2,0,L|287:293,1,50.0000022053717
416,96,170379,2,0,L|410:162,1,50.0000022053717
244,76,170665,5,0,0:0:0:0:
268,146,170760,2,0,L|374:156,1,100.000004410743,0|0,0:0|0:0,0:0:0:0:
94,248,171236,5,0,0:0:0:0:
70,318,171331,1,0,0:0:0:0:
277,193,171522,6,0,P|275:158|248:129,1,50.0000022053717
94,248,171807,5,0,0:0:0:0:
70,318,171903,2,0,B|97:324|106:353|106:353|130:324|186:328,1,100.000004410743,0|0,0:0|0:0,0:0:0:0:
384,77,172379,2,0,P|353:63|295:68,1,50.0000022053717
212,230,172665,2,0,P|240:245|300:238,1,50.0000022053717
433,133,172950,5,0,0:0:0:0:
384,77,173046,2,0,B|359:84|342:106|342:106|326:72|284:58,1,100.000004410743,0|0,0:0|0:0,0:0:0:0:
80,93,173522,5,0,0:0:0:0:
80,97,173617,1,0,0:0:0:0:
83,293,173807,5,0,0:0:0:0:
87,290,173903,1,0,0:0:0:0:
235,167,174093,5,0,0:0:0:0:
230,164,174188,2,0,P|198:253|207:295,1,100.000004410743,6|0,0:0|0:0,0:0:0:0:
298,237,174474,2,0,P|330:148|321:106,1,100.000004410743,2|0,0:0|0:0,0:0:0:0:
280,153,174760,2,0,P|248:242|257:284,1,100.000004410743,2|0,0:0|0:0,0:0:0:0:
348,226,175046,2,0,P|380:137|371:95,1,100.000004410743,2|0,0:0|0:0,0:0:0:0:
347,66,175331,1,2,0:0:0:0:
202,106,175522,5,0,0:0:0:0:
206,108,175617,1,2,0:0:0:0:
331,201,175807,5,0,0:0:0:0:
326,203,175902,1,2,0:0:0:0:
189,270,176093,5,0,0:0:0:0:
192,273,176188,1,2,0:0:0:0:
331,318,176379,5,0,0:0:0:0:
335,316,176474,2,0,B|400:296|400:296|414:251,1,100.000004410743,2|0,0:0|0:0,0:0:0:0:
331,201,176760,2,0,B|266:221|266:221|252:266,1,100.000004410743,2|0,0:0|0:0,0:0:0:0:
294,284,177046,2,0,B|359:264|359:264|373:219,1,100.000004410743,2|0,0:0|0:0,0:0:0:0:
290,169,177332,2,0,B|225:189|225:189|211:234,1,100.000004410743,2|0,0:0|0:0,0:0:0:0:
215,294,177617,1,2,0:0:0:0:
474,171,177807,5,0,0:0:0:0:
468,169,177903,1,2,0:0:0:0:
322,125,178093,5,0,0:0:0:0:
320,131,178189,1,2,0:0:0:0:
372,271,178379,5,0,0:0:0:0:
376,272,178475,1,2,0:0:0:0:
372,271,178761,5,2,0:0:0:0:
260,173,178950,1,2,0:0:0:0:
391,122,179141,1,2,0:0:0:0:
311,306,179331,5,2,0:0:0:0:
162,174,179522,1,2,0:0:0:0:
356,123,179711,1,2,0:0:0:0:
226,277,179903,5,2,0:0:0:0:
43,110,180092,1,2,0:0:0:0:
288,64,180283,1,2,0:0:0:0:
103,254,180474,1,2,0:0:0:0:
139,9,180665,1,2,0:0:0:0:
314,186,180854,1,2,0:0:0:0:
68,128,181046,5,10,0:0:0:0:
49,200,181141,1,8,0:0:0:0:
103,254,181236,1,8,0:0:0:0:
177,251,181331,1,10,0:0:0:0:
215,187,181426,1,8,0:0:0:0:
235,114,181522,1,8,0:0:0:0:
304,86,181617,1,10,0:0:0:0:
374,111,181712,1,8,0:0:0:0:
406,178,181807,1,8,0:0:0:0:
380,249,181903,1,10,0:0:0:0:
313,282,181998,1,8,0:0:0:0:
270,343,182093,1,8,0:0:0:0:
256,192,182188,12,0,183236,0:0:0:0:
121,333,183331,6,0,L|88:335,4,33.3333335320153,6|0|0|0|0,0:0|0:0|0:0|0:0|0:0,0:0:0:0:
173,219,183617,2,0,L|205:216,4,33.3333335320153,2|0|0|0|0,0:0|0:0|0:0|0:0|0:0,0:0:0:0:
22,145,183903,2,0,P|44:72|109:33,1,133.333334128061,8|0,0:0|0:0,0:0:0:0:
173,219,184188,1,0,0:0:0:0:
456,129,184379,6,0,P|414:217|324:256,1,200.000001192092,2|0,0:0|0:0,0:0:0:0:
268,62,184760,1,2,0:0:0:0:
42,326,184950,5,0,0:0:0:0:
88,129,185046,1,8,0:0:0:0:
323,256,185236,2,0,P|329:217|320:172,1,66.6666670640307
193,322,185522,6,0,B|203:303|229:298|229:298|200:266|205:225|205:225|245:223|243:172,1,166.666667660077,0|0,0:0|0:0,0:0:0:0:
137,129,185807,1,0,0:0:0:0:
309,140,185903,2,0,P|344:200|311:265,1,133.333334128061,6|0,0:0|0:0,0:0:0:0:
138,230,186188,2,0,P|103:290|136:355,1,133.333334128061,8|0,0:0|0:0,0:0:0:0:
322,255,186474,1,0,0:0:0:0:
128,91,186665,5,2,0:0:0:0:
54,276,186760,1,0,0:0:0:0:
282,162,186950,5,0,0:0:0:0:
391,330,187046,1,2,0:0:0:0:
422,49,187236,5,0,0:0:0:0:
322,255,187331,2,0,B|373:232|386:215|386:215|417:228|448:227,1,133.333334128061,8|0,0:0|0:0,0:0:0:0:
282,162,187617,2,0,B|231:185|218:202|218:202|187:189|156:190,1,133.333334128061,8|0,0:0|0:0,0:0:0:0:
297,40,187903,2,0,L|356:45,4,33.3333335320153,6|0|0|0|0,0:0|0:0|0:0|0:0|0:0,0:0:0:0:
211,107,188188,2,0,L|177:104,4,33.3333335320153,2|0|0|0|0,0:0|0:0|0:0|0:0|0:0,0:0:0:0:
344,187,188474,2,0,B|309:262|309:262|254:281,1,133.333334128061,8|0,0:0|0:0,0:0:0:0:
76,196,188760,1,0,0:0:0:0:
304,353,188950,6,0,B|370:328|370:328|432:190,1,200.000001192092,2|0,0:0|0:0,0:0:0:0:
255,98,189331,1,2,0:0:0:0:
181,341,189522,5,0,0:0:0:0:
96,160,189617,1,8,0:0:0:0:
480,243,189807,2,0,L|386:251,1,66.6666670640307
443,50,190093,6,0,B|354:49|354:49|306:111,1,166.666667660077,0|0,0:0|0:0,0:0:0:0:
401,145,190379,1,0,0:0:0:0:
255,307,190474,1,6,0:0:0:0:
144,27,190665,5,0,0:0:0:0:
255,180,190760,2,0,B|307:113|307:113|248:113,1,133.333334128061,8|0,0:0|0:0,0:0:0:0:
56,113,191046,1,0,0:0:0:0:
409,244,191236,5,2,0:0:0:0:
449,48,191331,1,0,0:0:0:0:
104,223,191522,5,0,0:0:0:0:
144,27,191617,1,2,0:0:0:0:
314,345,191807,5,8,0:0:0:0:
249,286,191903,1,8,0:0:0:0:
224,202,191998,1,8,0:0:0:0:
253,120,192093,1,10,0:0:0:0:
314,58,192188,1,8,0:0:0:0:
330,143,192284,1,8,0:0:0:0:
300,224,192379,1,8,0:0:0:0:
249,286,192474,1,8,0:0:0:0:
226,78,193046,6,0,B|170:104|138:104|138:104|112:149,1,133.333334128061,8|0,0:0|0:0,0:0:0:0:
318,144,193331,1,0,0:0:0:0:
111,320,193522,6,0,B|168:298|136:240|136:240|190:228|214:160,1,200.000001192092,6|0,0:0|0:0,0:0:0:0:
23,94,193903,2,0,P|110:31|159:40,1,133.333334128061,2|0,0:0|0:0,0:0:0:0:
328,48,194188,1,8,0:0:0:0:
278,339,194379,6,0,L|364:335,1,66.6666670640307
111,320,194665,6,0,B|77:269|77:269|81:248|102:216|102:216|88:173|125:132,1,200.000001192092,6|0,0:0|0:0,0:0:0:0:
317,114,195046,1,2,0:0:0:0:
27,334,195236,5,0,0:0:0:0:
169,194,195331,1,8,0:0:0:0:
387,312,195522,5,0,0:0:0:0:
439,119,195617,1,0,0:0:0:0:
136,87,195807,6,0,B|151:118|151:118|193:104|254:125|270:190|241:225,1,200.000001192092,6|0,0:0|0:0,0:0:0:0:
439,119,196188,2,0,P|363:40|320:28,1,133.333334128061,2|0,0:0|0:0,0:0:0:0:
135,231,196474,2,0,P|211:310|254:322,1,133.333334128061,8|0,0:0|0:0,0:0:0:0:
426,269,196760,1,0,0:0:0:0:
264,77,196950,6,8,L|267:41,6,33.3333335320153,14|8|8|8|8|8|8,0:0|0:0|0:0|0:0|0:0|0:0|0:0,0:0:0:0:
169,68,197331,2,0,P|189:128|272:166,1,133.333334128061,2|0,0:0|0:0,0:0:0:0:
431,84,197617,1,8,0:0:0:0:
136,316,197807,5,2,0:0:0:0:
333,357,197903,1,0,0:0:0:0:
28,103,198093,6,0,L|34:32,1,66.6666670640307
136,316,198379,5,0,0:0:0:0:
157,121,198474,2,0,B|210:173|296:194,1,133.333334128061,2|0,0:0|0:0,0:0:0:0:
429,66,198760,1,8,0:0:0:0:
136,316,198950,2,0,L|143:241,1,66.6666670640307
477,135,199236,6,0,P|418:59|322:61,1,200.000001192092,6|0,0:0|0:0,0:0:0:0:
389,280,199617,2,0,P|367:222|374:152,1,133.333334128061,2|0,0:0|0:0,0:0:0:0:
213,319,199903,1,8,0:0:0:0:
197,96,200093,6,0,P|102:95|69:183,1,200.000001192092,2|0,0:0|0:0,0:0:0:0:
213,319,200474,1,2,0:0:0:0:
428,130,200760,5,0,0:0:0:0:
106,242,200950,5,0,0:0:0:0:
85,143,201046,1,0,0:0:0:0:
228,254,201236,5,0,0:0:0:0:
185,91,201332,1,0,0:0:0:0:
354,267,201522,5,0,0:0:0:0:
299,40,201617,2,0,L|354:45,4,33.3333335320153,6|0|0|0|0,0:0|0:0|0:0|0:0|0:0,0:0:0:0:
406,134,201903,2,0,L|372:138,4,33.3333335320153,2|0|0|0|0,0:0|0:0|0:0|0:0|0:0,0:0:0:0:
291,273,202188,2,0,B|279:289|279:289|371:278|371:278|354:267,1,133.333334128061,8|0,0:0|0:0,0:0:0:0:
299,40,202474,1,0,0:0:0:0:
127,362,202665,6,0,B|150:357|171:364|171:364|175:315|213:308|213:308|230:355|296:361,1,200.000001192092,2|0,0:0|0:0,0:0:0:0:
467,197,203046,1,2,0:0:0:0:
140,95,203236,5,0,0:0:0:0:
58,313,203331,1,8,0:0:0:0:
442,56,203522,2,0,L|352:61,1,66.6666670640307
418,347,203807,6,0,B|366:362|341:358|341:358|358:298|309:255,1,166.666667660077,2|0,0:0|0:0,0:0:0:0:
343,157,204093,1,0,0:0:0:0:
201,341,204188,2,0,B|262:329|262:329|234:287|249:242,1,133.333334128061,6|0,0:0|0:0,0:0:0:0:
10,233,204474,2,0,P|18:126|43:83,1,133.333334128061,8|0,0:0|0:0,0:0:0:0:
255,38,204760,1,0,0:0:0:0:
10,233,204950,5,2,0:0:0:0:
226,140,205046,1,0,0:0:0:0:
37,34,205236,5,0,0:0:0:0:
104,257,205331,1,2,0:0:0:0:
375,42,205522,5,0,0:0:0:0:
153,113,205617,2,0,B|202:123|202:123|210:115|210:115|235:126|280:123,1,133.333334128061,8|0,0:0|0:0,0:0:0:0:
370,316,205903,2,0,B|321:306|321:306|313:314|313:314|288:303|232:306,1,133.333334128061,2|0,0:0|0:0,0:0:0:0:
152,113,206188,2,0,L|104:109,4,33.3333335320153,6|0|0|0|0,0:0|0:0|0:0|0:0|0:0,0:0:0:0:
274,47,206474,2,0,L|226:42,4,33.3333335320153
391,124,206760,2,0,L|226:116,1,133.333334128061,8|0,0:0|0:0,0:0:0:0:
37,35,207046,1,0,0:0:0:0:
288,356,207236,6,0,B|298:322|335:297|335:297|364:319|407:307|407:307|416:250|347:212,1,266.666668256123,2|0,0:0|0:0,0:0:0:0:
59,348,207807,5,2,0:0:0:0:
255,220,207903,1,8,0:0:0:0:
37,35,208093,6,0,P|70:39|131:91,1,66.6666670640307
104,272,208379,6,0,B|147:256|156:230|156:230|210:216|222:258|222:258|206:258,1,166.666667660077,0|0,0:0|0:0,0:0:0:0:
321,159,208665,1,0,0:0:0:0:
155,353,208760,1,6,0:0:0:0:
439,56,208950,5,0,0:0:0:0:
381,284,209046,2,0,P|367:339|314:290,1,133.333334128061,8|0,0:0|0:0,0:0:0:0:
249,89,209331,2,0,P|196:62|179:119,1,133.333334128061,2|0,0:0|0:0,0:0:0:0:
409,158,209617,1,0,0:0:0:0:
71,65,209807,5,0,0:0:0:0:
115,296,209903,1,2,0:0:0:0:
385,18,210093,5,8,0:0:0:0:
312,86,210188,1,8,0:0:0:0:
315,186,210284,1,8,0:0:0:0:
372,267,210379,1,10,0:0:0:0:
409,174,210474,1,8,0:0:0:0:
315,186,210569,1,8,0:0:0:0:
231,241,210665,1,8,0:0:0:0:
219,340,210760,1,8,0:0:0:0:
174,96,211331,6,0,B|240:81|254:150|322:117,1,133.333334128061,8|0,0:0|0:0,0:0:0:0:
81,209,211617,1,0,0:0:0:0:
368,336,211807,6,0,B|325:338|335:292|329:267|377:251|377:251|366:210|315:224,1,200.000001192092,6|0,0:0|0:0,0:0:0:0:
81,209,212188,2,0,B|121:155|176:198|207:129,1,133.333334128061,2|0,0:0|0:0,0:0:0:0:
423,212,212474,1,8,0:0:0:0:
124,82,212665,5,0,0:0:0:0:
51,303,212760,1,0,0:0:0:0:
423,212,212950,6,0,P|403:329|352:314,1,200.000001192092,6|0,0:0|0:0,0:0:0:0:
465,109,213331,1,2,0:0:0:0:
80,116,213522,5,0,0:0:0:0:
303,51,213617,1,8,0:0:0:0:
196,299,213807,5,0,0:0:0:0:
230,66,213903,1,0,0:0:0:0:
463,234,214093,6,0,B|410:226|373:244|373:244|330:206|330:206|289:221|257:211,1,200.000001192092,6|0,0:0|0:0,0:0:0:0:
64,307,214474,2,0,P|63:236|108:172,1,133.333334128061,2|0,0:0|0:0,0:0:0:0:
324,134,214760,2,0,P|266:101|200:103,1,133.333334128061,8|0,0:0|0:0,0:0:0:0:
64,307,215046,1,0,0:0:0:0:
381,165,215236,6,0,L|387:103,6,33.3333335320153,6|0|0|0|0|0|0,0:0|0:0|0:0|0:0|0:0|0:0|0:0,0:0:0:0:
464,192,215617,2,0,P|419:251|349:251,1,133.333334128061,2|0,0:0|0:0,0:0:0:0:
277,37,215903,1,8,0:0:0:0:
331,333,216093,5,2,0:0:0:0:
454,133,216188,1,0,0:0:0:0:
119,176,216379,2,0,L|42:172,1,66.6666670640307
331,333,216665,5,0,0:0:0:0:
454,133,216760,2,0,P|399:75|327:61,1,133.333334128061,2|0,0:0|0:0,0:0:0:0:
448,274,217046,1,8,0:0:0:0:
179,328,217236,6,0,P|266:266|268:257,1,66.6666670640307,2|0,0:0|0:0,0:0:0:0:
443,46,217522,6,0,B|346:88|299:38|299:38|255:62|198:48|198:48|249:107|330:133,1,400.000002384184,6|0,0:0|0:0,0:0:0:0:
399,144,218188,2,0,B|389:191|353:228|292:230|235:199|163:137,1,262.500011578202,0|0,0:0|0:0,0:0:0:0:
131,87,218760,2,0,B|85:139|96:209|169:246,1,175.00000104308,0|0,0:0|0:0,0:0:0:0:
226,270,219331,2,0,P|185:309|152:314,1,87.5000005215402,0|0,0:0|0:0,0:0:0:0:
25,174,219903,6,0,L|30:128,7,33.3333335320153,6|0|0|0|0|0|0|0,0:0|0:0|0:0|0:0|0:0|0:0|0:0|0:0,0:0:0:0:
176,57,220331,5,0,0:0:0:0:
441,197,220474,1,8,0:0:0:0:
156,314,220617,1,0,0:0:0:0:
441,197,220760,1,0,0:0:0:0:
176,57,220903,6,0,B|171:105|130:121|130:121|156:150|208:157|208:157|194:190|136:212,1,250.000001490115,2|0,0:0|0:0,0:0:0:0:
243,91,221331,2,0,P|280:140|241:231,1,150.000000894069,6|0,0:0|0:0,0:0:0:0:
213,285,221617,2,0,P|176:223|205:157,1,150.000000894069,8|0,0:0|0:0,0:0:0:0:
257,221,221903,2,0,B|168:274|93:191|132:121|132:121|74:125|27:80,1,300.000001788138,6|0,0:0|0:0,0:0:0:0:
286,300,222474,1,2,0:0:0:0:
426,75,222617,5,0,0:0:0:0:
210,314,222760,1,8,0:0:0:0:
304,29,222903,1,0,0:0:0:0:
359,367,223046,1,2,0:0:0:0:
426,75,223188,1,0,0:0:0:0:
145,182,223331,1,0,0:0:0:0:
426,75,223474,1,0,0:0:0:0:
359,367,223617,1,0,0:0:0:0:
165,120,223760,5,2,0:0:0:0:
32,356,223903,1,8,0:0:0:0:
107,65,224046,5,0,0:0:0:0:
184,328,224189,1,2,0:0:0:0:
22,72,224331,5,0,0:0:0:0:
258,204,224474,2,0,L|320:198,7,33.3333335320153,6|0|0|0|0|0|0|0,0:0|0:0|0:0|0:0|0:0|0:0|0:0|0:0,0:0:0:0:
432,56,224903,1,2,0:0:0:0:
352,328,225046,1,8,0:0:0:0:
288,56,225188,1,0,0:0:0:0:
184,328,225331,1,0,0:0:0:0:
435,164,225474,2,0,B|378:152|354:196|354:196|296:194|278:152|278:152|231:176|177:178,1,250.000001490115,2|0,0:0|0:0,0:0:0:0:
156,35,225903,6,0,B|141:86|99:94|99:94|82:134|99:184,1,150.000000894069,6|0,0:0|0:0,0:0:0:0:
92,227,226188,2,0,B|82:250|99:290|99:290|141:298|156:349,1,150.000000894069,8|0,0:0|0:0,0:0:0:0:
227,319,226474,2,0,B|212:265|166:232|166:232|182:187|165:149|165:149|224:109|233:31,1,300.000001788138,6|0,0:0|0:0,0:0:0:0:
384,322,227046,1,2,0:0:0:0:
256,57,227188,5,0,0:0:0:0:
136,184,227331,1,8,0:0:0:0:
256,57,227474,1,0,0:0:0:0:
153,302,227617,1,2,0:0:0:0:
256,57,227760,1,0,0:0:0:0:
255,357,227903,1,0,0:0:0:0:
143,77,228046,1,0,0:0:0:0:
398,231,228188,5,0,0:0:0:0:
314,77,228331,1,2,0:0:0:0:
398,231,228474,1,8,0:0:0:0:
196,57,228617,1,0,0:0:0:0:
398,231,228760,1,2,0:0:0:0:
119,137,228903,1,0,0:0:0:0:
203,304,229617,5,8,0:0:0:0:
203,304,229760,1,8,0:0:0:0:
500,343,229903,1,8,0:0:0:0:
500,343,230046,1,8,0:0:0:0:
422,99,230188,1,8,0:0:0:0:
422,99,230331,1,8,0:0:0:0:
121,99,230474,6,0,B|137:153|137:153|240:193,1,150.000000894069,6|0,0:0|0:0,0:0:0:0:
208,92,230760,2,0,B|300:134|300:134|304:215,1,150.000000894069,8|0,0:0|0:0,0:0:0:0:
268,256,231046,2,0,L|301:258,12,33.3333335320153,6|0|0|0|0|0|0|0|0|0|0|0|2,0:0|0:0|0:0|0:0|0:0|0:0|0:0|0:0|0:0|0:0|0:0|0:0|0:0,0:0:0:0:
275,343,231760,6,0,P|206:318|189:267,1,100.000000596046,0|8,0:0|0:0,0:0:0:0:
302,182,232046,2,0,P|371:207|388:258,1,100.000000596046,0|2,0:0|0:0,0:0:0:0:
364,325,232331,1,0,0:0:0:0:
265,41,232474,1,0,0:0:0:0:
194,298,232617,1,0,0:0:0:0:
462,217,232760,1,0,0:0:0:0:
178,118,232903,5,2,0:0:0:0:
364,325,233046,1,8,0:0:0:0:
256,68,233188,1,0,0:0:0:0:
255,330,233331,1,2,0:0:0:0:
334,118,233474,1,0,0:0:0:0:
148,325,233617,6,0,L|104:321,10,33.3333335320153,6|0|0|0|0|0|2|0|0|0|0,0:0|0:0|0:0|0:0|0:0|0:0|0:0|0:0|0:0|0:0|0:0,0:0:0:0:
179,148,234188,1,8,0:0:0:0:
428,136,234331,5,0,0:0:0:0:
424,139,234403,1,0,0:0:0:0:
420,142,234474,1,2,0:0:0:0:
253,315,234617,5,0,0:0:0:0:
254,310,234688,1,0,0:0:0:0:
254,305,234760,1,0,0:0:0:0:
297,84,234903,5,2,0:0:0:0:
387,317,235046,1,0,0:0:0:0:
148,248,235188,1,0,0:0:0:0:
297,84,235331,1,8,0:0:0:0:
254,305,235474,1,0,0:0:0:0:
159,52,235617,2,0,B|105:93|69:98|69:98|60:132|25:176|25:176|97:146|151:140|151:140,1,300.000001788138,6|0,0:0|0:0,0:0:0:0:
360,49,236188,1,0,0:0:0:0:
185,297,236331,6,0,L|285:289,1,100.000000596046,0|8,0:0|0:0,0:0:0:0:
261,58,236617,2,0,L|376:47,1,100.000000596046,0|6,0:0|0:0,0:0:0:0:
108,60,236903,1,0,0:0:0:0:
48,303,237046,1,0,0:0:0:0:
291,350,237188,1,0,0:0:0:0:
181,124,237331,1,2,0:0:0:0:
177,374,237474,1,0,0:0:0:0:
424,365,237616,5,8,0:0:0:0:
452,282,237712,1,8,0:0:0:0:
415,203,237807,1,8,0:0:0:0:
366,130,237903,1,8,0:0:0:0:
385,44,237999,1,8,0:0:0:0:
467,16,238094,1,8,0:0:0:0:
472,104,238188,2,0,L|469:137,4,33.3333335320153,6|0|0|0|0,0:0|0:0|0:0|0:0|0:0,0:0:0:0:
307,201,238474,2,0,L|304:234,4,33.3333335320153,2|0|0|0|0,0:0|0:0|0:0|0:0|0:0,0:0:0:0:
191,95,238760,5,8,0:0:0:0:
32,350,238903,1,0,0:0:0:0:
307,201,239046,1,0,0:0:0:0:
32,350,239188,2,0,B|80:325|115:333|115:333|110:297|148:284|148:284|162:315|233:324,1,250.000001490115,2|0,0:0|0:0,0:0:0:0:
275,215,239617,6,0,B|321:172|387:186|387:186|336:164,1,150.000000894069,6|0,0:0|0:0,0:0:0:0:
237,194,239903,2,0,B|273:157|324:143|324:143|294:122|274:90,1,150.000000894069,8|0,0:0|0:0,0:0:0:0:
198,175,240188,2,0,B|219:150|246:135|246:135|229:101|255:51|316:48|340:102|340:102|380:131|429:124,1,300.000001788138,6|0,0:0|0:0,0:0:0:0:
119,41,240760,5,2,0:0:0:0:
275,297,240903,1,0,0:0:0:0:
465,65,241046,1,8,0:0:0:0:
394,354,241188,1,0,0:0:0:0:
337,59,241331,1,2,0:0:0:0:
199,326,241474,1,0,0:0:0:0:
432,137,241617,1,0,0:0:0:0:
136,192,241760,2,0,L|260:181,1,100.000000596046,0|0,0:0|0:0,0:0:0:0:
363,45,242046,5,2,0:0:0:0:
313,339,242188,1,8,0:0:0:0:
241,78,242331,1,0,0:0:0:0:
434,305,242473,1,2,0:0:0:0:
188,192,242617,1,0,0:0:0:0:
487,191,242760,6,0,L|491:134,4,33.3333335320153,6|0|0|0|0,0:0|0:0|0:0|0:0|0:0,0:0:0:0:
388,51,243046,2,0,L|331:46,4,33.3333335320153,0|0|0|2|0,0:0|0:0|0:0|0:0|0:0,0:0:0:0:
114,178,243331,1,8,0:0:0:0:
388,51,243474,1,0,0:0:0:0:
384,351,243617,1,0,0:0:0:0:
388,51,243760,2,0,B|322:84|268:41|268:41|210:75|134:34,1,250.000001490115,2|0,0:0|0:0,0:0:0:0:
78,114,244188,6,0,L|41:269,1,150.000000894069,6|0,0:0|0:0,0:0:0:0:
113,126,244474,2,0,B|86:246|86:246|135:219,1,150.000000894069,8|0,0:0|0:0,0:0:0:0:
155,129,244760,2,0,B|135:209|135:209|196:177|196:177|279:219|279:219|362:210,1,300.000001788138,6|0,0:0|0:0,0:0:0:0:
59,336,245331,5,2,0:0:0:0:
266,119,245474,1,0,0:0:0:0:
445,359,245617,2,0,B|476:269|476:269|464:185,1,150.000000894069,8|0,0:0|0:0,0:0:0:0:
386,267,245903,2,0,B|350:185|403:114|477:117|477:117|470:25,1,300.000001788138,2|0,0:0|0:0,0:0:0:0:
191,142,246474,1,0,0:0:0:0:
470,30,246617,5,2,0:0:0:0:
471,37,246688,1,0,0:0:0:0:
471,42,246760,1,8,0:0:0:0:
221,47,247903,6,8,P|161:43|106:95,1,100.000000596046,8|8,0:0|0:0,0:0:0:0:
334,279,248188,2,8,P|367:229|349:155,1,100.000000596046,8|8,0:0|0:0,0:0:0:0:
70,250,248474,2,8,P|96:303|169:325,1,100.000000596046,8|8,0:0|0:0,0:0:0:0:
208,133,248760,2,0,P|167:214|227:257,1,150.000000894069,6|0,0:0|0:0,0:0:0:0:
245,312,249046,2,0,P|285:230|225:187,1,150.000000894069,8|0,0:0|0:0,0:0:0:0:
70,250,249331,2,0,P|60:222|67:193,12,33.3333335320153,6|0|0|0|0|0|0|0|0|0|0|0|2,0:0|0:0|0:0|0:0|0:0|0:0|0:0|0:0|0:0|0:0|0:0|0:0|0:0,0:0:0:0:
168,319,250046,6,0,B|232:338|232:338|302:321,1,100.000000596046,0|8,0:0|0:0,0:0:0:0:
416,48,250331,2,0,B|352:29|352:29|319:36,1,100.000000596046,0|2,0:0|0:0,0:0:0:0:
168,319,250617,1,0,0:0:0:0:
320,38,250760,1,0,0:0:0:0:
415,343,250903,1,0,0:0:0:0:
320,38,251046,1,0,0:0:0:0:
48,203,251188,1,2,0:0:0:0:
366,213,251331,2,0,P|284:231|224:196,1,150.000000894069,8|0,0:0|0:0,0:0:0:0:
177,115,251617,2,0,B|159:158|159:158|181:132|229:105|288:141,1,150.000000894069,2|0,0:0|0:0,0:0:0:0:
415,308,251903,6,0,L|452:311,11,33.3333335320153,6|0|0|0|0|0|2|0|0|0|0|0,0:0|0:0|0:0|0:0|0:0|0:0|0:0|0:0|0:0|0:0|0:0|0:0,0:0:0:0:
430,158,252474,1,8,0:0:0:0:
123,53,252617,5,0,0:0:0:0:
124,57,252688,1,0,0:0:0:0:
126,61,252760,1,0,0:0:0:0:
181,367,252903,5,0,0:0:0:0:
184,363,252974,1,0,0:0:0:0:
187,359,253046,1,0,0:0:0:0:
268,51,253188,5,2,0:0:0:0:
428,328,253331,1,0,0:0:0:0:
188,114,253474,1,0,0:0:0:0:
477,250,253617,1,8,0:0:0:0:
184,363,253760,1,0,0:0:0:0:
430,158,253903,6,0,P|391:42|286:144,1,300.000001788138,6|0,0:0|0:0,0:0:0:0:
361,268,254474,1,2,0:0:0:0:
144,32,254617,1,0,0:0:0:0:
74,338,254760,1,8,0:0:0:0:
281,121,254903,1,0,0:0:0:0:
74,338,255046,1,6,0:0:0:0:
144,32,255188,5,0,0:0:0:0:
216,324,255331,1,0,0:0:0:0:
263,27,255474,1,0,0:0:0:0:
334,318,255617,1,2,0:0:0:0:
89,144,255760,1,0,0:0:0:0:
413,117,255903,5,8,0:0:0:0:
313,170,255998,1,8,0:0:0:0:
208,126,256093,1,8,0:0:0:0:
144,32,256188,1,8,0:0:0:0:
36,70,256284,1,8,0:0:0:0:
41,182,256379,1,8,0:0:0:0:
146,223,256474,1,12,0:0:0:0:
