osu file format v14

[General]
AudioFilename: audio.mp3
AudioLeadIn: 0
PreviewTime: -1
Countdown: 1
SampleSet: Normal
StackLeniency: 0.7
Mode: 0
LetterboxInBreaks: 0
WidescreenStoryboard: 0

[Editor]
DistanceSpacing: 1.4
BeatDivisor: 4
GridSize: 4
TimelineZoom: 2.2

[Metadata]
Title:Melom
TitleUnicode:Melom
Artist:Propaganda
ArtistUnicode:Propaganda
Creator:woynawsenpai
Version:EZ
Source:
Tags:
BeatmapID:1945745
BeatmapSetID:931881

[Difficulty]
HPDrainRate:5
CircleSize:4
OverallDifficulty:7
ApproachRate:9
SliderMultiplier:1.4
SliderTickRate:1

[Events]
//Background and Video events
//Break Periods
//Storyboard Layer 0 (Background)
//Storyboard Layer 1 (Fail)
//Storyboard Layer 2 (Pass)
//Storyboard Layer 3 (Foreground)
//Storyboard Sound Samples

[TimingPoints]
0,500,4,1,0,100,1,0
4000,-50,4,1,0,100,0,0
4250,-100,4,1,0,100,0,0
8750,-66.6666666666667,4,1,0,100,0,0
9000,-100,4,1,0,100,0,0
10500,-66.6666666666667,4,1,0,100,0,0
10750,-100,4,1,0,100,0,0
12000,-50,4,1,0,100,0,0
12250,-50,4,1,0,100,0,0
13250,-133.333333333333,4,1,0,100,0,0
14375,-100,4,1,0,100,0,0
15000,-66.6666666666667,4,1,0,100,0,0
15250,-100,4,1,0,100,0,0
17250,-66.6666666666667,4,1,0,100,0,0
19750,-100,4,1,0,100,0,0
24500,-50,4,1,0,100,0,0
26000,-100,4,1,0,100,0,0
26500,-50,4,1,0,100,0,0
27250,-100,4,1,0,100,0,0
29250,-66.6666666666667,4,1,0,100,0,0
30000,-100,4,1,0,100,0,0

[HitObjects]
104,150,0,6,0,P|152:121|170:115,1,70
236,119,500,5,0,0:0:0:0:
168,245,750,1,0,0:0:0:0:
89,211,1000,2,0,P|84:147|104:120,1,70
271,50,1500,5,0,0:0:0:0:
196,156,1750,1,0,0:0:0:0:
372,151,2000,6,0,P|362:197|315:220,1,70
212,267,2500,5,0,0:0:0:0:
171,216,2625,1,0,0:0:0:0:
132,164,2750,1,0,0:0:0:0:
256,83,3000,2,0,P|305:124|296:147,1,70
320,290,3500,5,0,0:0:0:0:
150,259,3750,1,0,0:0:0:0:
143,101,4000,2,0,P|235:40|306:57,1,140
347,128,4500,5,0,0:0:0:0:
286,292,4750,1,0,0:0:0:0:
112,206,5000,2,0,P|105:132|118:121,1,70
217,71,5500,5,0,0:0:0:0:
261,129,5625,1,0,0:0:0:0:
310,182,5750,1,0,0:0:0:0:
394,279,6000,5,0,0:0:0:0:
174,249,6250,1,0,0:0:0:0:
418,90,6500,5,0,0:0:0:0:
392,154,6625,1,0,0:0:0:0:
358,217,6750,1,0,0:0:0:0:
418,90,7000,1,0,0:0:0:0:
232,144,7250,1,0,0:0:0:0:
126,267,7500,2,0,P|104:220|109:192,2,70
88,119,8250,6,0,L|174:90,1,70
260,62,8625,1,0,0:0:0:0:
260,282,8750,2,0,L|356:205,1,105.000004005432
428,142,9250,1,0,0:0:0:0:
200,210,9500,5,0,0:0:0:0:
169,148,9625,1,0,0:0:0:0:
142,86,9750,1,0,0:0:0:0:
253,89,10000,6,0,L|323:155,1,70
82,91,10375,1,0,0:0:0:0:
203,198,10500,2,0,L|291:281,1,105.000004005432
324,139,11000,2,0,L|231:122,1,70
110,76,11500,5,0,0:0:0:0:
179,76,11625,1,0,0:0:0:0:
249,75,11750,1,0,0:0:0:0:
388,89,12000,2,0,P|351:160|267:136,1,140
89,78,12375,1,0,0:0:0:0:
73,235,12500,6,0,P|91:284|180:310,1,140
249,291,13000,2,0,P|247:197|210:170,1,140
68,132,13500,5,0,0:0:0:0:
127,93,13625,1,0,0:0:0:0:
184,54,13750,1,0,0:0:0:0:
314,93,14000,2,0,L|378:128,1,52.5000020027161
472,165,14500,5,0,0:0:0:0:
432,222,14625,1,0,0:0:0:0:
385,276,14750,1,0,0:0:0:0:
192,305,15000,2,0,P|187:234|206:189,1,105.000004005432
242,61,15500,5,0,0:0:0:0:
290,106,15625,1,0,0:0:0:0:
339,153,15750,1,0,0:0:0:0:
456,270,16000,2,0,L|366:242,1,70
202,182,16500,5,0,0:0:0:0:
251,181,16750,1,0,0:0:0:0:
169,103,17000,5,0,0:0:0:0:
325,249,17125,1,0,0:0:0:0:
348,76,17250,2,0,P|405:101|420:160,1,105.000004005432
424,278,17750,5,0,0:0:0:0:
173,171,18000,1,0,0:0:0:0:
242,86,18250,5,0,0:0:0:0:
313,57,18375,1,0,0:0:0:0:
378,93,18500,1,0,0:0:0:0:
468,164,18750,5,0,0:0:0:0:
290,303,19000,2,0,P|222:275|206:238,1,105.000004005432
178,88,19375,1,0,0:0:0:0:
321,225,19500,2,0,L|401:306,1,105.000004005432
219,143,20000,6,0,L|138:102,1,70
196,260,20500,5,0,0:0:0:0:
291,144,20750,1,0,0:0:0:0:
131,140,21000,2,0,P|114:173|118:216,1,70
147,308,21500,5,0,0:0:0:0:
210,269,21625,1,0,0:0:0:0:
250,211,21750,2,0,P|262:170|256:116,1,70
257,52,22250,5,0,0:0:0:0:
303,68,22375,1,0,0:0:0:0:
341,97,22500,1,0,0:0:0:0:
362,140,22625,1,0,0:0:0:0:
360,188,22750,1,0,0:0:0:0:
340,233,22875,1,0,0:0:0:0:
303,267,23000,2,0,P|268:292|250:293,1,35
154,223,23250,2,0,P|168:181|179:170,1,35
281,53,23500,6,0,P|244:66|218:112,1,70
419,82,24000,2,0,P|345:105|342:110,1,70
298,185,24375,1,0,0:0:0:0:
406,150,24500,2,0,P|413:213|326:308,1,140
238,336,25000,2,0,P|169:310|167:200,1,140
144,152,25500,5,0,0:0:0:0:
258,220,25750,1,0,0:0:0:0:
55,68,26000,6,0,L|56:160,1,70
62,313,26375,1,0,0:0:0:0:
155,138,26500,2,0,P|210:191|308:190,1,140
337,186,27000,2,0,P|313:115|252:81,1,140
111,63,27500,5,0,0:0:0:0:
176,222,27750,1,0,0:0:0:0:
340,61,28000,2,0,P|298:63|262:101,1,70
144,253,28500,6,0,P|159:281|197:301,2,70
87,116,29250,5,0,0:0:0:0:
97,188,29375,1,0,0:0:0:0:
138,248,29500,1,0,0:0:0:0:
201,285,29625,1,0,0:0:0:0:
274,283,29750,2,0,P|326:264|347:179,1,105.000004005432
435,72,30250,5,0,0:0:0:0:
387,107,30375,1,0,0:0:0:0:
328,116,30500,1,0,0:0:0:0:
275,87,30625,1,0,0:0:0:0:
216,75,30750,1,0,0:0:0:0:
160,96,30875,1,0,0:0:0:0:
127,146,31000,2,0,P|129:170|144:191,1,35
205,203,31250,2,0,P|209:230|229:259,1,35
111,84,31500,5,0,0:0:0:0:
137,270,31750,1,0,0:0:0:0:
317,112,32000,2,0,P|338:145|328:194,1,70
