osu file format v14

[General]
AudioFilename: audio.mp3
AudioLeadIn: 0
PreviewTime: -1
Countdown: 0
SampleSet: Normal
StackLeniency: 0.8
Mode: 0
LetterboxInBreaks: 0
WidescreenStoryboard: 0

[Editor]
DistanceSpacing: 0.8
BeatDivisor: 4
GridSize: 8
TimelineZoom: 1

[Metadata]
Title:Neo
TitleUnicode:Neo
Artist:Project Sekai ft Hatsune Miku
ArtistUnicode:Project Sekai ft Hatsune Miku
Creator:Artaa27
Version:Brand New World
Source:Jin, Project Sekai
Tags:Project Sekai, Vocaloid, Project SEKAI Colorful Stage! feat. Hatsune Miku
BeatmapID:4408171
BeatmapSetID:2101304

[Difficulty]
HPDrainRate:8
CircleSize:4.2
OverallDifficulty:8.3
ApproachRate:9.3
SliderMultiplier:1.6
SliderTickRate:1

[Events]
//Background and Video events
0,0,"Movies & TV 11_19_2023 22_04_40.png",0,0
//Break Periods
2,94378,95187
2,134642,143977
2,145221,146503
2,147747,149030
//Storyboard Layer 0 (Background)
//Storyboard Layer 1 (Fail)
//Storyboard Layer 2 (Pass)
//Storyboard Layer 3 (Foreground)
//Storyboard Layer 4 (Overlay)
//Storyboard Sound Samples

[TimingPoints]
5600,315.789473684211,4,1,0,100,1,0
42231,-100,4,1,0,100,0,0
43494,-100,4,1,0,100,0,1
66231,-133.333333333333,4,1,0,100,0,0
75231,-100,4,1,0,100,0,0
86442,-100,4,1,0,100,0,0
86600,-133.333333333333,4,1,0,100,0,0
94021,-44.4444444444445,4,1,0,100,0,0
95757,-100,4,1,0,100,0,0
106652,-100,4,1,0,100,0,1
124021,-27.7777777777778,4,1,0,100,0,1
124257,-100,4,1,0,100,0,1
134442,-100,4,1,0,100,0,0
144547,-100,4,1,0,100,0,0
151494,-100,4,1,0,100,0,0
152126,-100,4,1,0,100,0,1
174863,-100,4,1,0,100,0,0
178810,-250,4,1,0,100,0,0
180863,-100,4,1,0,100,0,0

[Colours]
Combo1 : 255,172,0
Combo2 : 34,255,62
Combo3 : 125,238,255
Combo4 : 41,62,248

[HitObjects]
256,192,5600,5,0,0:0:0:0:
155,297,5915,1,0,0:0:0:0:
88,237,6073,2,0,B|55:197|55:197|48:115|129:74,2,200
263,243,7652,5,0,0:0:0:0:
382,306,7810,1,0,0:0:0:0:
455,200,7968,1,0,0:0:0:0:
342,133,8126,2,0,P|285:85|196:80,2,160
430,308,8915,1,0,0:0:0:0:
338,271,9073,2,0,B|173:210|332:169|172:105,1,240
71,92,10179,5,0,0:0:0:0:
257,192,10336,1,0,0:0:0:0:
123,280,10494,1,0,0:0:0:0:
292,289,10810,1,0,0:0:0:0:
419,220,10968,2,0,B|428:89|397:97|336:73,1,160
254,59,11600,1,0,0:0:0:0:
126,114,11757,2,0,B|117:245|148:237|209:261,1,160
257,293,12705,5,0,0:0:0:0:
232,89,12863,1,0,0:0:0:0:
368,160,13021,1,0,0:0:0:0:
186,293,13178,2,0,B|123:277|94:299|75:325|40:259|30:201,1,200
185,74,14126,1,0,0:0:0:0:
90,189,14600,5,0,0:0:0:0:
138,270,14757,1,0,0:0:0:0:
256,318,14915,1,0,0:0:0:0:
392,293,15073,1,0,0:0:0:0:
447,194,15231,1,0,0:0:0:0:
439,171,15310,1,0,0:0:0:0:
421,144,15389,1,0,0:0:0:0:
407,124,15468,1,0,0:0:0:0:
386,100,15547,1,0,0:0:0:0:
366,82,15626,1,0,0:0:0:0:
342,70,15705,2,0,B|276:108|257:35|172:89,1,160
96,238,16336,5,0,0:0:0:0:
252,310,16652,1,0,0:0:0:0:
327,221,16810,2,0,P|268:178|261:137,1,80
349,126,17126,2,0,P|408:169|415:210,1,80
275,325,17442,5,0,0:0:0:0:
222,129,17600,1,0,0:0:0:0:
172,263,17757,5,0,0:0:0:0:
412,221,17915,1,0,0:0:0:0:
246,314,18073,5,0,0:0:0:0:
198,71,18231,2,0,B|245:118|333:47|394:111,2,200
323,218,19178,1,0,0:0:0:0:
219,305,19336,2,0,B|156:248|119:322|35:274,1,160
150,162,20284,5,0,0:0:0:0:
245,55,20442,1,0,0:0:0:0:
277,207,20600,2,0,B|305:313|355:239|405:352,1,200
157,304,21310,1,0,0:0:0:0:
129,96,21705,1,0,0:0:0:0:
243,304,21863,1,0,0:0:0:0:
447,213,22178,1,0,0:0:0:0:
303,238,22810,5,0,0:0:0:0:
202,98,22968,1,0,0:0:0:0:
132,251,23126,1,0,0:0:0:0:
298,311,23284,2,0,P|365:276|362:193,1,160
202,98,23915,1,0,0:0:0:0:
60,99,24073,1,0,0:0:0:0:
58,248,24231,2,0,P|93:315|192:294,1,160
236,228,24705,5,0,0:0:0:0:
126,120,24863,1,0,0:0:0:0:
152,282,25021,5,0,0:0:0:0:
293,99,25178,1,0,0:0:0:0:
412,204,25336,5,0,0:0:0:0:
398,228,25415,1,0,0:0:0:0:
377,254,25494,1,0,0:0:0:0:
351,273,25573,1,0,0:0:0:0:
323,286,25652,1,0,0:0:0:0:
292,298,25731,1,0,0:0:0:0:
261,304,25810,1,0,0:0:0:0:
155,164,25968,1,0,0:0:0:0:
325,49,26126,5,0,0:0:0:0:
405,228,26284,1,0,0:0:0:0:
397,244,26363,1,0,0:0:0:0:
389,255,26442,2,0,P|347:297|297:314,2,80
321,174,26915,6,0,B|276:200|225:194,1,80
207,91,27231,6,0,B|153:85|110:102,1,80
78,282,27547,1,0,0:0:0:0:
78,282,27626,1,0,0:0:0:0:
78,282,27705,2,0,P|120:306|166:309,1,80
237,306,27942,1,0,0:0:0:0:
237,306,28021,2,0,P|288:293|332:271,1,80
440,202,28336,5,0,0:0:0:0:
352,78,28494,1,0,0:0:0:0:
279,208,28652,1,0,0:0:0:0:
198,74,28810,1,0,0:0:0:0:
183,81,28889,1,0,0:0:0:0:
166,94,28968,2,0,P|125:151|116:174,1,80
110,259,29205,5,0,0:0:0:0:
119,275,29284,2,0,B|125:317|178:337,1,80
219,148,29600,1,0,0:0:0:0:
172,331,29757,1,0,0:0:0:0:
219,148,29915,1,0,0:0:0:0:
363,275,30074,1,0,0:0:0:0:
376,257,30152,1,0,0:0:0:0:
384,238,30231,2,0,B|390:183|358:146,1,80
322,69,30468,1,0,0:0:0:0:
316,69,30547,2,0,B|268:94|244:66|210:81,1,80
214,209,30863,6,0,P|299:193|377:217,1,160
343,317,31336,1,0,0:0:0:0:
194,135,31494,1,0,0:0:0:0:
209,328,31652,1,0,0:0:0:0:
313,120,31810,1,0,0:0:0:0:
313,120,31889,1,0,0:0:0:0:
313,120,31968,2,0,P|362:184|374:272,2,160
161,75,32915,1,0,0:0:0:0:
377,260,33073,5,0,0:0:0:0:
154,280,33389,2,0,B|96:221|133:175|89:127,1,160
190,187,33864,5,0,0:0:0:0:
190,187,33943,1,0,0:0:0:0:
190,187,34021,1,0,0:0:0:0:
232,125,34178,1,0,0:0:0:0:
396,191,34336,2,0,P|412:219|404:266,1,80
232,125,34652,2,0,B|160:172|70:183,1,160
316,282,35126,5,0,0:0:0:0:
336,273,35205,1,0,0:0:0:0:
350,253,35284,1,0,0:0:0:0:
302,118,35442,1,0,0:0:0:0:
130,219,35600,1,0,0:0:0:0:
316,282,35757,1,0,0:0:0:0:
385,106,35915,2,0,P|324:56|216:85,1,160
57,198,36389,1,0,0:0:0:0:
196,331,36547,2,0,P|246:270|217:162,1,160
57,198,37021,5,0,0:0:0:0:
268,99,37178,2,0,P|318:160|289:268,1,160
229,250,37652,2,0,B|205:303|147:307|149:307,1,80
100,287,37968,2,0,B|124:234|182:230|180:230,1,80
85,93,38442,5,0,0:0:0:0:
266,258,38600,1,0,0:0:0:0:
90,273,38757,5,0,0:0:0:0:
192,75,38915,1,0,0:0:0:0:
266,258,39073,5,0,0:0:0:0:
301,64,39231,1,0,0:0:0:0:
411,284,39389,5,0,0:0:0:0:
254,118,39547,1,0,0:0:0:0:
90,273,39705,5,0,0:0:0:0:
325,135,39863,1,0,0:0:0:0:
450,155,40021,5,0,0:0:0:0:
263,305,40178,1,0,0:0:0:0:
195,82,40336,5,0,0:0:0:0:
335,308,40494,1,0,0:0:0:0:
107,210,40652,5,0,0:0:0:0:
256,192,40968,12,0,41836,0:0:0:0:
120,99,42231,5,0,0:0:0:0:
241,260,42389,1,0,0:0:0:0:
381,89,42547,2,0,B|394:115|426:151|381:189|393:253,2,160
241,260,43494,5,0,0:0:0:0:
152,148,43652,1,0,0:0:0:0:
92,260,43810,2,0,B|152:289|159:329|236:328,1,160
330,304,44285,1,0,0:0:0:0:
326,116,44443,1,0,0:0:0:0:
429,244,44600,1,0,0:0:0:0:
237,238,44757,2,0,B|193:289|164:316|113:339,1,160
99,121,45231,1,0,0:0:0:0:
237,238,45389,1,0,0:0:0:0:
103,335,45547,1,0,0:0:0:0:
99,121,45705,6,0,B|140:46|249:34,1,160
384,274,46336,5,0,0:0:0:0:
326,78,46494,1,0,0:0:0:0:
437,202,46652,1,0,0:0:0:0:
231,236,46810,1,0,0:0:0:0:
384,274,46968,2,0,L|305:314,2,80
188,73,47600,6,0,P|145:52|84:55,1,80
84,117,47915,2,0,P|142:138|193:124,1,80
188,73,48231,2,0,P|145:52|84:55,1,80
92,211,48547,1,0,0:0:0:0:
254,306,48705,1,0,0:0:0:0:
213,81,48863,1,0,0:0:0:0:
194,300,49021,1,0,0:0:0:0:
94,144,49178,2,0,P|112:104|135:60,1,80
279,103,49494,2,0,P|324:62|356:45,1,80
443,201,49810,5,0,0:0:0:0:
356,298,49968,1,0,0:0:0:0:
254,146,50126,2,0,P|285:109|310:77,1,80
356,298,50442,2,0,P|383:257|390:211,1,80
196,317,50757,2,0,P|161:283|131:230,1,80
222,142,51073,5,0,0:0:0:0:
351,96,51231,1,0,0:0:0:0:
358,265,51389,1,0,0:0:0:0:
280,119,51547,1,0,0:0:0:0:
293,294,51705,1,0,0:0:0:0:
188,70,51863,1,0,0:0:0:0:
283,241,52021,2,0,P|334:261|379:240,1,80
452,141,52336,2,0,P|413:116|377:85,1,80
222,236,52652,6,0,P|201:279|144:283,1,80
66,260,52968,2,0,P|87:217|144:213,1,80
222,236,53284,2,0,P|201:279|144:283,1,80
112,133,53600,1,0,0:0:0:0:
216,36,53757,1,0,0:0:0:0:
334,140,53915,2,0,P|342:202|334:238,1,80
115,139,54231,2,0,P|94:192|62:220,1,80
202,286,54547,5,0,0:0:0:0:
255,190,54705,1,0,0:0:0:0:
323,295,54863,1,0,0:0:0:0:
377,191,55021,1,0,0:0:0:0:
265,71,55178,2,0,P|295:39|356:48,1,80
377,191,55494,6,0,P|347:223|286:214,1,80
90,257,55810,2,0,P|120:225|181:234,1,80
276,100,56126,1,0,0:0:0:0:
201,311,56284,1,0,0:0:0:0:
389,192,56442,1,0,0:0:0:0:
206,89,56600,1,0,0:0:0:0:
270,311,56757,2,0,B|214:306|163:290|111:269,2,160
419,240,57705,6,0,B|429:138|381:86|381:86,2,160
312,339,58494,1,0,0:0:0:0:
159,284,58652,2,0,P|84:210|103:135,1,160
223,73,59126,1,0,0:0:0:0:
419,165,59284,2,0,P|384:195|347:219,1,80
289,308,59600,2,0,P|237:311|196:332,1,80
72,236,59915,6,0,P|68:149|111:94,1,160
249,214,60389,1,0,0:0:0:0:
421,297,60547,2,0,P|457:220|417:163,1,160
283,184,61021,1,0,0:0:0:0:
168,329,61178,1,0,0:0:0:0:
77,141,61495,5,0,0:0:0:0:
108,116,61573,1,0,0:0:0:0:
144,99,61652,1,0,0:0:0:0:
184,94,61731,1,0,0:0:0:0:
223,101,61810,1,0,0:0:0:0:
261,113,61889,1,0,0:0:0:0:
300,122,61968,1,0,0:0:0:0:
322,124,62047,1,0,0:0:0:0:
352,110,62126,1,0,0:0:0:0:
383,109,62205,1,0,0:0:0:0:
413,128,62284,1,0,0:0:0:0:
438,161,62363,1,0,0:0:0:0:
438,199,62442,2,0,P|409:278|323:313,2,160
308,97,63389,5,0,0:0:0:0:
201,313,63705,1,0,0:0:0:0:
256,192,63863,12,0,66073,0:0:0:0:
356,266,66231,6,0,B|300:306|230:318|175:309,2,180.000006866455
133,193,67336,1,0,0:0:0:0:
339,58,67494,1,0,0:0:0:0:
306,294,67810,5,0,0:0:0:0:
130,118,68126,1,0,0:0:0:0:
156,118,68757,6,0,B|212:78|282:66|337:75,2,180.000006866455
398,201,69863,1,0,0:0:0:0:
279,337,70021,1,0,0:0:0:0:
166,115,70336,5,0,0:0:0:0:
430,260,70652,1,0,0:0:0:0:
288,302,71284,5,0,0:0:0:0:
114,136,71757,1,0,0:0:0:0:
334,112,72231,1,0,0:0:0:0:
179,282,72547,2,0,P|206:302|237:311,1,60.0000022888184
334,112,72863,2,0,P|364:176|412:195,1,120.000004577637
168,299,73810,6,0,B|64:262|152:215|30:166,1,180.000006866455
344,85,74757,2,0,B|448:122|360:169|482:218,1,180.000006866455
283,304,75389,5,0,0:0:0:0:
250,280,75467,1,0,0:0:0:0:
212,271,75546,1,0,0:0:0:0:
172,277,75625,1,0,0:0:0:0:
133,282,75704,1,0,0:0:0:0:
95,271,75783,1,0,0:0:0:0:
65,245,75862,1,0,0:0:0:0:
45,210,75941,1,0,0:0:0:0:
41,173,76021,1,0,0:0:0:0:
54,146,76100,1,0,0:0:0:0:
80,117,76178,1,0,0:0:0:0:
117,106,76257,2,0,B|189:119|210:74|246:55|308:67,1,200,0|8,0:0|0:0,0:0:0:0:
385,184,76810,5,0,0:0:0:0:
263,157,76968,1,0,0:0:0:0:
225,306,77127,1,0,0:0:0:0:
194,296,77205,1,0,0:0:0:0:
165,283,77284,1,0,0:0:0:0:
138,265,77363,1,0,0:0:0:0:
114,245,77442,1,0,0:0:0:0:
180,130,77600,5,0,0:0:0:0:
280,269,77757,1,0,0:0:0:0:
436,206,77915,1,0,0:0:0:0:
301,102,78073,1,0,0:0:0:0:
273,84,78151,1,0,0:0:0:0:
248,68,78231,2,0,P|219:55|186:60,4,40
203,253,78705,5,0,0:0:0:0:
334,213,78863,1,0,0:0:0:0:
118,104,79021,1,0,0:0:0:0:
94,251,79178,1,0,0:0:0:0:
258,98,79336,1,0,0:0:0:0:
291,102,79415,1,0,0:0:0:0:
320,111,79494,2,0,P|351:122|365:142,4,40
270,288,79968,5,0,0:0:0:0:
188,90,80126,1,0,0:0:0:0:
348,146,80284,1,0,0:0:0:0:
122,196,80442,1,0,0:0:0:0:
77,296,80600,2,0,P|97:311|141:311,3,40
157,317,80915,5,0,0:0:0:0:
317,293,81073,1,0,0:0:0:0:
164,188,81231,1,0,0:0:0:0:
367,159,81389,5,0,0:0:0:0:
445,317,81547,2,0,P|396:313|350:323,1,80
310,233,81863,2,0,P|263:237|215:227,1,80
172,144,82178,2,0,P|123:139|77:150,1,80
306,69,82494,1,0,0:0:0:0:
286,304,82652,2,0,P|274:249|308:226,1,80
408,183,82968,6,0,P|420:238|386:261,1,80
254,334,83284,2,0,P|242:279|276:256,1,80
462,151,83600,2,0,P|474:206|440:229,1,80
259,273,83915,1,0,0:0:0:0:
125,111,84073,1,0,0:0:0:0:
140,313,84231,1,0,0:0:0:0:
272,97,84389,5,0,0:0:0:0:
366,297,84547,1,0,0:0:0:0:
149,197,84705,1,0,0:0:0:0:
397,202,84863,2,0,P|445:180|465:137,1,80
293,83,85178,5,0,0:0:0:0:
68,191,85336,1,0,0:0:0:0:
175,259,85494,1,0,0:0:0:0:
133,35,85652,5,0,0:0:0:0:
285,317,85810,1,0,0:0:0:0:
390,123,85969,1,0,0:0:0:0:
396,140,86047,1,0,0:0:0:0:
400,157,86126,1,0,0:0:0:0:
403,175,86205,1,0,0:0:0:0:
405,193,86284,1,0,0:0:0:0:
405,211,86363,1,0,0:0:0:0:
403,229,86442,1,0,0:0:0:0:
322,109,86599,5,0,0:0:0:0:
194,305,86757,2,0,P|136:303|92:236,1,120
401,304,87389,1,0,0:0:0:0:
284,139,87547,2,0,B|328:116|367:166|410:131,1,120.000004577637
294,216,88494,5,0,0:0:0:0:
394,286,88652,1,0,0:0:0:0:
481,147,88810,1,0,0:0:0:0:
303,67,88968,2,0,B|224:113|255:33|173:84,1,120.000004577637
121,261,89442,1,0,0:0:0:0:
121,261,89600,1,0,0:0:0:0:
294,203,89757,5,0,0:0:0:0:
116,322,89915,2,0,B|212:373|164:288|285:343,1,150.000005722046
361,298,91020,5,0,0:0:0:0:
372,109,91178,1,0,0:0:0:0:
199,278,91336,1,0,0:0:0:0:
417,240,91652,1,0,0:0:0:0:
146,138,91810,2,0,B|95:147|111:197|147:253,1,120.000004577637
282,307,92442,2,0,P|328:288|346:257,1,60.0000022888184
383,137,92915,1,0,0:0:0:0:
221,235,93547,5,0,0:0:0:0:
161,67,93705,1,0,0:0:0:0:
127,209,93863,1,0,0:0:0:0:
257,137,94021,2,0,B|325:164|346:222|410:228,1,180.000006866455
99,176,95757,6,0,P|123:120|165:108,1,80
308,115,96073,2,0,P|359:122|406:151,1,80
347,306,96389,1,0,0:0:0:0:
329,306,96468,1,0,0:0:0:0:
305,306,96547,2,0,B|249:302|198:273,1,80
131,256,96784,1,0,0:0:0:0:
119,249,96863,2,0,B|78:218|70:147|71:147,1,80
247,104,97178,5,0,0:0:0:0:
183,269,97336,1,0,0:0:0:0:
386,194,97494,2,0,P|412:104|360:55,2,160
175,304,98284,5,0,0:0:0:0:
159,293,98363,1,0,0:0:0:0:
138,281,98442,1,0,0:0:0:0:
213,122,98600,1,0,0:0:0:0:
368,206,98757,2,0,P|397:300|327:344,1,160
145,277,99231,1,0,0:0:0:0:
76,130,99389,5,0,0:0:0:0:
144,275,99547,1,0,0:0:0:0:
305,163,99705,2,0,P|399:134|443:204,1,160
191,269,100336,2,0,B|312:241|197:185|328:153,1,160
91,252,100968,6,0,P|145:247|190:250,1,80
235,325,101284,2,0,P|289:320|334:323,1,80
405,260,101599,5,0,0:0:0:0:
267,64,101757,1,0,0:0:0:0:
206,268,101915,5,0,0:0:0:0:
380,84,102073,1,0,0:0:0:0:
256,311,102231,5,0,0:0:0:0:
111,76,102389,1,0,0:0:0:0:
88,291,102547,5,0,0:0:0:0:
226,100,102705,1,0,0:0:0:0:
299,273,102863,5,0,0:0:0:0:
70,162,103021,1,0,0:0:0:0:
324,95,103178,5,0,0:0:0:0:
222,299,103336,1,0,0:0:0:0:
437,202,103494,5,0,0:0:0:0:
256,91,103652,1,0,0:0:0:0:
159,298,103810,1,0,0:0:0:0:
256,192,103968,12,0,105152,0:0:0:0:
383,266,105389,5,0,0:0:0:0:
99,160,105547,1,0,0:0:0:0:
292,78,105705,6,0,B|332:46|332:46|333:183,2,160
292,78,106652,5,0,0:0:0:0:
426,211,106810,1,0,0:0:0:0:
260,288,106968,2,0,P|206:296|148:282,1,80
125,148,107284,2,0,P|71:156|13:142,1,80
213,288,107600,5,0,0:0:0:0:
366,145,107757,1,0,0:0:0:0:
151,131,107915,2,0,P|192:95|235:80,1,80
340,281,108231,2,0,P|299:317|256:332,1,80
257,113,108547,5,0,0:0:0:0:
463,186,108705,1,0,0:0:0:0:
244,286,108863,5,0,0:0:0:0:
414,75,109021,1,0,0:0:0:0:
385,291,109178,5,0,0:0:0:0:
168,104,109336,1,0,0:0:0:0:
306,311,109494,2,0,P|357:309|407:277,1,80
78,216,109810,2,0,P|129:214|179:182,1,80
378,106,110126,1,0,0:0:0:0:
201,307,110284,1,0,0:0:0:0:
233,114,110442,2,0,B|152:116|165:43|88:53,2,160
384,272,111231,5,0,0:0:0:0:
165,269,111389,1,0,0:0:0:0:
360,211,111547,5,0,0:0:0:0:
360,211,111626,1,0,0:0:0:0:
360,211,111705,1,0,0:0:0:0:
195,71,111863,1,0,0:0:0:0:
230,250,112021,1,0,0:0:0:0:
423,66,112178,1,0,0:0:0:0:
361,281,112336,6,0,B|455:281|410:335|512:335,2,160
135,264,113126,1,0,0:0:0:0:
128,253,113284,2,0,B|84:201|84:137|145:100,1,160
316,95,113757,5,0,0:0:0:0:
432,277,113915,1,0,0:0:0:0:
205,140,114073,5,0,0:0:0:0:
430,197,114231,1,0,0:0:0:0:
191,292,114389,5,0,0:0:0:0:
275,90,114547,1,0,0:0:0:0:
341,295,114705,5,0,0:0:0:0:
134,160,114863,1,0,0:0:0:0:
346,73,115021,5,0,0:0:0:0:
178,297,115178,2,0,B|138:257|52:348|86:282|74:253|97:205,1,160
440,249,115810,6,0,P|412:286|445:298,1,80
248,133,116126,2,0,P|256:92|289:58,1,80
83,261,116442,2,0,P|93:299|62:295,1,80
228,233,116757,5,0,0:0:0:0:
95,69,116915,1,0,0:0:0:0:
139,302,117073,5,0,0:0:0:0:
211,62,117231,1,0,0:0:0:0:
329,240,117389,2,0,P|366:264|421:266,1,80
422,104,117705,5,0,0:0:0:0:
185,193,117863,1,0,0:0:0:0:
314,70,118021,2,0,B|276:45|282:171|174:93,2,160
125,250,118810,1,0,0:0:0:0:
137,256,118968,2,0,L|297:312,1,160
352,111,119600,6,0,B|334:55|272:44,1,80
136,155,119915,2,0,B|80:173|69:235,1,80
298,316,120231,2,0,B|339:279|395:332|395:332|458:289,1,160
137,273,120863,1,0,0:0:0:0:
164,100,121178,6,0,P|227:60|313:74,1,160
377,284,121810,2,0,B|325:253|325:253|317:324|317:324|267:338,1,160
154,274,122284,1,0,0:0:0:0:
102,74,122442,1,0,0:0:0:0:
279,238,122757,5,0,0:0:0:0:
73,164,122915,1,0,0:0:0:0:
73,164,122994,1,0,0:0:0:0:
73,164,123073,2,0,B|139:185|137:76|228:104,1,160
233,311,123547,1,0,0:0:0:0:
424,177,123705,1,0,0:0:0:0:
182,241,124021,6,0,B|217:134|217:134|290:248|290:248|333:126,1,360.000013732911
343,72,124336,6,0,P|410:87|435:126,1,80
401,277,124652,1,0,0:0:0:0:
109,211,124810,2,0,P|102:160|140:129,1,80
255,53,125126,1,0,0:0:0:0:
143,314,125284,6,0,P|157:264|193:246,1,80
257,53,125600,1,0,0:0:0:0:
369,314,125758,6,0,P|355:264|319:246,1,80
145,156,126073,1,0,0:0:0:0:
281,289,126231,1,0,0:0:0:0:
277,142,126389,1,0,0:0:0:0:
84,247,126547,1,0,0:0:0:0:
178,51,126705,1,0,0:0:0:0:
218,213,126863,2,0,B|110:236|173:322|31:350,1,240
46,153,127810,2,0,P|143:102|286:75,1,240
383,316,128442,5,0,0:0:0:0:
408,127,128600,1,0,0:0:0:0:
453,216,128757,5,0,0:0:0:0:
315,97,128915,1,0,0:0:0:0:
260,309,129073,5,0,0:0:0:0:
315,97,129231,1,0,0:0:0:0:
228,183,129389,5,0,0:0:0:0:
114,95,129547,1,0,0:0:0:0:
88,278,129705,1,0,0:0:0:0:
246,90,129863,5,0,0:0:0:0:
281,316,130021,1,0,0:0:0:0:
395,224,130178,1,0,0:0:0:0:
178,108,130336,5,0,0:0:0:0:
211,321,130494,1,0,0:0:0:0:
357,161,130652,1,0,0:0:0:0:
254,265,130810,5,0,0:0:0:0:
358,91,130968,1,0,0:0:0:0:
426,307,131126,1,0,0:0:0:0:
197,301,131284,1,0,0:0:0:0:
109,217,131442,1,0,0:0:0:0:
133,94,131600,2,0,B|176:132|195:72,1,80
387,288,131915,6,0,P|414:239|418:186,1,80
377,81,132231,1,0,0:0:0:0:
125,288,132389,6,0,P|98:239|94:186,1,80
135,81,132705,1,0,0:0:0:0:
285,280,132863,5,0,0:0:0:0:
336,65,133021,1,0,0:0:0:0:
177,153,133178,2,0,B|137:242|83:177|54:251,1,160
256,192,133652,12,0,134442,0:0:0:0:
254,191,144547,5,0,0:0:0:0:
254,191,145021,1,0,0:0:0:0:
254,191,147073,5,0,0:0:0:0:
254,191,147547,1,0,0:0:0:0:
256,192,149600,12,0,150863,0:0:0:0:
306,160,151494,6,0,B|193:179|317:235|189:278,1,160
366,64,152126,2,0,P|420:69|453:105,1,80
314,291,152442,1,0,0:0:0:0:
354,99,152600,1,0,0:0:0:0:
178,266,152757,2,0,B|139:285|94:269|94:268,1,80
334,118,153073,2,0,B|373:99|418:115|418:116,1,80
240,300,153389,2,0,P|243:228|166:194,2,160
223,86,154178,5,0,0:0:0:0:
341,280,154336,1,0,0:0:0:0:
346,93,154494,5,0,0:0:0:0:
204,278,154652,1,0,0:0:0:0:
419,260,154810,5,0,0:0:0:0:
285,69,154968,1,0,0:0:0:0:
135,259,155126,5,0,0:0:0:0:
428,191,155284,1,0,0:0:0:0:
209,81,155442,5,0,0:0:0:0:
278,304,155600,2,0,P|364:326|421:280,2,160
292,98,156389,1,0,0:0:0:0:
456,138,156547,6,0,P|432:85|378:77,1,80
292,98,156863,2,0,P|316:151|370:159,1,80
248,103,157178,5,0,0:0:0:0:
162,284,157336,1,0,0:0:0:0:
94,113,157494,2,0,P|59:146|83:155,1,80
285,292,157810,2,0,P|320:325|296:334,1,80
400,255,158126,5,0,0:0:0:0:
254,71,158284,1,0,0:0:0:0:
442,146,158442,1,0,0:0:0:0:
221,264,158600,5,0,0:0:0:0:
336,88,158757,2,0,P|281:180|307:249,1,160
130,153,159231,5,0,0:0:0:0:
288,68,159389,1,0,0:0:0:0:
321,285,159547,5,0,0:0:0:0:
148,228,159705,1,0,0:0:0:0:
403,133,159863,5,0,0:0:0:0:
249,315,160021,1,0,0:0:0:0:
426,259,160178,5,0,0:0:0:0:
181,149,160336,1,0,0:0:0:0:
308,40,160494,5,0,0:0:0:0:
173,318,160652,2,0,P|226:243|295:254,1,160
141,151,161284,6,0,P|206:125|242:129,1,80
361,229,161600,2,0,P|296:255|260:251,1,80
74,114,161915,2,0,P|120:73|171:74,1,80
234,242,162231,5,0,0:0:0:0:
323,58,162389,1,0,0:0:0:0:
401,280,162547,1,0,0:0:0:0:
216,99,162705,5,0,0:0:0:0:
314,279,162863,2,0,P|358:228|391:233,1,80
216,99,163178,2,0,P|172:150|139:145,1,80
148,337,163494,2,0,P|192:286|225:291,1,80
408,112,163810,2,0,P|364:163|331:158,1,80
101,158,164126,6,0,L|217:286,2,160
258,242,164915,5,0,0:0:0:0:
292,53,165073,1,0,0:0:0:0:
175,275,165231,5,0,0:0:0:0:
81,85,165389,1,0,0:0:0:0:
313,120,165547,5,0,0:0:0:0:
105,251,165705,1,0,0:0:0:0:
157,70,165863,5,0,0:0:0:0:
392,245,166021,2,0,B|290:249|390:320|272:349,1,160
253,191,166652,6,0,P|219:156|170:145,1,80
390,289,166968,2,0,P|424:324|473:335,1,80
213,297,167284,1,0,0:0:0:0:
371,94,167442,1,0,0:0:0:0:
351,93,167521,1,0,0:0:0:0:
332,95,167600,2,0,L|244:121,1,80
354,269,167915,5,0,0:0:0:0:
125,148,168073,1,0,0:0:0:0:
310,165,168231,1,0,0:0:0:0:
100,280,168389,5,0,0:0:0:0:
128,285,168468,1,0,0:0:0:0:
160,289,168547,2,0,P|241:288|305:220,1,160
346,76,169021,1,0,0:0:0:0:
132,144,169178,1,0,0:0:0:0:
165,309,169336,1,0,0:0:0:0:
182,320,169494,6,0,P|258:336|288:319,1,80
383,315,169810,1,0,0:0:0:0:
439,215,170048,5,0,0:0:0:0:
404,211,170126,1,0,0:0:0:0:
379,185,170205,1,0,0:0:0:0:
359,155,170284,1,0,0:0:0:0:
337,126,170363,1,0,0:0:0:0:
310,102,170442,1,0,0:0:0:0:
278,85,170521,1,0,0:0:0:0:
243,74,170600,1,0,0:0:0:0:
207,70,170679,1,0,0:0:0:0:
171,72,170758,1,0,0:0:0:0:
135,81,170837,1,0,0:0:0:0:
112,109,170915,1,0,0:0:0:0:
98,126,170994,2,0,P|77:168|81:197,4,40
78,160,171389,5,0,0:0:0:0:
268,97,171705,1,0,0:0:0:0:
163,284,172021,1,0,0:0:0:0:
383,210,172336,1,0,0:0:0:0:
256,192,172573,12,0,174231,0:0:0:0:
138,287,174863,6,0,P|106:230|104:197,1,80
175,71,175178,1,0,0:0:0:0:
355,189,175336,1,0,0:0:0:0:
269,279,175494,5,0,0:0:0:0:
421,209,175652,1,0,0:0:0:0:
287,121,175810,1,0,0:0:0:0:
350,311,175968,2,0,P|410:324|445:295,1,80
356,155,176284,1,0,0:0:0:0:
184,288,176442,1,0,0:0:0:0:
168,129,176600,1,0,0:0:0:0:
301,69,176757,1,0,0:0:0:0:
365,208,176915,1,0,0:0:0:0:
368,117,177389,6,0,P|326:95|280:106,1,80
136,193,177705,1,0,0:0:0:0:
334,290,177863,1,0,0:0:0:0:
252,255,178021,5,0,0:0:0:0:
163,66,178178,1,0,0:0:0:0:
92,258,178336,1,0,0:0:0:0:
254,116,178494,1,0,0:0:0:0:
86,193,178652,1,0,0:0:0:0:
271,326,178810,2,0,B|303:198|303:198|375:328|375:328|412:199,1,408
