osu file format v14

[General]
AudioFilename: audio.mp3
AudioLeadIn: 0
PreviewTime: 60770
Countdown: 0
SampleSet: Soft
StackLeniency: 0.7
Mode: 2
LetterboxInBreaks: 0
WidescreenStoryboard: 1

[Editor]
Bookmarks: 10370,17570,24770,31970,39170,46370,53570,69770,76970,84170,93170,100370,107570,114770,121970,125570
DistanceSpacing: 1.3
BeatDivisor: 2
GridSize: 32
TimelineZoom: 2.999999

[Metadata]
Title:Excalibur ~Revived resolution~
TitleUnicode:Excalibur ~Revived resolution~
Artist:Project Grimoire
ArtistUnicode:Project Grimoire
Creator:Souvenir
Version:~Salad~
Source:maimai MiLK
Tags:Du5t Dust IDu5t IDust Team Instrumental Video Game Arthur ~once Upon a Time~ Brionac ~Lugh Lamhfhata~ Caliburne ~Story of the Legendary sword~ ICE verdammt ruf Amaneko artcore
BeatmapID:3111873
BeatmapSetID:1514014

[Difficulty]
HPDrainRate:3
CircleSize:3
OverallDifficulty:7
ApproachRate:7
SliderMultiplier:1.38
SliderTickRate:1

[Events]
//Background and Video events
0,0,"Revived resolution.jpg",0,0
//Break Periods
2,61070,67070
//Storyboard Layer 0 (Background)
//Storyboard Layer 1 (Fail)
//Storyboard Layer 2 (Pass)
//Storyboard Layer 3 (Foreground)
//Storyboard Layer 4 (Overlay)
//Storyboard Sound Samples

[TimingPoints]
3170,300,4,2,1,50,1,0
10370,-100,4,2,1,60,0,0
16670,-100,4,2,1,65,0,0
16820,-100,4,2,1,65,0,0
16970,-100,4,2,1,70,0,0
17120,-100,4,2,1,70,0,0
17270,-100,4,2,1,75,0,0
17420,-100,4,2,1,75,0,0
17570,-100,4,2,1,60,0,0
23870,-100,4,2,1,60,0,0
24170,-100,4,2,1,60,0,0
24470,-100,4,2,1,60,0,0
24620,-100,4,2,1,60,0,0
28370,-100,4,2,1,65,0,0
31970,-100,4,2,1,60,0,0
32045,-100,4,2,1,45,0,0
37370,-100,4,2,1,45,0,0
38570,-100,4,2,1,52,0,0
38870,-100,4,2,1,60,0,0
39170,-100,4,2,1,60,0,0
45620,-100,4,2,1,60,0,0
45920,-100,4,2,1,60,0,0
46370,-100,4,2,1,65,0,0
51470,-100,4,2,1,65,0,0
51770,-100,4,2,1,65,0,0
57170,-100,4,2,1,70,0,1
60770,-100,4,2,98,35,0,0
67970,-100,4,2,1,45,0,0
71570,-100,4,2,1,50,0,0
73370,-100,4,2,1,55,0,0
75170,-100,4,2,1,65,0,0
83270,-100,4,2,1,65,0,0
83570,-100,4,2,1,70,0,0
83870,-100,4,2,1,75,0,0
84020,-100,4,2,1,80,0,0
84245,-100,4,2,1,70,0,0
93170,-100,4,2,1,65,0,0
98270,-100,4,2,1,65,0,0
98495,-100,4,2,1,65,0,0
100370,-100,4,2,1,70,0,0
106670,-100,4,2,1,70,0,0
106970,-100,4,2,1,75,0,0
107270,-100,4,2,1,80,0,0
107570,-100,4,2,98,65,0,1
107645,-100,4,2,1,80,0,1
114770,-100,4,2,98,65,0,1
114845,-100,4,2,1,80,0,1
121970,-100,4,2,1,80,0,0
124670,-100,4,2,1,80,0,0
125270,-100,4,2,1,80,0,0

[Colours]
Combo1 : 250,150,107
Combo2 : 196,196,196
Combo3 : 247,111,111
Combo4 : 82,82,82

[HitObjects]
83,228,3170,5,4,0:0:0:0:
83,228,3470,1,0,0:0:0:0:
156,222,3620,1,2,0:0:0:0:
294,214,3920,1,0,0:0:0:0:
222,210,4070,1,10,0:1:0:0:
361,211,4370,5,0,0:0:0:0:
431,209,4520,1,2,0:0:0:0:
431,209,4820,1,0,0:0:0:0:
361,211,4970,6,0,L|213:206,1,138,10|0,0:0|0:0,0:0:0:0:
295,243,5420,2,0,P|337:217|286:154,1,138,10|0,0:0|0:0,0:0:0:0:
144,146,5870,5,8,0:1:0:0:
33,144,6170,1,0,0:0:0:0:
105,143,6320,1,2,0:0:0:0:
291,147,6770,5,4,0:0:0:0:
291,147,7070,1,0,0:0:0:0:
361,142,7220,1,2,0:0:0:0:
221,234,7520,1,0,0:0:0:0:
150,231,7670,1,10,0:1:0:0:
291,147,7970,5,0,0:0:0:0:
361,142,8120,1,2,0:0:0:0:
361,142,8420,1,0,0:0:0:0:
205,229,8570,6,0,L|124:227,2,69,10|0|0,1:2|0:0|0:0,0:0:0:0:
276,173,9020,2,0,L|324:120,2,69,10|0|0,1:2|0:0|0:0,0:0:0:0:
120,148,9470,6,0,P|77:196|135:236,1,138,4|0,1:2|1:0,0:0:0:0:
190,274,9920,2,0,L|115:270,1,69,0|8,1:0|0:1,0:0:0:0:
368,340,10370,6,0,L|373:190,1,138,4|8,0:0|0:0,0:0:0:0:
299,195,10820,2,0,L|142:188,1,138,2|0,0:0|0:0,0:0:0:0:
233,188,11270,5,10,1:2:0:0:
250,151,11420,1,0,0:0:0:0:
215,114,11570,1,2,0:0:0:0:
146,91,11720,1,2,0:0:0:0:
35,91,12020,1,0,0:0:0:0:
191,93,12170,5,2,1:2:0:0:
252,122,12320,1,0,0:0:0:0:
288,179,12470,1,10,1:2:0:0:
287,247,12620,1,0,0:0:0:0:
250,304,12770,1,2,1:2:0:0:
187,332,12920,1,0,0:0:0:0:
112,333,13070,5,10,1:2:0:0:
361,307,13370,1,8,1:2:0:0:
431,305,13520,2,0,L|437:152,1,138,4|0,0:0|0:0,0:0:0:0:
281,153,13970,6,0,L|126:148,1,138,8|8,1:2|0:0,0:0:0:0:
71,146,14420,2,0,L|60:304,1,138,0|0,0:0|0:0,0:0:0:0:
130,242,14870,5,10,1:2:0:0:
147,205,15020,1,0,0:0:0:0:
112,168,15170,1,2,0:0:0:0:
43,145,15320,1,2,0:0:0:0:
180,125,15620,1,8,1:2:0:0:
335,232,15770,6,8,L|411:231,1,69,14|8,1:2|0:0,0:0:0:0:
405,137,16070,2,0,L|325:130,1,69,10|8,1:2|0:0,0:0:0:0:
265,135,16370,1,8,1:2:0:0:
336,131,16520,1,8,0:0:0:0:
181,203,16670,6,0,L|176:124,1,69,12|8,1:2|0:0,0:0:0:0:
246,124,16970,2,0,L|251:36,1,69,12|8,1:2|0:0,0:0:0:0:
95,54,17270,1,12,1:2:0:0:
221,49,17570,6,0,P|255:110|213:170,1,138,4|8,1:0|0:0,0:0:0:0:
154,161,18020,1,0,0:0:0:0:
228,162,18170,1,8,0:0:0:0:
364,313,18470,6,0,L|199:305,1,138,10|8,0:0|0:0,0:0:0:0:
293,277,18920,1,0,0:0:0:0:
362,268,19070,1,0,0:0:0:0:
223,227,19370,6,0,P|181:182|240:129,1,138,10|8,0:0|0:0,0:0:0:0:
291,119,19820,1,0,0:0:0:0:
223,126,19970,1,8,0:0:0:0:
85,209,20270,6,0,L|83:129,1,69,10|0,0:0|0:0,0:0:0:0:
160,132,20570,2,0,L|162:55,1,69,8|0,0:0|0:0,0:0:0:0:
85,173,20870,1,0,0:0:0:0:
334,320,21170,6,0,L|339:172,1,138,10|8,0:0|0:0,0:0:0:0:
267,178,21620,1,0,0:0:0:0:
338,182,21770,1,8,0:0:0:0:
198,258,22070,6,0,L|47:251,1,138,10|8,0:0|0:0,0:0:0:0:
129,217,22520,1,0,0:0:0:0:
201,211,22670,1,0,0:0:0:0:
347,256,22970,6,0,L|353:104,1,138,10|8,0:0|0:0,0:0:0:0:
281,117,23420,1,0,0:0:0:0:
352,118,23570,1,8,0:0:0:0:
102,178,23870,5,14,0:0:0:0:
239,175,24170,1,14,0:0:0:0:
102,178,24470,2,0,L|100:92,1,69,14|8,0:0|0:1,0:0:0:0:
255,93,24770,6,0,L|412:88,1,138,14|8,0:0|0:0,0:0:0:0:
463,85,25220,1,0,0:0:0:0:
388,88,25370,1,8,0:0:0:0:
249,180,25670,6,0,L|240:336,1,138,10|8,0:0|0:0,0:0:0:0:
311,320,26120,1,0,0:0:0:0:
382,318,26270,1,8,0:0:0:0:
243,237,26570,6,0,L|86:227,1,138,10|0,0:0|0:0,0:0:0:0:
35,225,27020,1,0,0:0:0:0:
106,226,27170,1,8,0:0:0:0:
250,230,27470,6,0,L|254:152,1,69,10|0,0:0|0:0,0:0:0:0:
183,149,27770,2,0,L|105:143,1,69,8|0,0:0|0:0,0:0:0:0:
183,149,28070,1,8,0:0:0:0:
433,316,28370,6,0,L|440:160,1,138,14|0,1:2|0:0,0:0:0:0:
301,175,28970,1,8,0:0:0:0:
55,263,29270,6,0,L|215:251,1,138,14|8,1:2|0:0,0:0:0:0:
54,262,29870,1,8,0:0:0:0:
305,319,30170,5,14,1:2:0:0:
369,299,30320,1,0,0:0:0:0:
397,239,30470,1,8,0:0:0:0:
371,177,30620,1,0,0:0:0:0:
308,155,30770,1,10,0:0:0:0:
57,157,31070,5,14,1:2:0:0:
193,152,31370,1,10,1:2:0:0:
57,157,31670,2,8,L|131:155,1,69,8|8,1:2|0:0,0:0:0:0:
281,142,31970,6,0,P|368:190|277:300,1,276,6|0,0:0|0:0,0:0:0:0:
150,290,32870,2,0,P|159:172|308:136,1,276,2|0,0:0|0:0,0:0:0:0:
364,137,33620,1,0,0:0:0:0:
293,139,33770,6,0,L|125:134,2,138,2|0|0,0:0|0:0|0:0,0:0:0:0:
153,273,34670,2,0,P|73:240|178:132,1,276,2|0,0:0|0:0,0:0:0:0:
225,119,35420,1,0,0:0:0:0:
296,110,35570,6,0,P|309:215|164:256,1,276,2|0,0:0|0:0,0:0:0:0:
310,340,36470,2,0,L|317:180,1,138,2|0,0:0|0:0,0:0:0:0:
245,203,36920,1,0,0:0:0:0:
174,199,37070,1,0,0:0:0:0:
321,76,37370,6,0,P|401:146|301:265,1,276,2|0,0:0|0:0,0:0:0:0:
183,54,38270,2,0,L|476:48,1,276,2|0,0:0|0:0,0:0:0:0:
210,323,39170,6,0,P|141:290|218:147,1,276,14|2,1:2|0:0,0:0:0:0:
351,156,40070,2,0,L|59:142,1,276,10|0,0:1|0:0,0:0:0:0:
143,115,40820,1,0,0:0:0:0:
213,108,40970,6,0,L|216:273,1,138,10|0,0:0|0:0,0:0:0:0:
74,236,41570,1,2,0:0:0:0:
213,108,41870,2,0,L|216:273,1,138,10|2,0:1|0:0,0:0:0:0:
74,236,42470,1,0,0:0:0:0:
324,317,42770,6,0,P|384:285|321:121,1,276,14|2,0:0|0:0,0:0:0:0:
190,273,43670,2,0,P|191:170|366:122,1,276,10|0,0:1|0:0,0:0:0:0:
195,337,44570,2,0,P|85:309|79:152,1,276,10|10,0:0|0:0,0:0:0:0:
318,240,45470,6,0,L|323:151,1,69,10|0,0:0|0:0,0:0:0:0:
247,175,45770,2,0,L|245:90,1,69,10|8,0:0|0:0,0:0:0:0:
320,94,46070,2,8,L|410:91,1,69
234,321,46370,6,0,P|153:298|239:187,1,276,4|8,1:1|1:2,0:0:0:0:
95,211,47270,2,0,L|89:70,1,138,14|8,1:2|0:0,0:0:0:0:
225,61,47870,1,10,1:2:0:0:
293,57,48020,1,0,1:0:0:0:
138,179,48170,6,0,L|130:335,1,138,12|10,1:2|1:2,0:0:0:0:
271,183,48770,1,8,1:2:0:0:
23,286,49070,1,10,1:2:0:0:
162,279,49370,1,8,0:0:0:0:
23,286,49670,6,0,L|20:207,1,69,8|8,1:2|1:2,0:0:0:0:
158,180,50120,1,8,0:0:0:0:
222,195,50270,1,10,1:2:0:0:
250,255,50420,1,8,0:0:0:0:
220,315,50570,1,8,1:2:0:0:
154,327,50720,1,8,0:0:0:0:
85,327,50870,6,0,L|81:180,1,138,14|14,1:2|1:2,0:0:0:0:
218,176,51470,1,14,1:2:0:0:
464,308,51770,6,0,L|308:298,1,138,14|10,1:2|1:2,0:0:0:0:
396,268,52220,1,8,0:0:0:0:
464,258,52370,1,8,1:2:0:0:
329,86,52670,5,10,1:2:0:0:
263,88,52820,1,8,0:0:0:0:
230,145,52970,1,8,1:2:0:0:
263,202,53120,1,0,0:0:0:0:
329,204,53270,1,10,1:2:0:0:
263,202,53420,1,8,0:0:0:0:
108,291,53570,6,0,P|99:193|268:174,1,276,14|8,1:2|1:2,0:0:0:0:
390,303,54470,2,0,L|394:154,1,138,10|8,1:2|1:2,0:0:0:0:
251,166,55070,1,8,1:2:0:0:
181,161,55220,1,8,0:0:0:0:
337,267,55370,6,0,L|345:129,1,138,14|10,1:2|1:2,0:0:0:0:
208,118,55970,1,8,1:2:0:0:
349,104,56270,2,0,L|204:91,1,138,10|8,1:2|1:2,0:0:0:0:
351,75,56870,1,10,1:2:0:0:
102,305,57170,5,14,1:2:0:0:
40,277,57320,1,8,0:0:0:0:
15,214,57470,1,10,1:2:0:0:
39,152,57620,1,2,0:0:0:0:
101,124,57770,1,8,1:2:0:0:
349,312,58070,5,14,1:2:0:0:
355,244,58220,1,8,0:0:0:0:
324,183,58370,1,8,1:2:0:0:
266,148,58520,1,8,0:0:0:0:
198,150,58670,1,10,1:2:0:0:
448,305,58970,5,14,1:2:0:0:
453,261,59120,1,8,0:0:0:0:
380,257,59270,1,8,1:2:0:0:
377,215,59420,1,8,0:0:0:0:
454,192,59570,1,10,1:2:0:0:
205,205,59870,6,8,L|132:201,1,69,8|0,1:2|0:0,0:0:0:0:
207,158,60170,2,8,L|300:150,1,69,10|0,1:2|0:0,0:0:0:0:
206,117,60470,2,8,L|124:110,1,69,8|8,1:2|1:2,0:0:0:0:
294,81,60770,5,14,1:1:0:0:
256,192,67970,12,0,69770,0:0:0:0:
256,184,70070,5,0,0:0:0:0:
256,184,70220,1,0,0:0:0:0:
118,181,70520,1,0,0:0:0:0:
189,174,70670,1,2,0:0:0:0:
50,177,70970,5,0,0:0:0:0:
50,177,71120,1,0,0:0:0:0:
50,177,71420,1,0,0:0:0:0:
121,173,71570,6,0,L|277:171,1,138,8|0,0:0|0:0,0:0:0:0:
188,168,72020,2,0,P|158:235|196:287,1,138,0|0,0:0|0:0,0:0:0:0:
261,276,72470,5,10,0:1:0:0:
400,266,72770,1,0,0:0:0:0:
400,266,72920,1,0,0:0:0:0:
69,255,73370,5,8,0:0:0:0:
69,255,73670,1,0,0:0:0:0:
139,250,73820,1,0,0:0:0:0:
281,173,74120,1,0,0:0:0:0:
211,168,74270,1,10,0:1:0:0:
351,103,74570,5,0,0:0:0:0:
419,102,74720,1,0,0:0:0:0:
419,102,75020,1,8,0:0:0:0:
263,98,75170,5,14,1:2:0:0:
202,127,75320,1,8,0:0:0:0:
175,189,75470,1,10,1:2:0:0:
195,254,75620,1,8,0:0:0:0:
251,291,75770,1,8,1:2:0:0:
496,297,76070,6,8,L|491:228,1,69,14|8,1:2|0:0,0:0:0:0:
453,198,76370,2,8,L|376:181,1,69,14|8,1:2|0:0,0:0:0:0:
314,172,76670,2,8,L|384:166,1,69,14|8,1:2|0:0,0:0:0:0:
226,88,76970,6,0,P|160:137|239:221,1,207,14|0,1:2|0:0,0:0:0:0:
357,239,77720,1,0,0:0:0:0:
426,233,77870,6,0,L|431:151,1,69,10|0,1:2|0:0,0:0:0:0:
355,152,78170,2,0,L|350:71,1,69,8|0,1:2|0:0,0:0:0:0:
422,75,78470,1,10,1:2:0:0:
173,98,78770,6,0,L|167:181,1,69,12|0,1:2|0:0,0:0:0:0:
243,175,79070,2,0,L|250:268,1,69,10|0,1:2|0:0,0:0:0:0:
174,249,79370,1,8,1:2:0:0:
422,320,79670,5,10,1:2:0:0:
457,288,79820,1,8,0:0:0:0:
422,320,79970,1,8,1:2:0:0:
352,317,80120,1,8,0:0:0:0:
422,320,80270,1,10,1:2:0:0:
457,288,80420,1,0,0:0:0:0:
299,236,80570,6,0,P|293:155|421:119,1,207,14|0,1:2|0:0,0:0:0:0:
465,119,81170,1,8,1:2:0:0:
398,105,81320,1,8,0:0:0:0:
326,103,81470,2,0,L|159:96,1,138,10|8,1:2|1:2,0:0:0:0:
436,325,82070,6,8,L|438:236,1,69,10|0,1:2|0:0,0:0:0:0:
366,251,82370,2,0,L|208:239,1,138,10|10,1:2|1:2,0:0:0:0:
156,237,82820,2,0,L|303:223,1,138,8|8,0:0|0:0,0:0:0:0:
136,171,83270,6,0,L|133:90,1,69,14|8,1:2|0:0,0:0:0:0:
206,95,83570,2,0,L|286:88,1,69,14|8,1:2|0:0,0:0:0:0:
430,123,83870,2,0,L|356:123,1,69,14|8,1:2|0:0,0:0:0:0:
206,95,84170,6,0,P|148:146|227:247,1,207,14|8,1:2|0:0,0:0:0:0:
267,239,84770,1,8,1:2:0:0:
199,246,84920,1,8,0:0:0:0:
125,256,85070,6,0,L|286:240,1,138,10|8,1:2|1:2,0:0:0:0:
125,257,85670,1,10,1:2:0:0:
375,313,85970,6,0,P|441:258|365:175,1,207,14|8,1:2|0:0,0:0:0:0:
312,177,86570,1,8,1:2:0:0:
380,172,86720,1,8,0:0:0:0:
226,156,86870,6,0,L|98:152,2,103.5,14|10|14,1:1|1:1|1:1,0:0:0:0:
329,157,87545,1,8,0:0:0:0:
122,286,87770,6,0,P|55:241|129:157,1,207,14|8,1:2|0:0,0:0:0:0:
186,145,88370,1,8,1:2:0:0:
258,139,88520,1,8,0:2:0:0:
331,134,88670,2,0,L|170:122,1,138,14|10,1:2|1:2,0:0:0:0:
333,133,89270,1,8,1:2:0:0:
402,127,89420,1,0,0:0:0:0:
246,213,89570,6,8,L|204:132,2,69,14|0|10,1:2|0:0|1:2,0:0:0:0:
314,212,90020,2,8,L|396:209,2,69,8|8|8,0:0|1:2|0:0,0:0:0:0:
242,215,90470,2,0,L|385:211,1,138,14|14,1:2|1:2,0:0:0:0:
240,212,91070,1,10,1:2:0:0:
489,328,91370,6,0,L|491:182,1,138,14|10,1:2|1:2,0:0:0:0:
420,183,91820,1,8,0:0:0:0:
349,181,91970,1,8,1:2:0:0:
101,83,92270,5,14,1:2:0:0:
101,151,92420,1,8,0:0:0:0:
137,209,92570,1,10,1:2:0:0:
197,241,92720,1,8,0:0:0:0:
265,237,92870,1,8,1:2:0:0:
339,221,93020,1,8,0:0:0:0:
183,329,93170,6,0,P|117:295|199:224,1,207,14|8,1:1|0:0,0:0:0:0:
254,218,93770,1,10,1:2:0:0:
119,143,94070,2,0,L|279:135,2,138,10|8|10,1:1|0:0|1:2,0:0:0:0:
369,309,94970,6,0,P|442:263|371:202,1,207,10|8,1:0|0:0,0:0:0:0:
303,210,95570,1,10,1:2:0:0:
161,187,95870,2,8,L|320:170,2,138,10|10|10,1:0|1:1|1:0,0:0:0:0:
409,293,96770,6,0,P|406:189|292:177,1,207,14|8,1:0|0:0,0:0:0:0:
250,167,97370,1,10,1:2:0:0:
391,103,97670,2,0,L|239:93,1,138,10|8,1:0|0:0,0:0:0:0:
113,88,98270,1,10,1:2:0:0:
362,276,98570,6,0,P|427:223|366:140,1,207,10|8,1:0|0:0,0:0:0:0:
296,142,99170,1,10,1:1:0:0:
228,142,99320,1,8,0:0:0:0:
296,142,99470,2,0,L|296:297,1,138,10|8,1:1|0:0,0:0:0:0:
430,270,100070,1,8,0:0:0:0:
180,317,100370,6,8,P|186:232|317:200,1,207,14|8,1:0|0:0,0:0:0:0:
358,189,100970,1,8,1:2:0:0:
220,122,101270,2,0,L|79:121,2,138,10|10|8,1:0|1:2|1:2,0:0:0:0:
469,332,102170,6,8,P|468:248|346:208,1,207,10|0,1:0|0:0,0:0:0:0:
298,205,102770,1,8,1:2:0:0:
368,203,102920,1,8,0:0:0:0:
402,171,103070,2,0,L|410:30,1,138,10|10,1:0|1:0,0:0:0:0:
272,45,103670,1,10,1:0:0:0:
23,44,103970,5,14,1:2:0:0:
23,44,104420,2,0,L|187:45,1,138
318,44,104870,2,0,L|326:205,1,138,14|8,1:2|0:0,0:0:0:0:
189,182,105470,1,8,0:0:0:0:
439,282,105770,5,14,1:2:0:0:
439,282,106370,2,0,L|371:274,1,69,8|8,1:2|1:2,0:0:0:0:
213,138,106670,1,14,1:2:0:0:
81,138,106970,1,14,1:2:0:0:
335,279,107270,2,0,L|418:275,1,69,14|10,1:2|1:2,0:0:0:0:
247,318,107570,6,0,L|247:170,1,138,14|10,1:1|1:2,0:0:0:0:
122,170,108170,1,8,1:2:0:0:
262,108,108470,2,0,L|409:97,2,138,14|8|10,1:2|1:2|1:2,0:0:0:0:
16,322,109370,6,0,P|21:242|146:198,1,207,14|0,1:2|0:0,0:0:0:0:
195,200,109970,2,8,L|120:195,1,69,8|8,1:2|1:2,0:0:0:0:
281,282,110270,5,14,1:2:0:0:
346,272,110420,1,8,0:0:0:0:
377,213,110570,1,10,1:2:0:0:
348,153,110720,1,8,0:0:0:0:
283,141,110870,1,8,1:2:0:0:
36,247,111170,6,0,L|32:103,1,138,14|10,1:2|1:2,0:0:0:0:
171,100,111770,1,8,1:2:0:0:
30,104,112070,2,0,L|185:98,2,138,14|10|14,1:2|1:2|1:2,0:0:0:0:
279,269,112970,6,0,P|276:189|153:140,1,207,14|8,1:2|0:0,0:0:0:0:
244,127,113570,2,8,L|329:118,1,69,8|8,1:2|1:2,0:0:0:0:
157,47,113870,5,14,1:2:0:0:
94,73,114020,1,8,0:0:0:0:
66,134,114170,1,10,1:2:0:0:
88,198,114320,1,8,0:0:0:0:
147,230,114470,1,8,1:2:0:0:
216,239,114620,1,8,1:2:0:0:
371,330,114770,6,0,L|378:181,1,138,14|10,1:1|1:2,0:0:0:0:
240,169,115370,1,8,1:2:0:0:
381,155,115670,2,0,L|241:145,2,138,14|8|10,1:2|1:2|1:2,0:0:0:0:
131,303,116570,6,0,P|65:272|136:189,1,207,14|0,1:2|0:0,0:0:0:0:
195,181,117170,2,8,L|127:167,1,69,8|8,1:2|1:2,0:0:0:0:
284,65,117470,5,14,1:2:0:0:
352,61,117620,1,8,0:0:0:0:
413,92,117770,1,10,1:2:0:0:
450,149,117920,1,8,0:0:0:0:
454,217,118070,1,8,1:2:0:0:
203,303,118370,6,0,L|200:151,1,138,14|10,1:2|1:2,0:0:0:0:
341,167,118970,1,8,1:2:0:0:
91,240,119270,6,0,L|84:88,1,138,14|10,1:2|1:2,0:0:0:0:
222,105,119870,1,14,1:2:0:0:
470,316,120170,5,14,1:2:0:0:
480,248,120320,1,8,0:0:0:0:
453,186,120470,1,10,1:2:0:0:
397,147,120620,1,8,0:0:0:0:
329,144,120770,1,8,1:2:0:0:
82,222,121070,6,8,L|77:140,1,69,14|0,1:2|0:0,0:0:0:0:
148,140,121370,2,8,L|241:134,1,69,10|0,1:2|0:0,0:0:0:0:
146,105,121670,2,0,L|71:95,1,69,8|8,1:2|1:2,0:0:0:0:
235,45,121970,6,0,P|331:119|223:199,1,276,14|2,1:2|0:0,0:0:0:0:
105,291,122870,2,0,L|388:281,1,276,14|2,1:2|0:0,0:0:0:0:
132,232,123770,5,14,1:2:0:0:
67,213,123920,1,8,0:0:0:0:
40,152,124070,1,10,1:2:0:0:
69,92,124220,1,8,0:0:0:0:
134,75,124370,1,8,1:2:0:0:
386,77,124670,5,14,1:2:0:0:
251,75,124970,1,14,1:2:0:0:
496,317,125270,2,0,L|500:233,1,69,14|8,1:2|1:2,0:0:0:0:
342,243,125570,5,14,1:2:0:0:
