osu file format v14

[General]
AudioFilename: audio.mp3
AudioLeadIn: 0
PreviewTime: 60770
Countdown: 0
SampleSet: Soft
StackLeniency: 0.7
Mode: 2
LetterboxInBreaks: 0
WidescreenStoryboard: 1

[Editor]
Bookmarks: 10370,17570,24770,31970,39170,46370,53570,69770,76970,84170,93170,100370,107570,114770,121970,125570
DistanceSpacing: 1.3
BeatDivisor: 4
GridSize: 32
TimelineZoom: 2.999999

[Metadata]
Title:Excalibur ~Revived resolution~
TitleUnicode:Excalibur ~Revived resolution~
Artist:Project Grimoire
ArtistUnicode:Project Grimoire
Creator:Souvenir
Version:~Rain~
Source:maimai MiLK
Tags:Du5t Dust IDu5t IDust Team Instrumental Video Game Arthur ~once Upon a Time~ Brionac ~Lugh Lamhfhata~ Caliburne ~Story of the Legendary sword~ ICE verdammt ruf Amaneko artcore
BeatmapID:3099698
BeatmapSetID:1514014

[Difficulty]
HPDrainRate:5
CircleSize:3.8
OverallDifficulty:9
ApproachRate:9
SliderMultiplier:1.78
SliderTickRate:2

[Events]
//Background and Video events
0,0,"Revived resolution.jpg",0,0
//Break Periods
2,61070,67370
//Storyboard Layer 0 (Background)
//Storyboard Layer 1 (Fail)
//Storyboard Layer 2 (Pass)
//Storyboard Layer 3 (Foreground)
//Storyboard Layer 4 (Overlay)
//Storyboard Sound Samples

[TimingPoints]
3170,300,4,2,1,50,1,0
10370,-100,4,2,1,60,0,0
16670,-100,4,2,1,65,0,0
16820,-100,4,2,1,65,0,0
16970,-100,4,2,1,70,0,0
17120,-100,4,2,1,70,0,0
17270,-100,4,2,1,75,0,0
17420,-100,4,2,1,75,0,0
17570,-100,4,2,1,60,0,0
23870,-100,4,2,1,60,0,0
24170,-100,4,2,1,60,0,0
24470,-100,4,2,1,60,0,0
24620,-100,4,2,1,60,0,0
28370,-100,4,2,1,65,0,0
31970,-100,4,2,1,60,0,0
32045,-111.111111111111,4,2,1,45,0,0
37370,-111.111111111111,4,2,1,45,0,0
38570,-100,4,2,1,52,0,0
38870,-100,4,2,1,60,0,0
39170,-100,4,2,1,60,0,0
45620,-100,4,2,1,60,0,0
45920,-100,4,2,1,60,0,0
46370,-100,4,2,1,65,0,0
51470,-100,4,2,1,65,0,0
51770,-100,4,2,1,65,0,0
57170,-100,4,2,1,70,0,1
60770,-100,4,2,98,35,0,0
67970,-100,4,2,1,45,0,0
71570,-100,4,2,1,50,0,0
73370,-100,4,2,1,55,0,0
75170,-100,4,2,1,65,0,0
83270,-100,4,2,1,65,0,0
83570,-100,4,2,1,70,0,0
83870,-100,4,2,1,75,0,0
84020,-100,4,2,1,80,0,0
84245,-100,4,2,1,70,0,0
93170,-100,4,2,1,65,0,0
98270,-100,4,2,1,65,0,0
98495,-100,4,2,1,65,0,0
100370,-100,4,2,1,70,0,0
106670,-100,4,2,1,70,0,0
106970,-100,4,2,1,75,0,0
107270,-100,4,2,1,80,0,0
107570,-100,4,2,98,65,0,1
107645,-100,4,2,1,80,0,1
114770,-100,4,2,98,65,0,1
114845,-100,4,2,1,80,0,1
121970,-100,4,2,1,80,0,0
124670,-100,4,2,1,80,0,0
125270,-100,4,2,1,80,0,0

[Colours]
Combo1 : 250,150,107
Combo2 : 196,196,196
Combo3 : 247,111,111
Combo4 : 82,82,82

[HitObjects]
185,183,3170,5,4,0:0:0:0:
184,151,3470,1,0,0:0:0:0:
326,147,3620,1,2,0:0:0:0:
326,147,3920,1,0,0:0:0:0:
96,247,4070,6,0,L|96:147,1,89,10|0,0:1|0:0,0:0:0:0:
239,144,4370,1,0,0:0:0:0:
96,130,4520,1,2,0:0:0:0:
96,98,4820,2,0,L|161:91,1,44.5,0|0,0:0|0:0,0:0:0:0:
291,80,4970,5,10,0:0:0:0:
381,69,5120,1,0,0:0:0:0:
290,54,5270,1,0,0:0:0:0:
151,221,5420,1,10,0:0:0:0:
241,210,5570,1,0,0:0:0:0:
150,195,5720,1,0,0:0:0:0:
381,321,5870,6,0,L|385:125,1,178,8|0,0:1|0:0,0:0:0:0:
146,172,6320,1,2,0:0:0:0:
346,170,6770,5,4,0:0:0:0:
346,146,7070,1,0,0:0:0:0:
206,143,7220,1,2,0:0:0:0:
206,143,7520,1,0,0:0:0:0:
436,305,7670,6,0,L|439:200,1,89,10|0,0:1|0:0,0:0:0:0:
296,199,7970,1,0,0:0:0:0:
440,167,8120,1,2,0:0:0:0:
445,123,8420,2,0,L|396:117,1,44.5,0|0,0:0|0:0,0:0:0:0:
243,107,8570,5,10,1:2:0:0:
150,96,8720,1,0,0:0:0:0:
243,68,8870,1,0,0:0:0:0:
471,323,9020,1,10,1:2:0:0:
378,312,9170,1,0,0:0:0:0:
471,284,9320,1,0,0:0:0:0:
237,263,9470,5,4,1:2:0:0:
382,253,9620,2,0,L|382:205,2,44.5,8|0|0,0:1|0:0|1:0,0:0:0:0:
144,215,9920,1,0,1:0:0:0:
286,208,10070,2,0,L|286:160,2,44.5,8|0|0,0:1|0:0|1:0,0:0:0:0:
32,325,10370,6,0,P|35:242|131:215,1,178,4|8,0:0|0:0,0:0:0:0:
261,187,10820,2,0,L|153:174,1,89,2|0,0:0|0:0,0:0:0:0:
319,125,11120,1,0,0:0:0:0:
87,283,11270,6,0,L|26:280,2,44.5,10|0|0,1:2|0:0|0:0,0:0:0:0:
232,273,11570,1,2,0:0:0:0:
88,247,11720,2,0,L|84:138,1,89,2|8,0:0|0:0,0:0:0:0:
230,117,12020,2,0,L|295:113,1,44.5,0|0,0:0|0:0,0:0:0:0:
126,92,12170,5,2,1:2:0:0:
35,86,12320,1,0,0:0:0:0:
178,182,12470,1,10,1:2:0:0:
267,177,12620,1,0,0:0:0:0:
126,92,12770,1,2,1:2:0:0:
35,86,12920,1,0,0:0:0:0:
267,177,13070,6,0,L|271:72,1,89,10|0,1:2|0:0,0:0:0:0:
126,92,13370,1,8,1:2:0:0:
358,294,13520,2,0,P|414:250|358:168,1,178,4|0,0:0|0:0,0:0:0:0:
120,301,13970,6,0,L|110:114,1,178,8|8,1:2|0:0,0:0:0:0:
256,113,14420,2,0,L|362:103,1,89,0|0,0:0|0:2,0:0:0:0:
204,197,14720,1,0,0:0:0:0:
434,266,14870,6,0,L|505:260,2,44.5,10|0|0,1:2|0:0|0:0,0:0:0:0:
292,253,15170,1,2,0:0:0:0:
58,253,15320,2,0,L|52:138,1,89,2|8,0:0|0:0,0:0:0:0:
197,127,15620,1,8,1:2:0:0:
448,319,15770,5,14,1:2:0:0:
313,306,15920,1,8,0:0:0:0:
448,285,16070,1,10,1:2:0:0:
212,285,16220,2,8,L|205:187,1,89,8|8,0:0|1:2,0:0:0:0:
348,175,16520,1,8,0:0:0:0:
106,170,16670,5,12,1:2:0:0:
23,306,16820,2,0,L|82:299,1,44.5,8|8,0:0|0:0,0:0:0:0:
254,296,16970,1,12,1:2:0:0:
337,260,17120,2,0,L|270:250,1,44.5,8|8,0:0|0:0,0:0:0:0:
77,257,17270,2,0,L|13:253,1,44.5,12|0,1:2|0:0,0:0:0:0:
29,332,17420,2,0,L|93:329,1,44.5,8|8,0:0|0:0,0:0:0:0:
315,317,17570,6,0,P|391:290|397:195,1,178,4|8,1:0|0:0,0:0:0:0:
258,196,18020,1,0,0:0:0:0:
398,178,18170,2,0,L|403:84,1,89,8|0,0:0|0:0,0:0:0:0:
170,311,18470,6,0,P|174:231|282:199,1,178,10|8,0:0|0:0,0:0:0:0:
111,175,18920,1,0,0:0:0:0:
257,177,19070,2,0,L|256:72,1,89,0|8,0:0|0:0,0:0:0:0:
200,84,19295,1,8,0:0:0:0:
53,87,19370,6,0,P|2:132|52:218,1,178,10|8,0:0|0:0,0:0:0:0:
200,84,19820,1,0,0:0:0:0:
343,85,19970,2,0,L|349:192,1,89,8|8,0:0|0:0,0:0:0:0:
294,175,20195,1,8,0:0:0:0:
146,272,20270,5,10,0:0:0:0:
55,247,20420,1,0,0:0:0:0:
145,230,20570,1,8,0:0:0:0:
53,208,20720,1,0,0:0:0:0:
202,142,20870,2,0,L|93:136,1,89,0|8,0:0|0:0,0:0:0:0:
167,103,21095,1,8,0:0:0:0:
356,72,21170,6,0,P|420:125|342:155,1,178,10|8,0:0|0:0,0:0:0:0:
218,155,21620,1,0,0:0:0:0:
363,175,21770,2,0,L|369:281,1,89,8|8,0:0|0:0,0:0:0:0:
135,338,22070,6,0,P|67:292|65:199,1,178,10|8,0:0|0:0,0:0:0:0:
208,189,22520,1,0,0:0:0:0:
62,217,22670,2,0,L|55:111,1,89,0|8,0:0|0:0,0:0:0:0:
108,124,22895,1,8,0:0:0:0:
269,129,22970,6,0,L|375:122,1,89,10|0,0:0|0:0,0:0:0:0:
304,78,23195,1,0,0:0:0:0:
144,293,23270,2,0,L|136:185,1,89,8|0,0:0|0:0,0:0:0:0:
367,213,23570,2,0,L|466:208,1,89,8|8,0:0|0:0,0:0:0:0:
213,135,23870,6,0,L|107:127,1,89,14|0,0:0|0:0,0:0:0:0:
178,91,24095,1,0,0:0:0:0:
342,184,24170,2,0,L|452:176,1,89,14|0,0:0|0:0,0:0:0:0:
376,138,24395,1,0,0:0:0:0:
238,273,24470,1,14,0:0:0:0:
94,267,24620,1,8,0:1:0:0:
321,327,24770,6,0,L|329:125,1,178,14|8,0:0|0:0,0:0:0:0:
184,136,25220,1,0,0:0:0:0:
328,132,25370,2,0,L|440:127,1,89,8|8,0:0|0:0,0:0:0:0:
175,303,25670,6,0,L|166:123,1,178,10|8,0:0|0:0,0:0:0:0:
307,121,26120,1,0,0:0:0:0:
161,113,26270,2,0,L|257:99,1,89,8|8,0:0|0:0,0:0:0:0:
193,67,26495,1,8,0:0:0:0:
32,318,26570,6,0,L|29:134,1,178,10|0,0:0|0:0,0:0:0:0:
171,131,27020,1,0,0:0:0:0:
311,129,27170,2,0,L|407:129,1,89,8|8,0:0|0:0,0:0:0:0:
348,85,27395,1,8,0:0:0:0:
182,298,27470,5,10,0:0:0:0:
90,286,27620,1,0,0:0:0:0:
90,286,27770,1,8,0:0:0:0:
182,298,27920,1,0,0:0:0:0:
325,268,28070,2,0,L|430:262,1,89,8|8,0:0|0:0,0:0:0:0:
360,226,28295,1,8,0:0:0:0:
170,225,28370,6,0,L|166:121,1,89,14|8,1:2|0:0,0:0:0:0:
399,133,28670,2,8,L|304:123,2,89,0|8|8,0:0|0:0|0:0,0:0:0:0:
492,147,29120,1,8,0:0:0:0:
237,336,29270,6,0,L|231:232,1,89,14|8,1:2|0:0,0:0:0:0:
372,210,29570,2,0,L|488:202,1,89,8|8,0:0|0:0,0:0:0:0:
239,159,29870,2,0,L|135:146,1,89,8|8,0:0|0:0,0:0:0:0:
454,307,30170,5,14,1:2:0:0:
457,262,30245,1,0,0:0:0:0:
446,219,30320,1,0,0:0:0:0:
424,181,30395,1,0,0:0:0:0:
391,151,30470,1,8,0:0:0:0:
351,132,30545,1,0,0:0:0:0:
307,125,30620,1,0,0:0:0:0:
264,131,30695,1,0,0:0:0:0:
307,136,30770,1,10,0:0:0:0:
351,132,30845,1,0,0:0:0:0:
386,105,30920,1,0,0:0:0:0:
400,63,30995,1,0,0:0:0:0:
214,273,31070,6,0,L|109:263,1,89,14|0,1:2|0:0,0:0:0:0:
180,235,31295,1,0,0:0:0:0:
376,252,31370,2,0,L|470:241,1,89,10|0,1:2|0:0,0:0:0:0:
412,209,31595,1,0,0:0:0:0:
225,213,31670,2,0,L|221:157,1,44.5,8|8,1:2|0:0,0:0:0:0:
280,164,31820,2,0,L|282:107,1,44.5,8|8,0:0|0:0,0:0:0:0:
80,328,31970,6,0,P|25:270|83:199,1,178,6|0,0:0|0:0,0:0:0:0:
233,189,32570,1,0,0:0:0:0:
395,163,32870,6,0,L|219:140,1,160.199995111084,2|0,0:0|0:0,0:0:0:0:
395,163,33470,1,0,0:0:0:0:
401,73,33620,1,0,0:0:0:0:
261,64,33770,6,0,L|161:59,1,80.0999975555421,2|0,0:0|0:0,0:0:0:0:
260,151,34070,2,0,L|349:144,1,80.0999975555421,0|0,0:0|0:0,0:0:0:0:
257,233,34370,2,0,L|154:223,1,80.0999975555421,0|0,0:0|0:0,0:0:0:0:
321,298,34670,6,0,P|397:262|410:182,1,160.199995111084,2|0,0:0|0:0,0:0:0:0:
269,135,35270,1,0,0:0:0:0:
351,126,35420,1,0,0:0:0:0:
137,308,35570,6,0,P|86:253|141:218,1,160.199995111084,2|0,0:0|0:0,0:0:0:0:
296,214,36170,1,0,0:0:0:0:
47,232,36470,2,0,L|218:209,1,160.199995111084,2|0,0:0|0:0,0:0:0:0:
133,167,36920,1,0,0:0:0:0:
275,178,37070,2,0,L|278:84,1,80.0999975555421,0|0,0:0|0:0,0:0:0:0:
137,206,37370,6,0,P|64:174|68:92,1,160.199995111084,2|0,0:0|0:0,0:0:0:0:
223,201,37970,1,0,0:0:0:0:
458,194,38270,2,0,L|462:110,1,80.0999975555421,2|0,0:0|0:0,0:0:0:0:
371,100,38570,2,0,L|475:86,1,89,0|0,0:0|0:0,0:0:0:0:
316,232,38870,2,0,L|414:217,1,89,0|0,0:0|0:0,0:0:0:0:
161,346,39170,6,0,P|105:310|170:231,1,178,14|0,1:2|0:0,0:0:0:0:
246,230,39620,1,0,0:0:0:0:
154,227,39770,2,0,L|148:134,1,89,2|0,0:0|0:0,0:0:0:0:
385,308,40070,6,0,L|196:284,1,178,10|2,0:1|0:0,0:0:0:0:
299,259,40520,1,0,0:0:0:0:
390,247,40670,2,0,L|396:145,1,89,0|0,0:0|0:0,0:0:0:0:
162,310,40970,6,0,L|377:276,1,178,10|0,0:0|0:0,0:0:0:0:
248,257,41420,1,0,0:0:0:0:
397,237,41570,2,0,L|399:131,1,89,2|0,0:0|0:0,0:0:0:0:
162,143,41870,6,0,L|54:139,1,89,10|0,0:1|0:0,0:0:0:0:
218,76,42170,1,2,0:0:0:0:
260,83,42245,1,0,0:0:0:0:
280,121,42320,1,0,0:0:0:0:
262,160,42395,1,0,0:0:0:0:
220,169,42470,1,0,0:0:0:0:
132,167,42620,2,0,L|77:159,1,44.5,0|0,0:0|0:0,0:0:0:0:
262,318,42770,6,0,P|374:287|436:68,1,356,14|2,0:0|0:0,0:0:0:0:
191,283,43670,2,0,P|107:258|26:19,1,356,10|0,0:1|0:0,0:0:0:0:
273,236,44570,2,0,P|360:213|410:42,1,267,10|8,0:0|0:0,0:0:0:0:
326,69,45170,2,0,L|431:59,1,89,10|0,0:0|0:0,0:0:0:0:
179,268,45470,6,0,L|176:174,1,89,10|0,0:0|0:0,0:0:0:0:
320,169,45770,1,10,0:0:0:0:
87,325,45920,2,8,L|85:229,1,89
321,243,46220,1,8,0:0:0:0:
55,235,46370,6,0,L|48:137,1,89,4|0,1:1|0:0,0:0:0:0:
189,151,46670,2,0,L|292:137,1,89,10|0,0:2|0:0,0:0:0:0:
42,157,46970,2,0,L|141:143,1,89,8|0,1:2|0:0,0:0:0:0:
389,173,47270,6,0,P|392:250|298:280,1,178,14|8,1:2|0:0,0:0:0:0:
223,278,47720,1,0,0:0:0:0:
441,337,47870,1,10,1:2:0:0:
494,245,48020,2,0,L|427:235,1,44.5,0|0,1:0|0:0,0:0:0:0:
290,221,48170,5,12,1:2:0:0:
199,205,48320,1,0,0:0:0:0:
339,157,48470,1,10,1:2:0:0:
428,151,48620,1,0,0:0:0:0:
290,221,48770,1,8,1:2:0:0:
293,130,48920,1,0,0:0:0:0:
60,305,49070,6,0,L|56:207,1,89,10|0,1:2|0:0,0:0:0:0:
200,218,49370,2,0,L|104:204,1,89,8|0,0:0|0:0,0:0:0:0:
346,93,49670,1,8,1:2:0:0:
212,97,49820,2,0,P|231:180|314:199,1,178,8|8,1:2|0:0,0:0:0:0:
395,212,50270,5,10,1:2:0:0:
256,212,50420,1,8,0:0:0:0:
481,347,50570,2,0,L|485:252,1,89,8|8,1:2|0:0,0:0:0:0:
431,260,50795,1,8,0:0:0:0:
270,257,50870,6,0,L|171:247,1,89,14|0,1:2|0:0,0:0:0:0:
326,196,51170,2,0,L|425:185,1,89,14|0,1:2|0:0,0:0:0:0:
182,185,51470,2,0,L|181:85,1,89,14|0,1:2|0:0,0:0:0:0:
418,343,51770,6,0,L|421:243,1,89,14|0,1:2|0:0,0:0:0:0:
181,233,52070,1,10,1:2:0:0:
82,216,52220,1,8,0:0:0:0:
180,198,52370,1,8,1:2:0:0:
271,184,52520,1,0,0:0:0:0:
128,35,52670,5,10,1:2:0:0:
38,37,52820,1,8,0:0:0:0:
38,37,52970,1,8,1:2:0:0:
128,35,53120,1,0,0:0:0:0:
270,116,53270,1,10,1:2:0:0:
128,35,53420,1,8,0:0:0:0:
374,283,53570,6,0,L|379:187,1,89,14|0,1:2|0:0,0:0:0:0:
236,177,53870,2,0,L|129:169,1,89,10|0,1:2|0:0,0:0:0:0:
374,283,54170,2,0,L|472:267,1,89,8|0,1:2|0:0,0:0:0:0:
227,319,54470,6,0,P|166:273|234:260,1,178,10|8,1:2|1:2,0:0:0:0:
318,249,54920,1,0,0:0:0:0:
87,250,55070,1,8,1:2:0:0:
36,155,55220,2,0,L|95:151,1,44.5,8|0,0:0|0:0,0:0:0:0:
240,152,55370,6,0,L|348:144,1,89,14|0,1:2|0:0,0:0:0:0:
186,251,55670,2,0,L|184:147,1,89,10|0,1:2|0:0,0:0:0:0:
415,299,55970,2,0,L|420:186,1,89,8|0,1:2|0:0,0:0:0:0:
274,151,56270,6,0,L|168:140,1,89,10|0,1:2|0:0,0:0:0:0:
401,244,56570,2,0,L|405:136,1,89,8|8,1:2|0:0,0:0:0:0:
172,211,56870,2,0,L|273:202,1,89,10|0,1:2|0:0,0:0:0:0:
207,171,57095,1,0,0:0:0:0:
23,293,57170,6,0,L|22:191,1,89,14|8,1:2|0:0,0:0:0:0:
164,197,57470,2,0,L|163:103,1,89,10|2,1:2|0:0,0:0:0:0:
308,111,57770,2,0,L|306:11,1,89,8|8,1:2|0:0,0:0:0:0:
77,318,58070,6,0,L|76:216,1,89,14|8,1:2|0:0,0:0:0:0:
218,222,58370,2,0,L|119:213,1,89,8|8,1:2|0:0,0:0:0:0:
274,158,58670,2,0,L|385:144,1,89,10|8,1:2|0:0,0:0:0:0:
311,122,58895,1,8,0:0:0:0:
126,281,58970,6,0,L|61:280,1,44.5,14|0,1:2|0:0,0:0:0:0:
81,221,59120,2,0,L|128:217,1,44.5,8|0,0:0|0:0,0:0:0:0:
308,283,59270,2,0,L|314:218,1,44.5,8|0,1:2|0:0,0:0:0:0:
255,232,59420,2,0,L|249:183,1,44.5,8|0,0:0|0:0,0:0:0:0:
431,115,59570,2,0,L|481:117,1,44.5,10|8,1:2|0:0,0:0:0:0:
481,190,59720,2,0,L|426:192,1,44.5,8|8,0:0|0:0,0:0:0:0:
251,190,59870,5,8,1:2:0:0:
173,89,60020,2,8,L|226:81,1,44.5,0|0,0:0|0:0,0:0:0:0:
398,157,60170,1,10,1:2:0:0:
475,78,60320,2,8,L|416:67,1,44.5,0|0,0:0|0:0,0:0:0:0:
254,147,60470,2,0,L|200:138,1,44.5,8|8,1:2|0:0,0:0:0:0:
392,195,60620,2,8,L|446:183,1,44.5,8|8,1:2|0:0,0:0:0:0:
240,266,60770,5,14,1:1:0:0:
256,192,67970,12,0,69770,0:0:0:0:
256,144,70070,5,0,0:0:0:0:
256,144,70220,1,0,0:0:0:0:
184,147,70520,1,0,0:0:0:0:
327,137,70670,1,2,0:0:0:0:
184,147,70970,1,0,0:0:0:0:
184,147,71120,1,0,0:0:0:0:
327,137,71420,1,0,0:0:0:0:
275,130,71495,1,0,0:0:0:0:
414,141,71570,5,8,0:0:0:0:
456,139,71720,1,0,0:0:0:0:
366,88,71870,1,0,0:0:0:0:
408,86,72020,1,0,0:0:0:0:
319,37,72170,1,0,0:0:0:0:
361,35,72320,1,0,0:0:0:0:
150,210,72470,5,10,0:1:0:0:
58,205,72770,1,0,0:0:0:0:
105,195,72920,1,0,0:0:0:0:
420,182,73370,5,8,0:0:0:0:
420,182,73670,1,0,0:0:0:0:
327,171,73820,1,0,0:0:0:0:
144,147,74120,1,0,0:0:0:0:
354,125,74270,1,10,0:1:0:0:
180,121,74570,1,0,0:0:0:0:
322,100,74720,1,0,0:0:0:0:
143,168,75020,1,8,0:0:0:0:
89,165,75095,1,8,0:0:0:0:
252,241,75170,6,0,L|323:235,1,44.5,14|0,1:2|0:0,0:0:0:0:
303,170,75320,2,0,L|237:161,1,44.5,8|0,0:0|0:0,0:0:0:0:
98,147,75470,2,8,L|38:141,2,44.5,10|8|8,1:2|0:0|0:0,0:0:0:0:
323,311,75770,6,0,L|327:262,1,44.5,8|0,1:2|0:0,0:0:0:0:
271,243,75920,2,0,L|210:234,1,44.5,8|0,0:0|0:0,0:0:0:0:
389,193,76070,2,0,L|453:188,1,44.5,14|0,1:2|0:0,0:0:0:0:
435,138,76220,2,0,L|381:130,1,44.5,8|8,0:0|0:0,0:0:0:0:
229,158,76370,6,0,L|166:153,1,44.5,14|0,1:2|0:0,0:0:0:0:
182,112,76520,2,0,L|237:103,1,44.5,8|8,0:0|0:0,0:0:0:0:
387,246,76670,2,0,L|449:239,1,44.5,14|8,1:2|0:0,0:0:0:0:
266,222,76820,2,0,L|204:212,1,44.5,8|8,0:0|0:0,0:0:0:0:
427,338,76970,6,0,P|475:259|431:186,1,178,14|10,1:2|1:2,0:0:0:0:
347,184,77420,1,0,0:0:0:0:
203,182,77570,2,0,L|198:78,1,89,8|0,1:2|0:0,0:0:0:0:
341,85,77870,6,0,L|438:73,1,89,10|0,1:2|0:0,0:0:0:0:
285,199,78170,2,0,L|190:191,1,89,8|0,1:2|0:0,0:0:0:0:
433,319,78470,2,0,L|436:216,1,89,10|0,1:2|0:0,0:0:0:0:
381,221,78695,1,0,0:0:0:0:
222,218,78770,6,0,P|237:128|326:100,1,178,12|10,1:2|1:2,0:0:0:0:
363,93,79145,1,0,0:0:0:0:
310,97,79220,1,0,0:0:0:0:
166,147,79370,2,0,L|164:47,1,89,8|0,1:2|0:0,0:0:0:0:
391,175,79670,5,10,1:2:0:0:
481,170,79820,1,8,0:0:0:0:
339,296,79970,1,8,1:2:0:0:
328,253,80045,1,8,0:0:0:0:
340,211,80120,1,8,0:0:0:0:
373,182,80195,1,8,0:0:0:0:
416,173,80270,1,10,1:2:0:0:
276,143,80420,2,8,L|216:137,1,44.5,0|0,0:0|0:0,0:0:0:0:
35,272,80570,6,0,L|31:83,1,178,14|10,1:2|1:2,0:0:0:0:
117,79,81020,2,0,L|161:72,1,44.5,0|0,0:0|0:0,0:0:0:0:
322,208,81170,2,0,L|437:193,1,89,8|8,1:2|0:0,0:0:0:0:
178,308,81470,6,0,L|177:210,1,89,10|0,1:2|0:0,0:0:0:0:
269,210,81770,2,0,L|359:201,1,89,8|0,1:2|0:0,0:0:0:0:
211,154,82070,2,8,L|315:145,1,89,10|0,1:2|0:0,0:0:0:0:
247,117,82295,1,0,0:0:0:0:
84,265,82370,6,0,L|81:162,1,89,10|0,1:2|0:0,0:0:0:0:
302,164,82670,1,10,1:2:0:0:
213,167,82820,2,0,L|212:57,1,89,8|8,0:0|1:2,0:0:0:0:
432,70,83120,1,8,0:0:0:0:
200,61,83270,6,0,L|92:54,1,89,14|8,1:2|0:0,0:0:0:0:
166,113,83495,1,8,0:0:0:0:
351,226,83570,2,0,L|454:213,1,89,14|8,1:2|0:0,0:0:0:0:
386,278,83795,1,8,0:0:0:0:
192,282,83870,1,14,1:2:0:0:
46,280,84020,1,8,0:0:0:0:
314,338,84170,6,0,P|375:286|311:260,1,178,14|10,1:2|1:2,0:0:0:0:
223,256,84620,1,8,0:0:0:0:
367,212,84770,2,0,L|368:111,1,89,8|8,1:2|0:0,0:0:0:0:
131,139,85070,6,0,L|233:127,1,89,10|8,1:2|0:0,0:0:0:0:
362,215,85370,2,0,L|257:206,1,89,8|8,1:2|0:0,0:0:0:0:
131,300,85670,2,0,L|74:296,2,44.5,10|8|8,1:2|0:0|0:0,0:0:0:0:
387,342,85970,6,0,L|208:317,1,178,14|10,1:2|1:2,0:0:0:0:
293,279,86420,1,8,0:0:0:0:
149,249,86570,2,0,L|46:237,1,89,8|8,1:2|0:0,0:0:0:0:
301,162,86870,5,14,1:1:0:0:
102,136,87095,1,10,1:1:0:0:
301,162,87320,1,14,1:1:0:0:
389,144,87470,1,14,1:2:0:0:
442,136,87545,1,8,0:0:0:0:
442,136,87620,1,0,0:0:0:0:
389,144,87695,1,0,0:0:0:0:
229,137,87770,6,0,L|137:127,1,89,14|8,1:2|0:0,0:0:0:0:
230,258,88070,1,10,1:2:0:0:
88,231,88220,1,8,0:0:0:0:
230,258,88370,2,8,L|230:193,2,44.5,8|0|8,1:2|0:0|0:2,0:0:0:0:
460,269,88670,6,0,L|461:168,1,89,14|8,1:2|0:0,0:0:0:0:
316,198,88970,2,0,L|315:97,1,89,10|8,1:2|0:0,0:0:0:0:
460,140,89270,2,0,L|469:97,1,44.5,8|0,1:2|0:0,0:0:0:0:
458,65,89420,2,8,L|409:58,1,44.5,0|0,0:0|0:0,0:0:0:0:
230,108,89570,6,8,L|124:99,1,89,14|0,1:2|0:0,0:0:0:0:
194,65,89795,1,0,0:0:0:0:
379,283,89870,2,0,L|387:186,1,89,10|8,1:2|0:0,0:0:0:0:
164,229,90170,2,8,L|112:226,2,44.5,8|0|8,1:2|0:0|0:0,0:0:0:0:
401,179,90470,6,8,L|297:170,1,89,14|8,1:2|0:0,0:0:0:0:
84,161,90770,2,0,L|7:157,2,59.3333333333333,14|8|8,1:2|0:0|0:0,0:0:0:0:
251,284,91070,2,0,L|356:276,1,89,10|8,1:2|0:0,0:0:0:0:
68,332,91370,6,0,L|62:277,1,44.5,14|0,1:2|0:0,0:0:0:0:
87,249,91520,2,0,L|149:245,1,44.5,8|0,0:0|0:0,0:0:0:0:
78,208,91670,2,0,L|21:201,1,44.5,10|0,1:2|0:0,0:0:0:0:
31,150,91820,2,0,L|91:145,1,44.5,8|0,0:0|0:0,0:0:0:0:
130,141,91970,1,8,1:2:0:0:
184,137,92045,2,8,L|255:134,2,44.5,8|8|8,0:0|0:0|0:0,0:0:0:0:
23,298,92270,6,0,L|18:236,1,44.5,14|8,1:2|0:0,0:0:0:0:
41,214,92420,2,0,L|109:210,1,44.5,8|8,0:0|0:0,0:0:0:0:
247,207,92570,2,0,L|255:141,1,44.5,10|8,1:2|0:0,0:0:0:0:
199,154,92720,2,0,L|193:92,1,44.5,8|8,0:0|0:0,0:0:0:0:
355,88,92870,2,0,L|404:84,1,44.5,8|8,1:2|0:0,0:0:0:0:
401,153,93020,2,0,L|339:155,1,44.5,8|8,0:0|0:0,0:0:0:0:
171,292,93170,6,0,P|108:235|176:196,1,178,14|8,1:1|0:0,0:0:0:0:
219,184,93545,1,8,0:0:0:0:
274,178,93620,1,8,0:0:0:0:
129,212,93770,2,0,L|126:110,1,89,10|0,1:2|0:0,0:0:0:0:
348,287,94070,6,0,P|406:255|344:181,1,178,10|8,1:1|0:0,0:0:0:0:
306,174,94445,1,8,0:0:0:0:
356,179,94520,1,8,0:0:0:0:
214,243,94670,2,0,L|211:149,1,89,10|0,1:2|0:0,0:0:0:0:
444,314,94970,6,0,P|434:226|342:206,1,178,10|8,1:0|0:0,0:0:0:0:
412,187,95345,1,8,0:0:0:0:
467,180,95420,1,8,0:0:0:0:
324,162,95570,1,10,1:2:0:0:
467,180,95720,1,0,0:0:0:0:
233,207,95870,6,0,L|227:145,3,44.5,10|8|8|8,1:0|0:0|0:0|0:0,0:0:0:0:
376,98,96170,1,10,1:1:0:0:
430,94,96245,1,8,0:0:0:0:
483,90,96320,1,8,0:0:0:0:
256,265,96470,2,8,L|361:255,1,89,10|8,1:0|0:0,0:0:0:0:
291,230,96695,1,8,0:0:0:0:
122,303,96770,6,0,P|69:272|136:193,1,178,14|8,1:0|0:0,0:0:0:0:
172,186,97145,1,8,0:0:0:0:
225,179,97220,1,8,0:0:0:0:
81,179,97370,2,0,L|78:76,1,89,10|0,1:2|0:0,0:0:0:0:
312,278,97670,6,0,L|449:255,1,133.5,10|0,1:0|0:0,0:0:0:0:
293,196,97970,2,0,P|258:153|299:82,1,133.5,8|8,0:0|0:0,0:0:0:0:
339,72,98270,2,0,L|194:52,1,133.5,10|0,1:2|0:0,0:0:0:0:
383,270,98570,6,0,P|394:181|307:152,1,178,10|8,1:0|0:0,0:0:0:0:
379,134,98945,1,8,0:0:0:0:
433,128,99020,1,8,0:0:0:0:
292,104,99170,1,10,1:1:0:0:
433,128,99320,1,8,0:0:0:0:
209,257,99470,6,0,L|205:200,3,44.5,10|0|0|0,1:1|0:0|0:0|0:0,0:0:0:0:
355,185,99770,2,0,L|405:189,1,44.5,8|8,0:0|0:0,0:0:0:0:
396,254,99920,2,0,L|341:248,1,44.5,8|8,0:0|0:0,0:0:0:0:
203,194,100070,2,0,L|199:132,1,44.5,8|8,0:0|0:0,0:0:0:0:
254,139,100220,2,0,L|324:133,1,44.5,8|8,0:0|0:0,0:0:0:0:
119,290,100370,6,0,P|66:250|130:173,1,178,14|10,1:0|1:2,0:0:0:0:
172,162,100745,1,8,0:0:0:0:
117,172,100820,1,8,0:0:0:0:
260,210,100970,2,0,L|350:201,1,89,8|8,1:2|0:0,0:0:0:0:
120,341,101270,6,0,P|127:263|231:237,1,178,10|10,1:0|1:2,0:0:0:0:
267,229,101645,1,8,0:0:0:0:
323,226,101720,1,8,0:0:0:0:
181,153,101870,2,0,L|76:143,1,89,8|8,1:2|0:0,0:0:0:0:
325,335,102170,6,0,L|335:137,1,178,10|10,1:0|1:2,0:0:0:0:
279,149,102545,1,8,0:0:0:0:
335,150,102620,1,8,0:0:0:0:
193,209,102770,2,8,L|81:196,1,89,8|8,1:2|0:0,0:0:0:0:
341,253,103070,6,0,L|411:245,2,59.3333333333333,10|8|8,1:0|0:0|0:0,0:0:0:0:
239,225,103370,2,0,L|164:217,2,59.3333333333333,10|8|8,1:0|0:0|0:0,0:0:0:0:
408,206,103670,2,0,L|410:103,1,89,10|8,1:0|0:0,0:0:0:0:
175,114,103970,5,14,1:2:0:0:
175,114,104420,1,0,0:0:0:0:
82,91,104570,1,8,0:0:0:0:
175,60,104720,1,0,0:0:0:0:
405,264,104870,6,0,P|459:234|394:156,1,178,14|8,1:2|0:0,0:0:0:0:
321,152,105320,1,0,0:0:0:0:
231,133,105470,1,8,0:0:0:0:
373,113,105620,1,8,0:0:0:0:
130,112,105770,6,0,L|126:216,1,89,14|8,1:2|0:0,0:0:0:0:
212,200,106070,1,8,0:0:0:0:
443,251,106220,1,8,0:0:0:0:
308,224,106370,1,8,1:2:0:0:
443,209,106520,1,8,1:2:0:0:
391,196,106595,1,8,0:0:0:0:
212,170,106670,6,0,L|105:153,1,89,14|8,1:2|0:0,0:0:0:0:
175,124,106895,1,8,0:0:0:0:
374,133,106970,2,0,L|466:127,1,89,14|8,1:2|0:0,0:0:0:0:
411,95,107195,1,8,0:0:0:0:
175,90,107270,2,0,L|118:82,1,44.5,14|8,1:2|0:0,0:0:0:0:
133,31,107420,2,0,L|195:26,1,44.5,10|8,1:2|0:0,0:0:0:0:
422,325,107570,5,14,1:1:0:0:
464,317,107645,1,0,0:0:0:0:
487,280,107720,1,8,0:0:0:0:
475,238,107795,1,0,0:0:0:0:
436,219,107870,1,10,1:2:0:0:
336,141,108020,1,8,0:0:0:0:
193,134,108170,2,0,L|79:128,1,89,8|8,1:2|0:0,0:0:0:0:
335,312,108470,6,8,L|393:309,2,44.5,14|0|8,1:2|0:0|0:0,0:0:0:0:
286,314,108695,1,0,0:0:0:0:
118,323,108770,2,8,L|115:212,1,89,8|8,1:2|0:0,0:0:0:0:
258,216,109070,2,0,L|370:209,1,89,10|8,1:2|0:0,0:0:0:0:
111,268,109370,5,14,1:2:0:0:
100,225,109445,1,0,0:0:0:0:
114,183,109520,1,0,0:0:0:0:
148,156,109595,1,0,0:0:0:0:
192,151,109670,1,10,0:2:0:0:
102,135,109820,1,0,0:0:0:0:
243,203,109970,2,8,L|144:190,1,89,8|8,1:2|1:2,0:0:0:0:
208,159,110195,1,8,1:2:0:0:
388,293,110270,6,0,L|451:284,1,44.5,14|0,1:2|0:0,0:0:0:0:
427,227,110420,2,8,L|375:213,1,44.5,8|0,0:0|0:0,0:0:0:0:
326,210,110570,2,0,L|322:161,1,44.5,10|0,1:2|0:0,0:0:0:0:
343,151,110720,2,8,L|403:144,1,44.5,8|0,0:0|0:0,0:0:0:0:
226,161,110870,2,0,L|160:153,1,44.5,8|0,1:2|0:0,0:0:0:0:
343,151,111020,2,0,L|400:145,1,44.5,8|8,0:0|0:0,0:0:0:0:
212,316,111170,5,14,1:2:0:0:
170,302,111245,1,0,0:0:0:0:
153,263,111320,1,8,0:0:0:0:
171,224,111395,1,0,0:0:0:0:
212,211,111470,1,10,1:2:0:0:
302,207,111620,1,8,0:0:0:0:
160,135,111770,2,0,L|56:128,1,89,8|8,1:2|0:0,0:0:0:0:
307,310,112070,6,0,L|311:251,1,44.5,14|0,1:2|0:0,0:0:0:0:
254,257,112220,2,0,L|251:192,1,44.5,8|0,0:0|0:0,0:0:0:0:
419,197,112370,2,0,L|423:91,1,89,10|8,1:2|0:0,0:0:0:0:
278,107,112670,2,0,L|378:106,1,89,14|8,1:2|0:0,0:0:0:0:
319,73,112895,1,8,0:0:0:0:
150,77,112970,5,14,1:2:0:0:
107,75,113045,1,0,0:0:0:0:
83,110,113120,1,8,0:0:0:0:
101,149,113195,1,0,0:0:0:0:
143,154,113270,1,10,1:2:0:0:
231,138,113420,1,8,0:0:0:0:
374,214,113570,2,8,L|501:200,1,89,8|8,1:2|1:2,0:0:0:0:
415,159,113795,1,8,1:2:0:0:
252,64,113870,5,14,1:2:0:0:
208,72,113945,1,0,0:0:0:0:
173,99,114020,1,8,0:0:0:0:
154,139,114095,1,8,0:0:0:0:
154,183,114170,1,10,1:2:0:0:
174,222,114245,1,0,0:0:0:0:
210,249,114320,1,8,0:0:0:0:
253,257,114395,1,8,0:0:0:0:
427,254,114470,2,0,L|480:250,1,44.5,8|0,1:2|0:0,0:0:0:0:
298,269,114620,2,0,L|227:261,1,44.5,8|8,1:2|0:0,0:0:0:0:
429,346,114770,5,14,1:1:0:0:
450,307,114845,1,0,0:0:0:0:
445,264,114920,1,8,0:0:0:0:
416,231,114995,1,0,0:0:0:0:
373,221,115070,1,10,1:2:0:0:
461,194,115220,1,8,0:0:0:0:
319,208,115370,2,0,L|433:199,1,89,8|8,1:2|0:0,0:0:0:0:
175,99,115670,6,0,L|122:96,1,44.5,14|0,1:2|0:0,0:0:0:0:
132,171,115820,2,8,L|188:170,1,44.5,8|0,0:0|0:0,0:0:0:0:
341,265,115970,2,8,L|346:164,1,89,8|8,1:2|0:0,0:0:0:0:
201,166,116270,2,0,L|105:161,1,89,10|8,1:2|0:0,0:0:0:0:
338,345,116570,5,14,1:2:0:0:
377,326,116645,1,0,0:0:0:0:
394,287,116720,1,0,0:0:0:0:
380,245,116795,1,0,0:0:0:0:
343,224,116870,1,10,0:2:0:0:
256,221,117020,1,0,0:0:0:0:
117,172,117170,2,8,L|11:166,1,89,8|8,1:2|1:2,0:0:0:0:
73,127,117395,1,8,1:2:0:0:
237,154,117470,6,0,L|297:148,1,44.5,14|0,1:2|0:0,0:0:0:0:
116,135,117620,2,0,L|71:126,1,44.5,8|8,0:0|0:0,0:0:0:0:
237,154,117770,2,0,L|294:155,1,44.5,10|0,1:2|0:0,0:0:0:0:
283,229,117920,2,0,L|220:228,1,44.5,8|8,0:0|0:0,0:0:0:0:
68,292,118070,2,0,L|59:233,1,44.5,8|0,1:2|0:0,0:0:0:0:
85,217,118220,2,0,L|152:210,1,44.5,8|8,0:0|0:0,0:0:0:0:
301,293,118370,5,14,1:2:0:0:
343,293,118445,1,0,0:0:0:0:
366,257,118520,1,8,0:0:0:0:
347,219,118595,1,0,0:0:0:0:
305,215,118670,1,10,1:2:0:0:
162,216,118820,1,8,0:0:0:0:
390,203,118970,2,0,L|391:93,1,89,8|8,1:2|0:0,0:0:0:0:
156,302,119270,5,14,1:2:0:0:
114,302,119345,1,0,0:0:0:0:
91,266,119420,1,8,0:0:0:0:
110,228,119495,1,0,0:0:0:0:
152,224,119570,1,10,1:2:0:0:
295,225,119720,1,8,0:0:0:0:
67,212,119870,2,0,L|66:102,1,89,14|8,1:2|0:0,0:0:0:0:
306,291,120170,6,0,L|306:233,1,44.5,14|0,1:2|0:0,0:0:0:0:
250,237,120320,2,0,L|250:185,1,44.5,8|0,0:0|0:0,0:0:0:0:
423,179,120470,2,0,L|486:179,1,44.5,10|0,1:2|0:0,0:0:0:0:
467,179,120620,2,0,L|411:175,1,44.5,8|0,0:0|0:0,0:0:0:0:
249,181,120770,2,0,L|246:118,1,44.5,8|8,1:2|0:0,0:0:0:0:
299,124,120920,2,0,L|350:121,1,44.5,8|8,1:2|1:2,0:0:0:0:
162,138,121070,5,14,1:2:0:0:
21,144,121220,2,0,L|21:96,2,44.5,0|8|10,0:0|0:0|1:2,0:0:0:0:
162,138,121520,2,8,L|226:130,1,44.5,0|8,0:0|0:0,0:0:0:0:
25,150,121670,1,8,1:2:0:0:
16,117,121745,1,8,0:0:0:0:
42,84,121820,1,8,1:2:0:0:
95,78,121895,1,8,0:0:0:0:
279,77,121970,6,0,P|443:131|274:204,1,445,14|0,1:2|0:0,0:0:0:0:
74,321,122870,2,0,B|32:285|34:150|181:144|181:144|0:81,1,445,14|0,1:2|0:0,0:0:0:0:
265,291,123770,6,0,L|269:229,1,44.5,14|8,1:2|0:0,0:0:0:0:
211,248,123920,2,0,L|206:188,1,44.5,8|8,0:0|0:0,0:0:0:0:
380,203,124070,2,0,L|444:197,1,44.5,10|8,1:2|0:0,0:0:0:0:
424,198,124220,2,0,L|376:198,1,44.5,8|8,0:0|0:0,0:0:0:0:
210,150,124370,2,0,L|142:147,1,44.5,8|8,1:2|0:0,0:0:0:0:
121,121,124520,2,0,L|181:114,1,44.5,8|8,1:2|1:2,0:0:0:0:
377,323,124670,6,0,B|462:297|462:297|364:273,2,178,14|14|14,1:2|1:2|1:2,0:0:0:0:
323,321,125345,1,8,0:0:0:0:
130,200,125420,1,8,1:2:0:0:
73,201,125495,1,8,0:0:0:0:
305,203,125570,5,14,1:2:0:0:
