osu file format v14

[General]
AudioFilename: audio.mp3
AudioLeadIn: 0
PreviewTime: 60770
Countdown: 0
SampleSet: Soft
StackLeniency: 0.7
Mode: 2
LetterboxInBreaks: 0
WidescreenStoryboard: 1

[Editor]
Bookmarks: 10370,17570,24770,31970,39170,46370,53570,69770,76970,84170,93170,100370,107570,114770,121970,125570
DistanceSpacing: 1.3
BeatDivisor: 4
GridSize: 32
TimelineZoom: 2.999999

[Metadata]
Title:Excalibur ~Revived resolution~
TitleUnicode:Excalibur ~Revived resolution~
Artist:Project Grimoire
ArtistUnicode:Project Grimoire
Creator:Souvenir
Version:~Platter~
Source:maimai MiLK
Tags:Du5t Dust IDu5t IDust Team Instrumental Video Game Arthur ~once Upon a Time~ Brionac ~Lugh Lamhfhata~ Caliburne ~Story of the Legendary sword~ ICE verdammt ruf Amaneko artcore
BeatmapID:3108810
BeatmapSetID:1514014

[Difficulty]
HPDrainRate:4
CircleSize:3.4
OverallDifficulty:8
ApproachRate:8
SliderMultiplier:1.56
SliderTickRate:2

[Events]
//Background and Video events
0,0,"Revived resolution.jpg",0,0
//Break Periods
2,61070,67220
//Storyboard Layer 0 (Background)
//Storyboard Layer 1 (Fail)
//Storyboard Layer 2 (Pass)
//Storyboard Layer 3 (Foreground)
//Storyboard Layer 4 (Overlay)
//Storyboard Sound Samples

[TimingPoints]
3170,300,4,2,1,50,1,0
10370,-100,4,2,1,60,0,0
16670,-100,4,2,1,65,0,0
16820,-100,4,2,1,65,0,0
16970,-100,4,2,1,70,0,0
17120,-100,4,2,1,70,0,0
17270,-100,4,2,1,75,0,0
17420,-100,4,2,1,75,0,0
17570,-100,4,2,1,60,0,0
23870,-100,4,2,1,60,0,0
24170,-100,4,2,1,60,0,0
24470,-100,4,2,1,60,0,0
24620,-100,4,2,1,60,0,0
28370,-100,4,2,1,65,0,0
31970,-100,4,2,1,60,0,0
32045,-111.111111111111,4,2,1,45,0,0
37370,-111.111111111111,4,2,1,45,0,0
38570,-100,4,2,1,52,0,0
38870,-100,4,2,1,60,0,0
39170,-100,4,2,1,60,0,0
45620,-100,4,2,1,60,0,0
45920,-100,4,2,1,60,0,0
46370,-100,4,2,1,65,0,0
51470,-100,4,2,1,65,0,0
51770,-100,4,2,1,65,0,0
57170,-100,4,2,1,70,0,1
60770,-100,4,2,98,35,0,0
67970,-100,4,2,1,45,0,0
71570,-100,4,2,1,50,0,0
73370,-100,4,2,1,55,0,0
75170,-100,4,2,1,65,0,0
83270,-100,4,2,1,65,0,0
83570,-100,4,2,1,70,0,0
83870,-100,4,2,1,75,0,0
84020,-100,4,2,1,80,0,0
84245,-100,4,2,1,70,0,0
93170,-100,4,2,1,65,0,0
98270,-100,4,2,1,65,0,0
98495,-100,4,2,1,65,0,0
100370,-100,4,2,1,70,0,0
106670,-100,4,2,1,70,0,0
106970,-100,4,2,1,75,0,0
107270,-100,4,2,1,80,0,0
107570,-100,4,2,98,65,0,1
107645,-100,4,2,1,80,0,1
114770,-100,4,2,98,65,0,1
114845,-100,4,2,1,80,0,1
121970,-100,4,2,1,80,0,0
124670,-100,4,2,1,80,0,0
125270,-100,4,2,1,80,0,0

[Colours]
Combo1 : 250,150,107
Combo2 : 196,196,196
Combo3 : 247,111,111
Combo4 : 82,82,82

[HitObjects]
180,140,3170,5,4,0:0:0:0:
180,140,3470,1,0,0:0:0:0:
328,138,3620,1,2,0:0:0:0:
328,138,3920,1,0,0:0:0:0:
180,140,4070,6,0,P|127:174|198:220,1,156,10|0,0:1|0:0,0:0:0:0:
328,138,4520,1,2,0:0:0:0:
406,138,4820,1,0,0:0:0:0:
257,213,4970,6,0,L|152:207,2,78,10|0|0,0:0|0:0|0:0,0:0:0:0:
406,295,5420,2,0,L|411:202,1,78,10|0,0:0|0:0,0:0:0:0:
331,207,5720,1,0,0:0:0:0:
182,190,5870,5,8,0:1:0:0:
104,190,6170,1,0,0:0:0:0:
253,201,6320,1,2,0:0:0:0:
448,267,6770,5,4,0:0:0:0:
448,267,7070,1,0,0:0:0:0:
299,262,7220,1,2,0:0:0:0:
299,262,7520,1,0,0:0:0:0:
448,267,7670,6,0,P|488:215|435:138,1,156,10|0,0:1|0:0,0:0:0:0:
299,262,8120,1,2,0:0:0:0:
145,240,8420,1,0,0:0:0:0:
294,190,8570,6,0,L|392:186,2,78,10|0|0,1:2|0:0|0:0,0:0:0:0:
145,165,9020,2,0,L|49:159,2,78,10|0|0,1:2|0:0|0:0,0:0:0:0:
365,298,9470,5,4,1:2:0:0:
445,265,9620,2,0,L|447:221,2,39,8|0|0,0:1|0:0|1:0,0:0:0:0:
298,205,9920,1,0,1:0:0:0:
375,144,10070,2,0,L|431:141,2,39,8|0|0,0:1|0:0|1:0,0:0:0:0:
154,240,10370,6,0,P|102:219|167:172,1,156,4|8,0:0|0:0,0:0:0:0:
233,160,10820,2,0,L|243:68,1,78,2|0,0:0|0:0,0:0:0:0:
163,77,11120,1,0,0:0:0:0:
312,151,11270,6,0,L|360:141,2,39,10|0|0,1:2|0:0|0:0,0:0:0:0:
163,77,11570,1,2,0:0:0:0:
83,73,11720,2,0,L|68:241,1,156,2|0,0:0|0:0,0:0:0:0:
287,314,12170,6,0,L|378:309,2,78,2|0|10,1:2|0:0|1:2,0:0:0:0:
201,275,12620,2,0,L|196:181,1,78,0|2,0:0|1:2,0:0:0:0:
278,184,12920,1,0,0:0:0:0:
130,200,13070,6,0,L|128:110,1,78,10|0,1:2|0:0,0:0:0:0:
207,117,13370,1,8,1:2:0:0:
421,127,13520,2,0,P|466:160|421:232,1,156,4|0,0:0|0:0,0:0:0:0:
207,117,13970,6,0,L|31:108,1,156,8|8,1:2|0:0,0:0:0:0:
129,220,14420,2,0,L|137:128,1,78,0|0,0:0|0:2,0:0:0:0:
55,141,14720,1,0,0:0:0:0:
202,132,14870,6,0,L|258:128,2,39,10|0|0,1:2|0:0|0:0,0:0:0:0:
55,141,15170,1,2,0:0:0:0:
134,137,15320,2,0,P|132:208|55:248,1,156,2|8,0:0|1:2,0:0:0:0:
288,329,15770,6,8,L|369:325,1,78,14|8,1:2|0:0,0:0:0:0:
447,269,16070,2,0,L|349:257,1,78,10|8,1:2|0:0,0:0:0:0:
448,223,16370,2,8,L|451:131,1,78,8|8,1:2|0:0,0:0:0:0:
300,178,16670,6,0,L|208:171,1,78,12|8,1:2|0:0,0:0:0:0:
372,133,16970,2,0,L|472:130,1,78,12|8,1:2|0:0,0:0:0:0:
234,240,17270,2,0,L|144:232,1,78,12|8,1:2|0:0,0:0:0:0:
394,274,17570,6,0,P|396:209|296:173,1,156,4|8,1:0|0:0,0:0:0:0:
247,165,18020,1,0,0:0:0:0:
325,160,18170,2,0,L|331:66,1,78,8|0,0:0|0:0,0:0:0:0:
183,77,18470,6,0,P|116:115|107:194,1,156,10|8,0:0|0:0,0:0:0:0:
184,184,18920,1,0,0:0:0:0:
104,187,19070,2,0,L|98:271,1,78,0|8,0:0|0:0,0:0:0:0:
247,266,19370,6,0,P|290:223|236:144,1,156,10|8,0:0|0:0,0:0:0:0:
175,148,19820,1,0,0:0:0:0:
251,149,19970,2,0,L|334:139,1,78,8|8,0:0|0:0,0:0:0:0:
179,61,20270,5,10,0:0:0:0:
174,109,20420,1,0,0:0:0:0:
253,111,20570,1,8,0:0:0:0:
258,157,20720,1,0,0:0:0:0:
110,209,20870,1,0,0:0:0:0:
105,259,21020,1,8,0:0:0:0:
324,337,21170,6,0,L|336:171,1,156,10|8,0:0|0:0,0:0:0:0:
257,187,21620,1,0,0:0:0:0:
339,184,21770,2,0,L|346:99,1,78,8|8,0:0|0:0,0:0:0:0:
195,99,22070,6,0,P|186:167|268:185,1,156,10|8,0:0|0:0,0:0:0:0:
180,186,22520,1,0,0:0:0:0:
102,193,22670,2,0,L|96:287,1,78,0|8,0:0|0:0,0:0:0:0:
246,332,22970,6,0,L|423:323,1,156,10|8,0:0|0:0,0:0:0:0:
323,314,23420,1,0,0:0:0:0:
401,293,23570,2,0,L|402:201,1,78,8|8,0:0|0:0,0:0:0:0:
253,207,23870,6,0,L|247:115,1,78,14|0,0:0|0:0,0:0:0:0:
396,112,24170,2,0,L|485:110,1,78,14|0,0:0|0:0,0:0:0:0:
254,94,24470,2,0,L|162:86,1,78,14|8,0:0|0:1,0:0:0:0:
401,261,24770,6,0,P|435:241|398:148,1,156,14|8,0:0|0:0,0:0:0:0:
324,154,25220,1,0,0:0:0:0:
243,155,25370,2,0,L|335:147,1,78,8|8,0:0|0:0,0:0:0:0:
171,240,25670,6,0,P|170:176|248:152,1,156,10|8,0:0|0:0,0:0:0:0:
169,145,26120,1,0,0:0:0:0:
248,142,26270,2,0,L|334:135,1,78,8|8,0:0|0:0,0:0:0:0:
176,112,26570,6,0,L|164:284,1,156,10|0,0:0|0:0,0:0:0:0:
246,260,27020,1,0,0:0:0:0:
165,267,27170,2,0,L|74:267,1,78,8|8,0:0|0:0,0:0:0:0:
234,344,27470,5,10,0:0:0:0:
314,343,27620,1,0,0:0:0:0:
232,326,27770,1,8,0:0:0:0:
154,323,27920,1,0,0:0:0:0:
302,274,28070,1,8,0:0:0:0:
306,237,28220,1,8,0:0:0:0:
85,251,28370,6,0,L|81:75,1,156,14|0,1:2|0:0,0:0:0:0:
163,86,28820,1,8,0:0:0:0:
242,81,28970,2,0,L|165:73,1,78,8|8,0:0|0:0,0:0:0:0:
389,221,29270,6,0,L|392:141,1,78,14|8,1:2|0:0,0:0:0:0:
311,144,29570,2,0,L|304:57,1,78,8|8,0:0|0:0,0:0:0:0:
454,137,29870,2,0,L|459:44,1,78,8|8,0:0|0:0,0:0:0:0:
241,86,30170,6,0,L|240:134,2,39,14|0|0,1:2|0:0|0:0,0:0:0:0:
319,239,30470,2,0,L|371:233,2,39,8|0|0,0:0|0:0|0:0,0:0:0:0:
172,234,30770,2,0,L|117:232,2,39,10|0|0,0:0|0:0|0:0,0:0:0:0:
391,332,31070,6,0,L|393:240,1,78,14|0,1:2|0:0,0:0:0:0:
173,232,31370,2,0,L|83:231,1,78,10|0,1:2|0:0,0:0:0:0:
243,173,31670,1,8,1:2:0:0:
281,170,31745,1,8,0:0:0:0:
320,168,31820,1,8,0:0:0:0:
84,342,31970,6,0,L|81:185,1,156,6|0,0:0|0:0,0:0:0:0:
220,182,32570,1,0,0:0:0:0:
76,179,32870,6,0,L|221:162,1,140.399995715332,2|0,0:0|0:0,0:0:0:0:
355,164,33470,1,0,0:0:0:0:
286,123,33620,1,0,0:0:0:0:
137,101,33770,6,0,L|309:86,1,140.399995715332,2|0,0:0|0:0,0:0:0:0:
137,101,34370,1,0,0:0:0:0:
417,323,34670,6,0,P|445:248|419:184,1,140.399995715332,2|0,0:0|0:0,0:0:0:0:
281,182,35270,1,0,0:0:0:0:
351,173,35420,1,0,0:0:0:0:
201,248,35570,6,0,P|166:220|205:141,1,140.399995715332,2|0,0:0|0:0,0:0:0:0:
335,137,36170,1,0,0:0:0:0:
196,128,36470,6,0,L|352:118,1,140.399995715332,2|0,0:0|0:0,0:0:0:0:
267,94,36920,1,0,0:0:0:0:
341,191,37070,2,0,L|345:114,1,70.1999978576661,0|0,0:0|0:0,0:0:0:0:
193,273,37370,6,0,P|201:202|376:128,1,280.799991430664,2|0,0:0|0:0,0:0:0:0:
102,270,38270,2,0,P|208:262|288:108,1,280.799991430664,2|0,0:0|0:0,0:0:0:0:
210,124,39020,1,0,0:0:0:0:
430,259,39170,6,0,L|438:88,1,156,14|0,1:2|0:0,0:0:0:0:
286,110,39770,1,2,0:0:0:0:
39,283,40070,6,0,P|41:215|134:154,1,156,10|2,0:1|0:0,0:0:0:0:
257,169,40670,1,0,0:0:0:0:
179,159,40820,1,0,0:0:0:0:
326,267,40970,6,0,L|335:182,1,78,10|0,0:0|0:0,0:0:0:0:
257,169,41270,1,0,0:0:0:0:
406,195,41420,2,0,L|414:101,1,78,0|2,0:0|0:0,0:0:0:0:
335,105,41720,1,0,0:0:0:0:
187,81,41870,6,0,P|141:133|193:201,1,156,10|2,0:1|0:0,0:0:0:0:
336,192,42470,2,0,L|343:106,1,78,0|0,0:0|0:0,0:0:0:0:
120,285,42770,6,0,P|39:256|132:111,1,312,14|2,0:0|0:0,0:0:0:0:
373,287,43670,2,0,P|454:258|361:110,1,312,10|0,0:1|0:0,0:0:0:0:
111,124,44570,6,0,L|346:112,1,234,10|8,0:0|0:0,0:0:0:0:
263,192,45170,2,0,L|261:93,1,78,10|0,0:0|0:0,0:0:0:0:
111,282,45470,6,0,L|108:188,1,78,10|0,0:0|0:0,0:0:0:0:
189,188,45770,1,10,0:0:0:0:
339,218,45920,2,8,L|342:124,1,78
261,124,46220,1,8,0:0:0:0:
487,315,46370,6,0,L|316:294,1,156,4|10,1:1|0:2,0:0:0:0:
407,262,46820,1,0,0:0:0:0:
259,256,46970,2,0,L|257:164,1,78,8|0,1:2|0:0,0:0:0:0:
408,55,47270,6,0,P|402:131|319:159,1,156,14|8,1:2|0:0,0:0:0:0:
256,160,47720,1,0,0:0:0:0:
177,162,47870,2,0,L|261:157,1,78,10|0,1:2|1:0,0:0:0:0:
34,296,48170,6,0,L|31:200,1,78,12|0,1:2|0:0,0:0:0:0:
181,205,48470,2,0,L|187:111,1,78,10|0,1:2|0:0,0:0:0:0:
106,125,48770,2,0,L|101:33,1,78,8|0,1:2|0:0,0:0:0:0:
251,53,49070,2,0,L|335:51,1,78,10|0,1:2|0:0,0:0:0:0:
110,278,49370,6,0,P|69:241|118:160,1,156,8|8,0:0|1:2,0:0:0:0:
186,152,49820,1,8,1:2:0:0:
342,148,50120,5,8,0:0:0:0:
420,137,50270,1,10,1:2:0:0:
342,148,50420,1,8,0:0:0:0:
193,248,50570,2,0,L|191:162,1,78,8|8,1:2|0:0,0:0:0:0:
342,148,50870,6,0,L|346:52,1,78,14|0,1:2|0:0,0:0:0:0:
198,81,51170,2,0,L|104:78,1,78,14|0,1:2|0:0,0:0:0:0:
269,253,51470,2,0,L|368:247,1,78,14|0,1:2|0:0,0:0:0:0:
125,332,51770,6,0,L|122:242,1,78,14|0,1:2|0:0,0:0:0:0:
274,113,52070,1,10,1:2:0:0:
355,108,52220,1,8,0:0:0:0:
355,108,52370,1,8,1:2:0:0:
274,113,52520,1,0,0:0:0:0:
128,191,52670,5,10,1:2:0:0:
123,153,52820,1,8,0:0:0:0:
204,149,52970,1,8,1:2:0:0:
209,111,53120,1,0,0:0:0:0:
61,252,53270,1,10,1:2:0:0:
140,240,53420,1,8,0:0:0:0:
365,283,53570,6,0,P|418:243|360:185,1,156,14|10,1:2|1:2,0:0:0:0:
294,183,54020,1,0,0:0:0:0:
444,176,54170,2,0,L|446:81,1,78,8|0,1:2|0:0,0:0:0:0:
297,92,54470,6,0,P|227:106|214:190,1,156,10|8,1:2|1:2,0:0:0:0:
294,183,54920,1,0,0:0:0:0:
214,185,55070,2,0,L|132:185,1,78,8|8,1:2|0:0,0:0:0:0:
362,281,55370,6,0,L|365:201,1,78,14|0,1:2|0:0,0:0:0:0:
288,198,55670,2,0,L|287:107,1,78,10|0,1:2|0:0,0:0:0:0:
436,91,55970,2,0,L|350:86,1,78,8|0,1:2|0:0,0:0:0:0:
207,207,56270,6,0,L|206:114,1,78,10|0,1:2|0:0,0:0:0:0:
287,120,56570,2,0,L|292:29,1,78,8|8,1:2|0:0,0:0:0:0:
143,80,56870,2,0,L|56:75,1,78,10|0,1:2|0:0,0:0:0:0:
299,298,57170,6,0,L|302:195,1,78,14|8,1:2|0:0,0:0:0:0:
222,202,57470,2,0,L|143:195,1,78,10|2,1:2|0:0,0:0:0:0:
293,132,57770,2,0,L|376:128,1,78,8|8,1:2|0:0,0:0:0:0:
152,323,58070,6,0,L|151:241,1,78,14|8,1:2|0:0,0:0:0:0:
234,225,58370,2,0,L|328:219,1,78,8|8,1:2|0:0,0:0:0:0:
165,205,58670,2,0,L|81:200,1,78,10|8,1:2|0:0,0:0:0:0:
305,84,58970,5,14,1:2:0:0:
380,78,59120,2,0,L|440:77,2,39,8|0|8,0:0|0:0|1:2,0:0:0:0:
233,217,59420,2,0,L|229:167,1,39,8|0,0:0|0:0,0:0:0:0:
281,164,59570,1,10,1:2:0:0:
362,159,59720,1,8,0:0:0:0:
148,290,59870,5,8,1:2:0:0:
70,264,60020,1,0,0:0:0:0:
109,259,60095,1,0,0:0:0:0:
148,254,60170,1,10,1:2:0:0:
299,204,60320,2,0,L|343:200,2,39,0|0|8,0:0|0:0|1:2,0:0:0:0:
220,205,60620,1,8,1:2:0:0:
454,271,60770,5,14,1:1:0:0:
256,192,67970,12,0,69770,0:0:0:0:
325,177,70070,5,0,0:0:0:0:
325,177,70220,1,0,0:0:0:0:
230,178,70520,1,0,0:0:0:0:
325,177,70670,1,2,0:0:0:0:
230,178,70970,1,0,0:0:0:0:
230,178,71120,1,0,0:0:0:0:
325,177,71420,6,0,L|381:177,2,39,0|0|8,0:0|0:0|0:0,0:0:0:0:
278,178,71720,1,0,0:0:0:0:
325,177,71870,1,0,0:0:0:0:
403,254,72020,1,0,0:0:0:0:
325,255,72170,1,0,0:0:0:0:
246,255,72320,1,0,0:0:0:0:
395,346,72470,5,10,0:1:0:0:
241,347,72770,1,0,0:0:0:0:
161,348,72920,1,0,0:0:0:0:
495,198,73370,5,8,0:0:0:0:
338,184,73670,1,0,0:0:0:0:
417,173,73820,1,0,0:0:0:0:
261,117,74120,1,0,0:0:0:0:
112,93,74270,1,10,0:1:0:0:
261,117,74570,1,0,0:0:0:0:
340,106,74720,1,0,0:0:0:0:
183,107,75020,1,8,0:0:0:0:
404,265,75170,6,0,L|443:265,2,39,14|0|8,1:2|0:0|0:0,0:0:0:0:
257,250,75470,2,8,L|254:160,1,78,10|8,1:2|0:0,0:0:0:0:
404,147,75770,2,0,L|404:93,1,39,8|0,1:2|0:0,0:0:0:0:
351,102,75920,1,8,0:0:0:0:
126,183,76070,6,8,L|68:183,2,39,14|8|8,1:2|0:0|0:0,0:0:0:0:
276,189,76370,2,8,L|328:188,2,39,14|8|8,1:2|0:0|0:0,0:0:0:0:
126,151,76670,2,8,L|27:148,1,78,14|8,1:2|0:0,0:0:0:0:
273,316,76970,6,0,P|325:278|273:220,1,156,14|10,1:2|1:2,0:0:0:0:
199,218,77420,1,0,0:0:0:0:
277,207,77570,2,0,L|365:202,1,78,8|0,1:2|0:0,0:0:0:0:
204,160,77870,6,0,L|201:68,1,78,10|0,1:2|0:0,0:0:0:0:
282,69,78170,2,0,L|385:65,1,78,8|0,1:2|0:0,0:0:0:0:
211,234,78470,2,0,L|124:232,1,78,10|0,1:2|0:0,0:0:0:0:
366,318,78770,6,0,L|373:150,1,156,12|10,1:2|1:2,0:0:0:0:
349,134,79145,1,0,0:0:0:0:
299,126,79220,1,0,0:0:0:0:
222,102,79370,2,0,L|134:85,1,78,8|0,1:2|0:0,0:0:0:0:
295,88,79670,5,10,1:2:0:0:
214,87,79820,1,8,0:0:0:0:
300,49,79970,1,8,1:2:0:0:
335,62,80045,1,8,0:0:0:0:
350,97,80120,1,8,0:0:0:0:
337,132,80195,1,8,0:0:0:0:
303,148,80270,1,10,1:2:0:0:
223,152,80420,1,0,0:0:0:0:
446,328,80570,6,0,L|454:167,1,156,14|10,1:2|1:2,0:0:0:0:
373,160,81020,1,0,0:0:0:0:
333,157,81095,1,0,0:0:0:0:
293,155,81170,2,0,L|381:141,1,78,8|8,1:2|0:0,0:0:0:0:
220,234,81470,6,0,L|217:153,1,78,10|0,1:2|0:0,0:0:0:0:
296,132,81770,2,0,L|208:127,1,78,8|0,1:2|0:0,0:0:0:0:
364,309,82070,2,8,L|462:303,1,78,10|0,1:2|0:0,0:0:0:0:
208,335,82370,6,0,L|206:245,1,78,10|0,1:2|0:0,0:0:0:0:
286,243,82670,1,10,1:2:0:0:
139,251,82820,2,0,L|137:161,1,78,8|8,0:0|1:2,0:0:0:0:
217,159,83120,1,8,0:0:0:0:
366,148,83270,6,0,L|368:61,1,78,14|8,1:2|0:0,0:0:0:0:
217,77,83570,2,0,L|129:74,1,78,14|8,1:2|0:0,0:0:0:0:
359,267,83870,2,0,L|455:256,1,78,14|8,1:2|0:0,0:0:0:0:
203,331,84170,6,0,P|170:273|214:186,1,156,14|10,1:2|1:2,0:0:0:0:
282,179,84620,1,8,0:0:0:0:
203,177,84770,2,0,L|99:167,1,78,8|8,1:2|0:0,0:0:0:0:
274,143,85070,6,0,L|276:49,1,78,10|8,1:2|0:0,0:0:0:0:
197,299,85370,2,0,L|193:211,1,78,8|8,1:2|0:0,0:0:0:0:
342,234,85670,2,0,L|403:231,2,39,10|8|8,1:2|0:0|0:0,0:0:0:0:
120,244,85970,6,0,P|127:189|215:147,1,156,14|10,1:2|1:2,0:0:0:0:
289,143,86420,1,8,0:0:0:0:
210,136,86570,2,0,L|114:131,1,78,8|8,1:2|0:0,0:0:0:0:
360,301,86870,5,14,1:1:0:0:
249,304,87095,1,10,1:1:0:0:
360,301,87320,1,14,1:1:0:0:
441,298,87470,2,8,L|444:215,1,78,14|0,1:2|0:0,0:0:0:0:
223,217,87770,6,0,L|215:57,1,156,14|10,1:2|1:2,0:0:0:0:
294,54,88220,1,8,0:0:0:0:
146,135,88370,2,8,L|141:37,1,78,8|8,1:2|0:2,0:0:0:0:
358,274,88670,6,0,L|366:112,1,156,14|10,1:2|1:2,0:0:0:0:
288,118,89120,1,8,0:0:0:0:
438,177,89270,2,8,L|441:80,1,78,8|0,1:2|0:0,0:0:0:0:
225,253,89570,5,14,1:2:0:0:
200,242,89720,1,0,0:0:0:0:
240,206,89870,1,10,1:2:0:0:
318,205,90020,1,8,0:0:0:0:
168,147,90170,1,8,1:2:0:0:
91,142,90320,1,8,0:0:0:0:
304,310,90470,5,14,1:2:0:0:
329,299,90620,1,8,0:0:0:0:
289,263,90770,1,14,1:2:0:0:
237,256,90870,1,8,0:0:0:0:
289,234,90970,1,8,0:0:0:0:
341,223,91070,1,10,1:2:0:0:
418,211,91220,1,8,0:0:0:0:
197,302,91370,6,0,L|108:300,1,78,14|8,1:2|0:0,0:0:0:0:
199,145,91670,1,10,1:2:0:0:
281,153,91820,1,8,0:0:0:0:
281,153,91970,1,8,1:2:0:0:
199,145,92120,1,8,0:0:0:0:
348,87,92270,6,8,L|394:86,2,39,14|8|8,1:2|0:0|0:0,0:0:0:0:
269,82,92570,1,10,1:2:0:0:
307,78,92645,1,8,0:0:0:0:
346,75,92720,1,8,0:0:0:0:
196,184,92870,2,8,L|150:183,2,39,8|8|8,1:2|0:0|0:0,0:0:0:0:
415,321,93170,6,0,L|421:140,1,156,14|8,1:1|0:0,0:0:0:0:
342,164,93620,1,8,0:0:0:0:
196,235,93770,2,0,L|188:141,1,78,10|0,1:2|0:0,0:0:0:0:
339,210,94070,6,0,L|419:207,1,78,10|0,1:1|0:0,0:0:0:0:
339,210,94370,2,0,L|336:121,1,78,8|8,0:0|0:0,0:0:0:0:
416,110,94670,2,0,L|328:101,1,78,10|0,1:2|0:0,0:0:0:0:
118,282,94970,6,0,L|113:105,1,156,10|8,1:0|0:0,0:0:0:0:
36,136,95420,1,8,0:0:0:0:
183,188,95570,2,0,L|93:186,1,78,10|0,1:2|0:0,0:0:0:0:
254,296,95870,6,0,L|258:198,1,78,10|8,1:0|0:0,0:0:0:0:
180,206,96170,2,8,L|179:123,1,78,10|8,1:1|0:0,0:0:0:0:
260,113,96470,2,8,L|337:110,1,78,10|8,1:0|0:0,0:0:0:0:
121,318,96770,6,0,P|117:244|200:209,1,156,14|8,1:0|0:0,0:0:0:0:
259,204,97220,1,8,0:0:0:0:
409,217,97370,2,0,L|412:127,1,78,10|0,1:2|0:0,0:0:0:0:
261,119,97670,6,0,L|177:113,1,78,10|0,1:0|0:0,0:0:0:0:
104,101,97970,2,0,L|182:88,1,78,8|8,0:0|0:0,0:0:0:0:
102,184,98270,2,0,L|99:97,1,78,10|0,1:2|0:0,0:0:0:0:
313,293,98570,6,0,P|295:217|213:202,1,156,10|8,1:0|0:0,0:0:0:0:
149,198,99020,1,8,0:0:0:0:
297,183,99170,2,8,L|302:97,1,78,10|8,1:1|0:0,0:0:0:0:
153,102,99470,6,0,L|152:20,1,78,10|0,1:1|0:0,0:0:0:0:
229,239,99770,2,0,L|235:150,1,78,8|8,0:0|0:0,0:0:0:0:
156,323,100070,2,0,L|56:319,1,78,8|8,0:0|0:0,0:0:0:0:
296,335,100370,6,0,L|301:166,1,156,14|10,1:0|1:2,0:0:0:0:
222,177,100820,1,8,0:0:0:0:
372,184,100970,2,0,L|374:94,1,78,8|8,1:2|0:0,0:0:0:0:
226,127,101270,6,0,L|132:120,1,78,10|0,1:0|0:0,0:0:0:0:
230,88,101570,2,8,L|321:78,1,78,10|8,1:2|0:0,0:0:0:0:
230,88,101870,2,0,L|225:181,1,78,8|8,1:2|0:0,0:0:0:0:
445,299,102170,6,0,P|454:235|362:198,1,156,10|10,1:0|1:2,0:0:0:0:
306,197,102620,1,8,0:0:0:0:
156,224,102770,2,8,L|65:218,1,78,8|8,1:2|0:0,0:0:0:0:
226,136,103070,6,0,L|298:130,2,52,10|8|8,1:0|0:0|0:0,0:0:0:0:
171,137,103370,1,10,1:0:0:0:
145,87,103470,1,8,0:0:0:0:
171,137,103570,1,8,0:0:0:0:
226,136,103670,2,0,L|325:133,1,78,10|8,1:0|0:0,0:0:0:0:
80,280,103970,5,14,1:2:0:0:
80,280,104420,1,0,0:0:0:0:
117,247,104570,1,8,0:0:0:0:
191,245,104720,1,0,0:0:0:0:
340,245,104870,6,0,P|386:187|340:129,1,156,14|8,1:2|0:0,0:0:0:0:
265,133,105320,1,0,0:0:0:0:
345,124,105470,2,0,L|425:119,1,78,8|8,0:0|0:0,0:0:0:0:
187,150,105770,6,0,L|176:314,1,156,14|8,1:2|0:0,0:0:0:0:
257,301,106220,1,8,0:0:0:0:
108,317,106370,2,0,L|103:226,1,78,8|8,1:2|1:2,0:0:0:0:
254,222,106670,6,0,L|255:128,1,78,14|8,1:2|0:0,0:0:0:0:
106,133,106970,2,0,L|21:131,1,78,14|8,1:2|0:0,0:0:0:0:
248,86,107270,2,0,L|337:82,1,78,14|10,1:2|1:2,0:0:0:0:
97,85,107570,6,0,P|53:127|101:202,1,156,14|10,1:1|1:2,0:0:0:0:
171,190,108020,1,8,0:0:0:0:
93,194,108170,2,0,L|89:106,1,78,8|8,1:2|0:0,0:0:0:0:
238,73,108470,5,14,1:2:0:0:
270,92,108545,1,0,0:0:0:0:
285,127,108620,1,8,0:0:0:0:
277,165,108695,1,0,0:0:0:0:
247,189,108770,1,8,1:2:0:0:
164,191,108920,1,8,0:0:0:0:
242,262,109070,2,0,L|341:256,1,78,10|8,1:2|0:0,0:0:0:0:
99,342,109370,6,0,P|94:272|171:238,1,156,14|10,1:2|0:2,0:0:0:0:
241,228,109820,1,0,0:0:0:0:
93,206,109970,2,8,L|88:118,1,78,8|8,1:2|1:2,0:0:0:0:
306,70,110270,6,8,L|355:69,2,39,14|0|8,1:2|0:0|0:0,0:0:0:0:
229,140,110570,2,8,L|170:140,2,39,10|0|8,1:2|0:0|0:0,0:0:0:0:
308,201,110870,1,8,1:2:0:0:
346,199,110945,1,0,0:0:0:0:
385,198,111020,1,8,0:0:0:0:
164,310,111170,6,0,P|113:269|169:215,1,156,14|10,1:2|1:2,0:0:0:0:
244,206,111620,1,8,0:0:0:0:
324,200,111770,2,0,L|418:196,1,78,8|8,1:2|0:0,0:0:0:0:
254,301,112070,5,14,1:2:0:0:
246,263,112145,1,0,0:0:0:0:
260,227,112220,1,8,0:0:0:0:
290,203,112295,1,0,0:0:0:0:
328,199,112370,1,10,1:2:0:0:
410,199,112520,1,8,0:0:0:0:
262,139,112670,2,0,L|177:132,1,78,14|8,1:2|0:0,0:0:0:0:
416,308,112970,6,0,P|417:241|341:210,1,156,14|10,1:2|1:2,0:0:0:0:
267,217,113420,1,8,0:0:0:0:
415,177,113570,2,8,L|417:96,1,78,8|8,1:2|1:2,0:0:0:0:
195,67,113870,6,0,L|139:67,2,39,14|0|8,1:2|0:0|0:0,0:0:0:0:
275,91,114170,2,0,L|278:136,1,39,10|0,1:2|0:0,0:0:0:0:
223,133,114320,1,8,0:0:0:0:
147,211,114470,1,8,1:2:0:0:
108,209,114545,1,0,0:0:0:0:
69,208,114620,1,8,1:2:0:0:
298,318,114770,6,0,L|131:313,1,156,14|10,1:1|1:2,0:0:0:0:
216,256,115220,1,8,0:0:0:0:
295,249,115370,2,0,L|301:160,1,78,8|8,1:2|0:0,0:0:0:0:
153,177,115670,5,14,1:2:0:0:
117,191,115745,1,0,0:0:0:0:
102,226,115820,1,8,0:0:0:0:
116,262,115895,1,0,0:0:0:0:
150,279,115970,1,8,1:2:0:0:
229,274,116120,1,8,0:0:0:0:
307,270,116270,2,0,L|309:184,1,78,10|8,1:2|0:0,0:0:0:0:
90,195,116570,6,0,P|45:151|98:90,1,156,14|10,1:2|0:2,0:0:0:0:
173,87,117020,1,0,0:0:0:0:
321,96,117170,2,8,L|326:12,1,78,8|8,1:2|1:2,0:0:0:0:
104,200,117470,6,0,L|48:196,2,39,14|0|8,1:2|0:0|0:0,0:0:0:0:
182,268,117770,2,0,L|242:261,2,39,10|0|8,1:2|0:0|0:0,0:0:0:0:
103,341,118070,2,0,L|96:292,1,39,8|0,1:2|0:0,0:0:0:0:
149,288,118220,1,8,0:0:0:0:
376,284,118370,6,0,L|381:114,1,156,14|10,1:2|1:2,0:0:0:0:
301,126,118820,1,8,0:0:0:0:
452,126,118970,2,0,L|456:29,1,78,8|8,1:2|0:0,0:0:0:0:
233,202,119270,6,0,L|400:193,1,156,14|10,1:2|1:2,0:0:0:0:
311,161,119720,1,8,0:0:0:0:
164,183,119870,2,0,L|164:86,1,78,14|8,1:2|0:0,0:0:0:0:
391,318,120170,6,0,P|394:251|304:229,1,156,14|10,1:2|1:2,0:0:0:0:
240,229,120620,1,8,0:0:0:0:
387,214,120770,2,0,L|389:121,1,78,8|8,1:2|1:2,0:0:0:0:
167,124,121070,5,14,1:2:0:0:
88,121,121220,2,0,L|26:120,2,39,0|8|10,0:0|0:0|1:2,0:0:0:0:
236,204,121520,2,0,L|280:202,2,39,0|8|8,0:0|0:0|1:2,0:0:0:0:
161,207,121820,1,8,1:2:0:0:
397,279,121970,6,0,P|460:230|405:32,1,312,14|2,1:2|0:0,0:0:0:0:
157,311,122870,2,0,P|94:262|149:64,1,312,14|2,1:2|0:0,0:0:0:0:
396,240,123770,6,0,L|445:235,2,39,14|8|8,1:2|0:0|0:0,0:0:0:0:
245,203,124070,2,0,L|200:200,2,39,10|8|8,1:2|0:0|0:0,0:0:0:0:
393,160,124370,2,0,L|393:105,1,39,8|8,1:2|0:0,0:0:0:0:
341,113,124520,1,8,1:2:0:0:
112,131,124670,5,14,1:2:0:0:
252,127,124970,1,14,1:2:0:0:
112,131,125270,2,0,L|62:130,2,39,14|8|8,1:2|0:0|1:2,0:0:0:0:
341,227,125570,5,14,1:2:0:0:
