osu file format v14

[General]
AudioFilename: audio.mp3
AudioLeadIn: 0
PreviewTime: 60770
Countdown: 0
SampleSet: Soft
StackLeniency: 0.7
Mode: 2
LetterboxInBreaks: 0
WidescreenStoryboard: 1

[Editor]
Bookmarks: 10370,17570,24770,31970,39170,46370,53570,69770,76970,84170,93170,100370,107570,114770,121970,125570
DistanceSpacing: 1.3
BeatDivisor: 4
GridSize: 32
TimelineZoom: 2.999999

[Metadata]
Title:Excalibur ~Revived resolution~
TitleUnicode:Excalibur ~Revived resolution~
Artist:Project Grimoire
ArtistUnicode:Project Grimoire
Creator:Souvenir
Version:~Cup~
Source:maimai MiLK
Tags:Du5t Dust IDu5t IDust Team Instrumental Video Game Arthur ~once Upon a Time~ Brionac ~Lugh Lamhfhata~ Caliburne ~Story of the Legendary sword~ ICE verdammt ruf Amaneko artcore
BeatmapID:3117146
BeatmapSetID:1514014

[Difficulty]
HPDrainRate:2
CircleSize:2.6
OverallDifficulty:6
ApproachRate:6
SliderMultiplier:1.14
SliderTickRate:1

[Events]
//Background and Video events
0,0,"Revived resolution.jpg",0,0
//Break Periods
2,61070,66920
//Storyboard Layer 0 (Background)
//Storyboard Layer 1 (Fail)
//Storyboard Layer 2 (Pass)
//Storyboard Layer 3 (Foreground)
//Storyboard Layer 4 (Overlay)
//Storyboard Sound Samples

[TimingPoints]
3170,300,4,2,1,50,1,0
10370,-100,4,2,1,60,0,0
16670,-100,4,2,1,65,0,0
16820,-100,4,2,1,65,0,0
16970,-100,4,2,1,70,0,0
17120,-100,4,2,1,70,0,0
17270,-100,4,2,1,75,0,0
17420,-100,4,2,1,75,0,0
17570,-100,4,2,1,60,0,0
23870,-100,4,2,1,60,0,0
24170,-100,4,2,1,60,0,0
24470,-100,4,2,1,60,0,0
24620,-100,4,2,1,60,0,0
28370,-100,4,2,1,65,0,0
31970,-100,4,2,1,60,0,0
32045,-100,4,2,1,45,0,0
37370,-100,4,2,1,45,0,0
38570,-100,4,2,1,52,0,0
38870,-100,4,2,1,60,0,0
39170,-100,4,2,1,60,0,0
45620,-100,4,2,1,60,0,0
45920,-100,4,2,1,60,0,0
46370,-100,4,2,1,65,0,0
51470,-100,4,2,1,65,0,0
51770,-100,4,2,1,65,0,0
57170,-100,4,2,1,70,0,1
60770,-100,4,2,98,35,0,0
67970,-100,4,2,1,45,0,0
71570,-100,4,2,1,50,0,0
73370,-100,4,2,1,55,0,0
75170,-100,4,2,1,65,0,0
83270,-100,4,2,1,65,0,0
83570,-100,4,2,1,70,0,0
83870,-100,4,2,1,75,0,0
84020,-100,4,2,1,80,0,0
84245,-100,4,2,1,70,0,0
93170,-100,4,2,1,65,0,0
98270,-100,4,2,1,65,0,0
98495,-100,4,2,1,65,0,0
100370,-100,4,2,1,70,0,0
106670,-100,4,2,1,70,0,0
106970,-100,4,2,1,75,0,0
107270,-100,4,2,1,80,0,0
107570,-100,4,2,98,65,0,1
107645,-100,4,2,1,80,0,1
114770,-100,4,2,98,65,0,1
114845,-100,4,2,1,80,0,1
121970,-100,4,2,1,80,0,0
124670,-100,4,2,1,80,0,0
125270,-100,4,2,1,80,0,0

[Colours]
Combo1 : 250,150,107
Combo2 : 196,196,196
Combo3 : 247,111,111
Combo4 : 82,82,82

[HitObjects]
178,193,3170,5,4,0:0:0:0:
332,192,3620,1,2,0:0:0:0:
137,275,4070,6,0,L|132:135,1,114,10|0,0:1|0:0,0:0:0:0:
204,152,4520,1,2,0:0:0:0:
317,149,4820,1,0,0:0:0:0:
387,143,4970,6,0,L|391:276,1,114,10|0,0:0|0:0,0:0:0:0:
319,261,5420,2,0,L|197:254,1,114,10|0,0:0|0:0,0:0:0:0:
132,251,5870,5,8,0:1:0:0:
275,171,6170,1,0,0:0:0:0:
275,171,6320,1,2,0:0:0:0:
81,173,6770,5,4,0:0:0:0:
238,160,7220,1,2,0:0:0:0:
431,146,7670,6,0,L|432:276,1,114,10|0,0:1|0:0,0:0:0:0:
362,259,8120,1,2,0:0:0:0:
247,257,8420,1,0,0:0:0:0:
176,256,8570,6,0,L|172:118,1,114,10|0,1:2|0:0,0:0:0:0:
244,132,9020,2,0,L|373:128,1,114,10|0,1:2|0:0,0:0:0:0:
429,120,9470,5,4,1:2:0:0:
429,120,9620,1,8,0:1:0:0:
287,207,9920,1,0,1:0:0:0:
287,207,10070,1,8,0:1:0:0:
434,310,10370,6,0,L|437:109,1,171,4|2,0:0|0:0,0:0:0:0:
322,130,11120,1,0,0:0:0:0:
251,132,11270,6,0,L|116:128,1,114,10|2,1:2|0:0,0:0:0:0:
209,100,11720,1,2,0:0:0:0:
326,95,12020,5,0,0:0:0:0:
396,93,12170,2,0,L|401:241,1,114,2|10,1:2|1:2,0:0:0:0:
283,205,12770,1,2,1:2:0:0:
168,209,13070,5,10,1:2:0:0:
308,282,13370,1,8,1:2:0:0:
308,282,13520,1,4,0:0:0:0:
109,329,13970,6,0,P|122:261|225:214,1,171,8|0,1:2|0:0,0:0:0:0:
321,198,14720,1,0,0:0:0:0:
248,204,14870,6,0,L|246:83,1,114,10|2,1:2|0:0,0:0:0:0:
319,83,15320,1,2,0:0:0:0:
433,78,15620,1,8,1:2:0:0:
361,81,15770,6,8,P|282:121|376:160,1,228,14|8,1:2|1:2,0:0:0:0:
230,258,16670,2,0,L|376:253,2,114,12|12|12,1:2|1:2|1:2,0:0:0:0:
91,338,17570,6,0,L|87:198,1,114,4|8,1:0|0:0,0:0:0:0:
206,212,18170,1,8,0:0:0:0:
321,205,18470,2,0,L|329:68,1,114,10|8,0:0|0:0,0:0:0:0:
215,90,19070,1,0,0:0:0:0:
74,121,19370,6,0,L|201:117,1,114,10|8,0:0|0:0,0:0:0:0:
190,115,19970,1,8,0:0:0:0:
310,248,20270,2,0,L|438:241,1,114,10|8,0:0|0:0,0:0:0:0:
426,238,20870,1,0,0:0:0:0:
288,291,21170,6,0,L|286:176,1,114,10|8,0:0|0:0,0:0:0:0:
400,172,21770,1,8,0:0:0:0:
287,159,22070,2,0,L|285:35,1,114,10|8,0:0|0:0,0:0:0:0:
396,42,22670,1,0,0:0:0:0:
260,129,22970,6,0,L|127:120,1,114,10|8,0:0|0:0,0:0:0:0:
261,98,23570,1,8,0:0:0:0:
404,254,23870,2,0,L|267:247,2,114,14|14|14,0:0|0:0|0:0,0:0:0:0:
258,343,24770,6,0,L|256:227,1,114,14|8,0:0|0:0,0:0:0:0:
368,229,25370,1,8,0:0:0:0:
252,184,25670,2,0,L|123:177,1,114,10|8,0:0|0:0,0:0:0:0:
249,136,26270,1,8,0:0:0:0:
394,256,26570,6,0,L|399:123,1,114,10|0,0:0|0:0,0:0:0:0:
279,141,27170,1,8,0:0:0:0:
166,156,27470,2,8,L|42:165,2,114,10|8|8,0:0|0:0|0:0,0:0:0:0:
313,267,28370,6,8,P|392:217|320:137,1,228,14|8,1:2|0:0,0:0:0:0:
171,146,29270,1,14,1:2:0:0:
284,132,29570,1,8,0:0:0:0:
396,117,29870,1,8,0:0:0:0:
246,54,30170,6,0,P|165:108|260:148,1,228,14|10,1:2|0:0,0:0:0:0:
393,150,31070,1,14,1:2:0:0:
247,155,31370,1,10,1:2:0:0:
134,167,31670,2,8,L|204:164,1,57,8|8,1:2|0:0,0:0:0:0:
267,155,31970,6,0,P|329:200|265:317,1,228,6|0,0:0|0:0,0:0:0:0:
157,318,32870,2,0,P|155:242|291:173,1,228,2|0,0:0|0:0,0:0:0:0:
388,176,33770,6,0,P|386:268|236:333,1,228,2|0,0:0|0:0,0:0:0:0:
140,319,34670,1,2,0:0:0:0:
322,262,35270,2,0,L|246:260,1,57,0|0,0:0|0:0,0:0:0:0:
191,256,35570,6,0,P|128:201|205:92,1,228,2|0,0:0|0:0,0:0:0:0:
305,92,36470,2,0,P|308:200|200:240,1,228,2|0,0:0|0:0,0:0:0:0:
95,228,37370,6,0,P|109:137|244:100,1,228,2|0,0:0|0:0,0:0:0:0:
341,104,38270,2,0,L|207:90,1,114,2|0,0:0|0:0,0:0:0:0:
342,234,38870,2,0,L|415:225,1,57,0|0,0:0|0:0,0:0:0:0:
322,200,39170,6,0,P|256:250|351:348,1,228,14|2,1:2|0:0,0:0:0:0:
438,327,40070,2,0,P|439:248|311:169,1,228,10|0,0:1|0:0,0:0:0:0:
206,184,40970,6,0,L|410:162,2,171,10|0|10,0:0|0:0|0:1,0:0:0:0:
92,249,42170,2,0,L|89:119,1,114,2|0,0:0|0:0,0:0:0:0:
230,59,42770,6,0,P|348:147|227:245,1,342,14|10,0:0|0:1,0:0:0:0:
461,303,44570,2,0,P|454:201|251:100,1,342,10|10,0:0|0:0,0:0:0:0:
375,76,45770,1,10,0:0:0:0:
261,96,46070,1,8,0:0:0:0:
204,100,46220,1,8,0:0:0:0:
131,263,46370,6,0,L|129:142,1,114,4|10,1:1|0:2,0:0:0:0:
243,147,46970,1,8,1:2:0:0:
122,104,47270,2,0,L|250:95,1,114,14|8,1:2|0:0,0:0:0:0:
353,88,47870,1,10,1:2:0:0:
213,95,48170,6,0,L|207:231,1,114,12|10,1:2|1:2,0:0:0:0:
323,217,48770,2,0,L|332:340,1,114,8|10,1:2|1:2,0:0:0:0:
186,325,49370,1,8,0:0:0:0:
303,209,49670,1,8,1:2:0:0:
303,209,49820,1,8,1:2:0:0:
303,209,50120,1,8,0:0:0:0:
375,207,50270,6,0,L|384:60,1,114,10|8,1:2|1:2,0:0:0:0:
314,84,50720,1,8,0:0:0:0:
245,82,50870,2,0,L|389:79,1,114,14|14,1:2|1:2,0:0:0:0:
362,82,51470,1,14,1:2:0:0:
222,242,51770,6,0,L|92:237,1,114,14|10,1:2|1:2,0:0:0:0:
223,202,52370,1,8,1:2:0:0:
223,202,52670,2,0,L|351:195,1,114,10|8,1:2|1:2,0:0:0:0:
223,202,53270,1,10,1:2:0:0:
281,196,53420,1,8,0:0:0:0:
357,180,53570,6,0,L|361:306,1,114,14|10,1:2|1:2,0:0:0:0:
244,307,54170,1,8,1:2:0:0:
128,304,54470,2,0,L|243:297,1,114,10|8,1:2|1:2,0:0:0:0:
356,283,55070,1,8,1:2:0:0:
210,224,55370,6,0,L|210:98,1,114,14|10,1:2|1:2,0:0:0:0:
325,95,55970,1,8,1:2:0:0:
207,149,56270,2,0,L|329:141,1,114,10|8,1:2|1:2,0:0:0:0:
205,128,56870,1,10,1:2:0:0:
350,256,57170,6,0,L|485:245,2,114,14|10|8,1:2|1:2|1:2,0:0:0:0:
210,217,58070,6,0,L|91:217,2,114,14|8|10,1:2|1:2|1:2,0:0:0:0:
350,155,58970,6,0,L|228:152,2,114,14|8|10,1:2|1:2|1:2,0:0:0:0:
208,257,59870,5,8,1:2:0:0:
157,233,60020,1,0,0:0:0:0:
135,182,60170,1,10,1:2:0:0:
155,130,60320,1,0,0:0:0:0:
205,105,60470,1,8,1:2:0:0:
356,105,60770,5,14,1:1:0:0:
256,192,67970,12,0,69770,0:0:0:0:
256,192,70220,5,0,0:0:0:0:
432,191,70670,2,0,L|435:53,1,114,2|0,0:0|0:0,0:0:0:0:
365,70,71120,1,0,0:0:0:0:
248,65,71420,1,0,0:0:0:0:
178,66,71570,6,0,L|175:197,1,114,8|0,0:0|0:0,0:0:0:0:
244,181,72020,2,0,L|388:179,1,114,0|0,0:0|0:0,0:0:0:0:
426,176,72470,1,10,0:1:0:0:
426,176,72920,1,0,0:0:0:0:
229,243,73370,5,8,0:0:0:0:
400,235,73820,1,0,0:0:0:0:
202,272,74270,2,0,L|65:268,1,114,10|0,0:1|0:0,0:0:0:0:
19,261,74720,1,0,0:0:0:0:
136,138,75020,1,8,0:0:0:0:
207,124,75170,6,8,L|212:245,1,114,14|10,1:2|1:2,0:0:0:0:
350,220,75770,1,8,1:2:0:0:
216,237,76070,6,0,L|136:236,2,57,14|0|14,1:2|0:0|1:2,0:0:0:0:
350,220,76670,2,8,L|427:217,1,57,14|8,1:2|0:0,0:0:0:0:
329,275,76970,6,0,P|315:200|404:143,1,171,14|0,1:2|0:0,0:0:0:0:
267,130,77720,1,0,0:0:0:0:
197,133,77870,2,0,L|60:130,2,114,10|8|10,1:2|1:2|1:2,0:0:0:0:
337,298,78770,6,0,L|338:167,1,114,12|10,1:2|1:2,0:0:0:0:
221,177,79370,1,8,1:2:0:0:
360,171,79670,2,0,L|123:150,1,228,10|10,1:2|1:2,0:0:0:0:
276,63,80570,6,0,P|353:139|255:213,1,228,14|8,1:2|1:2,0:0:0:0:
168,254,81470,2,0,L|305:248,1,114,10|8,1:2|1:2,0:0:0:0:
145,199,82070,1,10,1:2:0:0:
283,187,82370,6,0,L|290:59,1,114,10|10,1:2|1:2,0:0:0:0:
219,65,82820,2,0,L|84:61,1,114,8|8,0:0|0:0,0:0:0:0:
177,136,83270,6,0,L|47:132,2,114,14|14|14,1:2|1:2|1:2,0:0:0:0:
328,312,84170,6,0,L|335:131,1,171,14|8,1:2|0:0,0:0:0:0:
265,136,84770,1,8,1:2:0:0:
403,98,85070,2,0,L|268:90,1,114,10|8,1:2|1:2,0:0:0:0:
408,62,85670,1,10,1:2:0:0:
258,259,85970,6,0,L|256:71,1,171,14|8,1:2|0:0,0:0:0:0:
325,85,86570,1,8,1:2:0:0:
178,189,86870,1,14,1:1:0:0:
73,186,87095,1,10,1:1:0:0:
73,186,87320,1,14,1:1:0:0:
178,189,87545,1,8,0:0:0:0:
286,188,87770,6,0,P|321:259|277:340,1,171,14|8,1:2|0:0,0:0:0:0:
215,330,88370,1,8,1:2:0:0:
79,328,88670,2,0,L|76:201,1,114,14|10,1:2|1:2,0:0:0:0:
192,204,89270,1,8,1:2:0:0:
334,200,89570,6,0,L|204:191,1,114,14|10,1:2|1:2,0:0:0:0:
337,166,90170,2,8,L|253:157,1,57,8|8,1:2|0:0,0:0:0:0:
210,154,90470,2,0,L|346:147,1,114,14|14,1:2|1:2,0:0:0:0:
438,135,91070,1,10,1:2:0:0:
298,122,91370,6,0,L|293:250,1,114,14|10,1:2|1:2,0:0:0:0:
432,239,91970,1,8,1:2:0:0:
292,274,92270,1,14,1:2:0:0:
282,218,92420,1,8,0:0:0:0:
303,166,92570,1,10,1:2:0:0:
349,133,92720,1,8,0:0:0:0:
405,129,92870,1,8,1:2:0:0:
259,89,93170,6,0,P|180:137|273:193,1,228,14|10,1:1|1:2,0:0:0:0:
401,305,94070,2,0,L|281:307,1,114,10|8,1:1|0:0,0:0:0:0:
173,303,94670,1,10,1:2:0:0:
311,304,94970,6,0,P|313:208|182:172,1,228,10|10,1:0|1:2,0:0:0:0:
72,167,95870,2,8,L|207:160,1,114,10|10,1:0|1:1,0:0:0:0:
302,155,96470,1,10,1:0:0:0:
164,299,96770,6,0,L|159:55,1,228,14|10,1:0|1:2,0:0:0:0:
301,73,97670,2,0,L|184:65,1,114,10|8,1:0|0:0,0:0:0:0:
326,50,98270,1,10,1:2:0:0:
186,69,98570,6,0,P|114:126|210:194,1,228,10|10,1:0|1:1,0:0:0:0:
333,310,99470,2,0,L|214:306,1,114,10|8,1:1|0:0,0:0:0:0:
105,300,100070,1,8,0:0:0:0:
247,221,100370,6,0,P|319:184|235:93,1,228,14|8,1:0|1:2,0:0:0:0:
115,179,101270,2,0,L|261:172,1,114,10|10,1:0|1:2,0:0:0:0:
345,165,101870,1,8,1:2:0:0:
200,309,102170,6,0,P|198:221|333:164,1,228,10|8,1:0|1:2,0:0:0:0:
171,219,103070,2,0,L|169:93,1,114,10|10,1:0|1:0,0:0:0:0:
288,100,103670,1,10,1:0:0:0:
137,98,103970,5,14,1:2:0:0:
137,98,104420,2,0,L|136:220,1,114,0|8,0:0|0:0,0:0:0:0:
212,212,104870,2,8,L|345:206,2,114,14|8|8,1:2|0:0|0:0,0:0:0:0:
360,319,105770,5,14,1:2:0:0:
360,319,106370,2,0,L|286:312,1,57,8|8,1:2|1:2,0:0:0:0:
226,308,106670,5,14,1:2:0:0:
376,284,106970,1,14,1:2:0:0:
226,308,107270,1,14,1:2:0:0:
382,278,107570,6,0,P|445:183|369:109,1,228,14|8,1:1|1:2,0:0:0:0:
254,101,108470,2,0,L|372:98,2,114,14|8|10,1:2|1:2|1:2,0:0:0:0:
115,223,109370,6,0,L|111:83,1,114,14|10,1:2|0:2,0:0:0:0:
236,97,109970,1,8,1:2:0:0:
377,208,110270,2,0,L|121:194,1,228,14|8,1:2|1:2,0:0:0:0:
292,328,111170,6,0,P|292:238|167:188,1,228,14|8,1:2|1:2,0:0:0:0:
306,134,112070,2,0,L|448:130,2,114,14|10|14,1:2|1:2|1:2,0:0:0:0:
163,284,112970,6,0,L|283:282,1,114,14|10,1:2|1:2,0:0:0:0:
148,256,113570,2,8,L|214:253,1,57,8|8,1:2|1:2,0:0:0:0:
281,249,113870,2,0,P|356:179|274:120,1,228,14|8,1:2|1:2,0:0:0:0:
126,123,114770,6,0,P|49:192|152:241,1,228,14|8,1:1|1:2,0:0:0:0:
251,308,115670,2,0,L|107:303,2,114,14|8|10,1:2|1:2|1:2,0:0:0:0:
390,291,116570,6,0,L|397:157,1,114,14|10,1:2|0:2,0:0:0:0:
269,169,117170,1,8,1:2:0:0:
126,163,117470,2,0,L|370:148,1,228,14|8,1:2|1:2,0:0:0:0:
207,276,118370,6,0,L|204:142,1,114,14|10,1:2|1:2,0:0:0:0:
342,155,118970,1,8,1:2:0:0:
191,134,119270,2,0,L|312:127,1,114,14|10,1:2|1:2,0:0:0:0:
439,113,119870,1,14,1:2:0:0:
295,112,120170,6,0,L|295:243,1,114,14|10,1:2|1:2,0:0:0:0:
157,219,120770,1,8,1:2:0:0:
307,331,121070,1,14,1:2:0:0:
359,313,121220,1,0,0:0:0:0:
385,264,121370,1,10,1:2:0:0:
368,211,121520,1,0,0:0:0:0:
319,185,121670,1,8,1:2:0:0:
172,186,121970,6,0,P|168:279|310:327,1,228,14|2,1:2|0:0,0:0:0:0:
424,216,122870,2,0,P|419:127|296:73,1,228,14|2,1:2|0:0,0:0:0:0:
158,115,123770,6,0,L|90:116,2,57,14|8|10,1:2|0:0|1:2,0:0:0:0:
297,213,124370,2,0,L|369:210,1,57,8|8,1:2|1:2,0:0:0:0:
276,263,124670,6,0,L|137:259,2,114,14|14|14,1:2|1:2|1:2,0:0:0:0:
346,261,125420,1,8,1:2:0:0:
419,266,125570,5,14,1:2:0:0:
