osu file format v14

[General]
AudioFilename: audio.mp3
AudioLeadIn: 0
PreviewTime: 3148
Countdown: 0
SampleSet: Normal
StackLeniency: 0.7
Mode: 1
LetterboxInBreaks: 0
WidescreenStoryboard: 1

[Editor]
DistanceSpacing: 0.8
BeatDivisor: 2
GridSize: 32
TimelineZoom: 2.2

[Metadata]
Title:Excalibur ~Revived resolution~
TitleUnicode:Excalibur ~Revived resolution~
Artist:Project Grimoire
ArtistUnicode:Project Grimoire
Creator:L y s
Version:Kantan
Source:maimai MiLK
Tags:
BeatmapID:1584624
BeatmapSetID:747847

[Difficulty]
HPDrainRate:7
CircleSize:4
OverallDifficulty:4
ApproachRate:4
SliderMultiplier:1.4
SliderTickRate:1

[Events]
//Background and Video events
0,0,"bg.png",0,0
//Break Periods
//Storyboard Layer 0 (Background)
//Storyboard Layer 1 (Fail)
//Storyboard Layer 2 (Pass)
//Storyboard Layer 3 (Foreground)
//Storyboard Sound Samples

[TimingPoints]
3148,300,3,1,0,75,1,0
3148,-133.333333333333,3,1,0,75,0,0
10348,-100,3,1,0,90,0,0
17548,-100,3,1,0,100,0,0
32548,-133.333333333333,3,1,0,75,0,0
46348,-100,3,1,0,100,0,1
60748,-100,3,1,0,75,0,0
62548,-111.111111111111,3,1,0,75,0,0
64348,-125,3,1,0,63,0,0
66148,-142.857142857143,3,1,0,50,0,0
67848,-166.666666666667,3,1,0,20,0,0
68848,-200,3,1,0,10,0,0
69748,-200,3,1,0,25,0,0
70648,-200,3,1,0,38,0,0
71398,-166.666666666667,3,1,0,50,0,0
72448,-166.666666666667,3,1,0,63,0,0
73348,-142.857142857143,3,1,0,75,0,0
74998,-125,3,1,0,100,0,0
76048,-111.111111111111,3,1,0,100,0,0
76948,-100,3,1,0,100,0,1
93148,-100,3,1,0,100,0,0
93748,-133.333333333333,3,1,0,100,0,0
106648,-100,3,1,0,100,0,0
107548,-100,3,1,0,100,0,1
121948,-100,3,1,0,100,0,0
123748,-100,3,1,0,100,0,1
125548,-100,3,1,0,100,0,0

[HitObjects]
256,192,3148,5,4,0:0:0:0:
256,192,4948,1,8,0:0:0:0:
256,192,6748,1,4,0:0:0:0:
256,192,8548,1,8,0:0:0:0:
256,192,10348,1,4,0:0:0:0:
256,192,11248,1,8,0:0:0:0:
256,192,12148,1,0,0:0:0:0:
256,192,13048,1,8,0:0:0:0:
256,192,13948,1,4,0:0:0:0:
256,192,14848,1,8,0:0:0:0:
256,192,15748,1,0,0:0:0:0:
256,192,16648,1,12,0:0:0:0:
256,192,16948,1,12,0:0:0:0:
256,192,17248,1,12,0:0:0:0:
256,192,17548,8,4,18898,0:0:0:0:
256,192,19348,5,0,0:0:0:0:
256,192,19648,1,0,0:1:0:0:
256,192,20248,1,0,0:0:0:0:
256,192,20548,1,0,0:1:0:0:
256,192,21148,1,8,0:0:0:0:
256,192,21448,1,8,0:0:0:0:
256,192,22048,1,8,0:0:0:0:
256,192,22348,1,8,0:0:0:0:
256,192,22948,1,8,0:0:0:0:
256,192,23248,1,8,0:0:0:0:
256,192,23848,1,8,0:0:0:0:
256,192,24748,1,0,0:0:0:0:
256,192,25048,1,0,0:0:0:0:
256,192,25648,1,0,0:0:0:0:
256,192,25948,1,0,0:0:0:0:
256,192,26548,1,0,0:0:0:0:
256,192,26848,1,0,0:0:0:0:
256,192,27448,1,0,0:0:0:0:
256,192,28348,1,8,0:0:0:0:
256,192,28648,1,8,0:0:0:0:
256,192,29248,1,8,0:0:0:0:
256,192,29548,1,8,0:0:0:0:
256,192,30148,1,8,0:0:0:0:
256,192,30448,1,8,0:0:0:0:
256,192,31048,1,8,0:0:0:0:
256,192,31948,1,0,0:0:0:0:
256,192,32848,1,8,0:0:0:0:
256,192,33748,1,8,0:0:0:0:
256,192,34648,1,8,0:0:0:0:
256,192,35548,1,0,0:0:0:0:
256,192,36448,1,0,0:0:0:0:
256,192,37348,1,0,0:0:0:0:
256,192,39148,1,4,0:0:0:0:
256,192,40048,1,8,0:0:0:0:
256,192,40948,1,8,0:0:0:0:
256,192,41848,1,8,0:0:0:0:
256,192,42748,1,0,0:0:0:0:
256,192,43648,1,0,0:0:0:0:
256,192,44548,1,0,0:0:0:0:
256,192,45448,8,0,46048,0:0:0:0:
256,192,46348,5,4,0:0:0:0:
256,192,46948,1,8,0:0:0:0:
256,192,47248,1,12,0:0:0:0:
256,192,47848,1,8,0:0:0:0:
256,192,48148,1,0,0:0:0:0:
256,192,48448,1,0,0:0:0:0:
256,192,49048,1,4,0:0:0:0:
256,192,49648,1,8,0:0:0:0:
256,192,49948,1,0,0:0:0:0:
256,192,50248,1,0,0:0:0:0:
256,192,50848,1,0,0:0:0:0:
256,192,51148,1,0,0:0:0:0:
256,192,51448,1,0,0:0:0:0:
256,192,51748,1,0,0:0:0:0:
256,192,52648,1,0,0:0:0:0:
256,192,53548,1,8,0:0:0:0:
256,192,54148,1,8,0:0:0:0:
256,192,54448,1,8,0:0:0:0:
256,192,55048,1,8,0:0:0:0:
256,192,55348,1,8,0:0:0:0:
256,192,55648,1,8,0:0:0:0:
256,192,55948,1,8,0:0:0:0:
256,192,56248,1,12,0:0:0:0:
256,192,56548,1,12,0:0:0:0:
256,192,56848,1,12,0:0:0:0:
256,192,57148,2,0,L|96:192,2,140
256,192,58048,2,4,L|96:192,2,140
256,192,58948,8,0,60448,0:0:0:0:
256,192,60748,5,4,0:0:0:0:
256,192,61648,1,8,0:0:0:0:
256,192,62548,1,8,0:0:0:0:
256,192,63448,1,8,0:0:0:0:
256,192,64348,1,8,0:0:0:0:
256,192,65248,1,8,0:0:0:0:
256,192,66148,8,0,67648,0:0:0:0:
256,192,67848,5,8,0:0:0:0:
256,192,69748,1,0,0:0:0:0:
256,192,71548,1,8,0:0:0:0:
256,192,73348,1,4,0:0:0:0:
256,192,74248,1,12,0:0:0:0:
256,192,75148,2,4,L|128:192,5,112
256,192,76948,1,0,0:0:0:0:
256,192,77248,1,0,0:0:0:0:
256,192,77548,1,0,0:0:0:0:
256,192,78748,1,0,0:0:0:0:
256,192,79048,1,0,0:0:0:0:
256,192,79348,1,0,0:0:0:0:
256,192,80548,1,0,0:0:0:0:
256,192,80848,1,0,0:0:0:0:
256,192,81148,1,0,0:0:0:0:
256,192,82348,1,0,0:0:0:0:
256,192,82648,1,0,0:0:0:0:
256,192,82948,1,0,0:0:0:0:
256,192,84148,1,8,0:0:0:0:
256,192,84448,1,8,0:0:0:0:
256,192,84748,1,8,0:0:0:0:
256,192,85948,1,8,0:0:0:0:
256,192,86248,1,8,0:0:0:0:
256,192,86548,1,8,0:0:0:0:
256,192,87748,1,8,0:0:0:0:
256,192,88048,1,8,0:0:0:0:
256,192,88348,1,8,0:0:0:0:
256,192,89548,1,8,0:0:0:0:
256,192,89848,1,8,0:0:0:0:
256,192,90148,1,8,0:0:0:0:
256,192,91348,1,8,0:0:0:0:
256,192,91648,1,8,0:0:0:0:
256,192,91948,1,8,0:0:0:0:
256,192,93148,1,4,0:0:0:0:
256,192,94948,1,0,0:0:0:0:
256,192,96748,1,0,0:0:0:0:
256,192,98548,1,0,0:0:0:0:
256,192,100348,1,12,0:0:0:0:
256,192,102148,1,8,0:0:0:0:
256,192,103948,1,8,0:0:0:0:
256,192,105748,1,8,0:0:0:0:
256,192,106648,8,0,107248,0:0:0:0:
256,192,107548,5,0,0:0:0:0:
256,192,107848,1,0,0:0:0:0:
256,192,108448,1,0,0:0:0:0:
256,192,108748,1,0,0:0:0:0:
256,192,109348,1,0,0:0:0:0:
256,192,109648,1,0,0:0:0:0:
256,192,110248,1,0,0:0:0:0:
256,192,110548,1,0,0:0:0:0:
256,192,111148,1,8,0:0:0:0:
256,192,111448,1,8,0:0:0:0:
256,192,112048,1,8,0:0:0:0:
256,192,112348,1,8,0:0:0:0:
256,192,112948,1,8,0:0:0:0:
256,192,113248,1,8,0:0:0:0:
256,192,113848,1,8,0:0:0:0:
256,192,114148,1,8,0:0:0:0:
256,192,114748,1,0,0:0:0:0:
256,192,115048,1,0,0:0:0:0:
256,192,115648,1,0,0:0:0:0:
256,192,115948,1,0,0:0:0:0:
256,192,116548,1,8,0:0:0:0:
256,192,116848,1,8,0:0:0:0:
256,192,117448,1,8,0:0:0:0:
256,192,117748,1,8,0:0:0:0:
256,192,118348,1,4,0:0:0:0:
256,192,119248,1,12,0:0:0:0:
256,192,120148,8,0,121648,0:0:0:0:
256,192,121948,5,4,0:0:0:0:
256,192,122848,1,12,0:0:0:0:
256,192,123748,1,0,0:0:0:0:
256,192,124048,1,0,0:0:0:0:
256,192,124348,1,0,0:0:0:0:
256,192,124648,1,4,0:0:0:0:
256,192,124948,1,4,0:0:0:0:
256,192,125548,1,4,0:0:0:0:
