osu file format v14

[General]
AudioFilename: audio.mp3
AudioLeadIn: 0
PreviewTime: 60845
Countdown: 0
SampleSet: None
StackLeniency: 0.7
Mode: 0
LetterboxInBreaks: 0
WidescreenStoryboard: 0

[Editor]
DistanceSpacing: 1.2
BeatDivisor: 4
GridSize: 32
TimelineZoom: 1.899999

[Metadata]
Title:Excalibur ~Revived resolution~
TitleUnicode:Excalibur ~Revived resolution~
Artist:Project Grimoire
ArtistUnicode:Project Grimoire
Creator:SMOKELIND
Version:~Story of the Legendary Sword~
Source:maimai MiLK
Tags:Team Yooh Arcade Instrumental Video Game
BeatmapID:2099172
BeatmapSetID:1002960

[Difficulty]
HPDrainRate:5.7
CircleSize:4.7
OverallDifficulty:8.7
ApproachRate:9.7
SliderMultiplier:2.07
SliderTickRate:1

[Events]
//Background and Video events
0,0,"Sweet.jpg",0,0
//Break Periods
2,32270,38270
2,66470,67370
2,68270,69170
//Storyboard Layer 0 (Background)
//Storyboard Layer 1 (Fail)
//Storyboard Layer 2 (Pass)
//Storyboard Layer 3 (Foreground)
//Storyboard Layer 4 (Overlay)
//Storyboard Sound Samples

[TimingPoints]
3170,300,3,3,1,80,1,0
3170,-114.942528735632,3,3,1,80,0,0
3395,-114.942528735632,3,3,1,5,0,0
3470,-114.942528735632,3,2,3,80,0,0
4070,-114.942528735632,3,1,2,80,0,0
4295,-114.942528735632,3,3,1,5,0,0
4370,-114.942528735632,3,2,3,80,0,0
4970,-114.942528735632,3,3,1,80,0,0
5120,-114.942528735632,3,2,3,80,0,0
5420,-114.942528735632,3,3,1,80,0,0
5570,-114.942528735632,3,2,3,80,0,0
5870,-114.942528735632,3,1,2,80,0,0
6095,-114.942528735632,3,3,1,5,0,0
6170,-114.942528735632,3,2,3,80,0,0
6770,-114.942528735632,3,3,1,80,0,0
6995,-114.942528735632,3,3,1,5,0,0
7070,-114.942528735632,3,2,3,80,0,0
7670,-114.942528735632,3,1,2,80,0,0
7895,-114.942528735632,3,3,1,5,0,0
7970,-114.942528735632,3,2,3,80,0,0
8570,-114.942528735632,3,3,1,80,0,0
8720,-114.942528735632,3,2,3,80,0,0
9020,-114.942528735632,3,3,1,80,0,0
9170,-114.942528735632,3,2,3,80,0,0
9470,-114.942528735632,3,3,1,80,0,0
9620,-114.942528735632,3,1,2,80,0,0
9770,-114.942528735632,3,2,3,80,0,0
9920,-114.942528735632,3,3,1,80,0,0
10070,-114.942528735632,3,1,2,80,0,0
10220,-114.942528735632,3,2,3,80,0,0
10370,-93.4579439252336,3,3,1,80,0,0
10594,-93.4579439252336,3,3,1,5,0,0
10670,-93.4579439252336,3,2,1,80,0,0
11270,-93.4579439252336,3,1,2,80,0,0
11345,-93.4579439252336,3,2,1,80,0,0
12170,-93.4579439252336,3,3,1,80,0,0
12320,-93.4579439252336,3,2,1,80,0,0
12620,-93.4579439252336,3,3,1,80,0,0
12770,-93.4579439252336,3,2,1,80,0,0
13070,-93.4579439252336,3,1,2,80,0,0
13294,-93.4579439252336,3,3,1,5,0,0
13370,-93.4579439252336,3,2,1,80,0,0
13970,-93.4579439252336,3,3,1,80,0,0
14119,-93.4579439252336,3,2,1,80,0,0
14870,-93.4579439252336,3,1,2,80,0,0
14945,-93.4579439252336,3,2,1,80,0,0
15770,-93.4579439252336,3,3,1,80,0,0
15844,-93.4579439252336,3,2,1,80,0,0
16670,-93.4579439252336,3,3,1,80,0,0
16820,-93.4579439252336,3,2,1,80,0,0
16838,-93.4579439252336,3,2,1,50,0,0
16970,-93.4579439252336,3,1,2,80,0,0
17120,-93.4579439252336,3,2,1,80,0,0
17138,-93.4579439252336,3,2,1,50,0,0
17270,-93.4579439252336,3,1,2,80,0,0
17420,-93.4579439252336,3,2,1,80,0,0
17570,-78.7401574803149,3,1,4,80,0,0
18470,-93.4579439252336,3,1,4,80,0,0
23870,-93.4579439252336,3,3,3,80,0,0
23944,-93.4579439252336,3,1,4,80,0,0
24170,-93.4579439252336,3,3,3,80,0,0
24244,-93.4579439252336,3,1,4,80,0,0
24470,-93.4579439252336,3,3,3,80,0,0
24544,-93.4579439252336,3,1,4,80,0,0
24620,-93.4579439252336,3,3,3,80,0,0
24770,-93.4579439252336,3,1,4,80,0,0
29270,-93.4579439252336,3,3,3,80,0,0
29419,-93.4579439252336,3,1,4,80,0,0
29570,-93.4579439252336,3,3,3,80,0,0
29720,-93.4579439252336,3,1,4,80,0,0
29870,-93.4579439252336,3,3,3,80,0,0
30020,-93.4579439252336,3,1,4,80,0,0
31070,-56.4971751412429,3,3,3,80,0,0
31295,-56.4971751412429,3,3,1,5,0,0
31370,-56.4971751412429,3,3,3,80,0,0
31595,-56.4971751412429,3,3,1,5,0,0
31670,-68.0272108843537,3,1,4,80,0,0
31970,-68.0272108843537,3,3,5,80,0,0
39170,-212.765957446809,3,3,1,60,0,0
39769,-212.765957446809,3,2,3,60,0,0
40070,-212.765957446809,3,1,2,60,0,0
40369,-212.765957446809,3,2,3,60,0,0
40970,-212.765957446809,3,3,1,60,0,0
41269,-212.765957446809,3,2,3,60,0,0
41420,-212.765957446809,3,3,1,60,0,0
41570,-212.765957446809,3,2,3,60,0,0
41794,-212.765957446809,3,3,1,5,0,0
41870,-212.765957446809,3,1,2,60,0,0
42094,-212.765957446809,3,3,1,5,0,0
42170,-212.765957446809,3,2,3,60,0,0
42394,-212.765957446809,3,3,1,5,0,0
42470,-212.765957446809,3,2,3,60,0,0
42694,-212.765957446809,3,3,1,5,0,0
42770,-212.765957446809,3,3,1,60,0,0
43670,-212.765957446809,3,1,2,60,0,0
44570,-212.765957446809,3,3,1,60,0,0
45170,-212.765957446809,3,2,3,60,0,0
45470,-93.4579439252336,3,3,1,60,0,0
45620,-93.4579439252336,3,2,1,60,0,0
45657,-93.4579439252336,3,2,1,63,0,0
45694,-93.4579439252336,3,2,1,66,0,0
45732,-93.4579439252336,3,2,1,69,0,0
45770,-93.4579439252336,3,2,1,72,0,0
45844,-93.4579439252336,3,2,1,75,0,0
45920,-93.4579439252336,3,3,1,78,0,0
46070,-93.4579439252336,3,2,1,80,0,0
46370,-78.7401574803149,3,1,5,80,0,0
49294,-78.7401574803149,3,3,1,5,0,0
49370,-78.7401574803149,3,1,5,80,0,0
51094,-78.7401574803149,3,3,1,5,0,0
51170,-78.7401574803149,3,1,5,80,0,0
51394,-78.7401574803149,3,3,1,5,0,0
51470,-78.7401574803149,3,1,5,80,0,0
51694,-78.7401574803149,3,3,1,5,0,0
51770,-78.7401574803149,3,1,5,80,0,0
51994,-78.7401574803149,3,3,1,5,0,0
52070,-78.7401574803149,3,1,5,80,0,0
53794,-78.7401574803149,3,3,1,5,0,0
53870,-78.7401574803149,3,1,5,80,0,0
54170,-68.0272108843537,3,1,5,80,0,0
54394,-68.0272108843537,3,3,1,5,0,0
54470,-68.0272108843537,3,1,5,80,0,0
54694,-68.0272108843537,3,3,1,5,0,0
54770,-78.7401574803149,3,1,5,80,0,0
55894,-78.7401574803149,3,3,1,5,0,0
55970,-72.992700729927,3,1,5,80,0,0
56195,-72.992700729927,3,3,1,5,0,0
56270,-68.0272108843537,3,1,5,80,0,0
56570,-72.992700729927,3,1,5,80,0,0
56795,-72.992700729927,3,3,1,5,0,0
56870,-63.6942675159236,3,1,5,80,0,0
57170,-59.8802395209581,3,1,5,80,0,0
58070,-56.4971751412429,3,1,5,80,0,0
60020,-56.4971751412429,3,2,1,80,0,0
60038,-56.4971751412429,3,2,1,50,0,0
60170,-56.4971751412429,3,1,2,80,0,0
60320,-56.4971751412429,3,2,1,80,0,0
60338,-56.4971751412429,3,2,1,50,0,0
60470,-93.4579439252336,3,1,2,80,0,0
60695,-93.4579439252336,3,3,1,5,0,0
60770,-93.4579439252336,3,2,3,50,0,0
64370,-175.438596491228,3,2,3,50,0,0
64894,-175.438596491228,3,3,1,5,0,0
64970,-175.438596491228,3,2,3,50,0,0
73370,-175.438596491228,3,3,1,60,0,0
73670,-175.438596491228,3,2,1,60,0,0
74270,-175.438596491228,3,1,2,60,0,0
74570,-175.438596491228,3,2,1,60,0,0
75020,-175.438596491228,3,2,1,80,0,0
75170,-175.438596491228,3,3,5,80,0,0
75245,-175.438596491228,3,2,1,80,0,0
76070,-175.438596491228,3,3,1,80,0,0
76220,-93.4579439252336,3,2,1,80,0,0
76238,-93.4579439252336,3,2,1,50,0,0
76370,-93.4579439252336,3,1,2,80,0,0
76520,-93.4579439252336,3,2,1,80,0,0
76538,-93.4579439252336,3,2,1,50,0,0
76670,-175.438596491228,3,1,2,80,0,0
76894,-175.438596491228,3,3,1,5,0,0
76970,-68.0272108843537,3,1,5,80,0,0
77195,-68.0272108843537,3,3,1,5,0,0
77270,-68.0272108843537,3,1,5,80,0,0
80570,-56.4971751412429,3,1,5,80,0,0
80795,-56.4971751412429,3,3,1,5,0,0
80870,-68.0272108843537,3,1,5,80,0,0
82594,-68.0272108843537,3,3,1,5,0,0
82670,-68.0272108843537,3,1,5,80,0,0
83270,-56.4971751412429,3,3,3,80,0,0
83495,-56.4971751412429,3,3,1,5,0,0
83570,-50.761421319797,3,3,3,80,0,0
83795,-50.761421319797,3,3,1,5,0,0
83870,-44.0528634361233,3,1,5,80,0,0
84170,-56.4971751412429,3,1,5,80,0,0
84620,-63.6942675159236,3,1,5,80,0,0
86870,-56.4971751412429,3,3,3,80,0,0
87020,-56.4971751412429,3,3,1,5,0,0
87095,-50.761421319797,3,3,3,80,0,0
87245,-50.761421319797,3,3,1,5,0,0
87320,-44.0528634361233,3,3,3,80,0,0
87469,-44.0528634361233,3,3,1,5,0,0
87545,-63.6942675159236,3,1,5,80,0,0
87770,-56.4971751412429,3,1,5,80,0,0
91970,-78.7401574803149,3,1,5,80,0,0
92270,-56.4971751412429,3,1,5,80,0,0
93170,-56.4971751412429,3,1,4,80,0,0
93320,-56.4971751412429,3,3,1,5,0,0
93395,-56.4971751412429,3,2,1,80,0,0
93770,-93.4579439252336,3,3,3,80,0,0
93919,-93.4579439252336,3,2,1,80,0,0
94070,-93.4579439252336,3,1,4,80,0,0
94219,-93.4579439252336,3,2,1,80,0,0
94370,-93.4579439252336,3,1,4,50,0,0
94445,-93.4579439252336,3,2,1,80,0,0
94670,-93.4579439252336,3,3,3,80,0,0
94819,-93.4579439252336,3,2,1,80,0,0
94970,-93.4579439252336,3,1,4,80,0,0
95119,-93.4579439252336,3,3,1,5,0,0
95195,-93.4579439252336,3,2,1,80,0,0
95570,-93.4579439252336,3,3,3,80,0,0
95720,-93.4579439252336,3,2,1,80,0,0
95870,-93.4579439252336,3,1,4,80,0,0
96019,-93.4579439252336,3,2,1,80,0,0
96170,-93.4579439252336,3,1,4,50,0,0
96245,-93.4579439252336,3,2,1,80,0,0
96470,-93.4579439252336,3,3,3,80,0,0
96545,-93.4579439252336,3,2,1,80,0,0
96770,-93.4579439252336,3,1,4,80,0,0
96919,-93.4579439252336,3,3,1,5,0,0
96995,-93.4579439252336,3,2,1,80,0,0
97370,-93.4579439252336,3,3,3,80,0,0
97519,-93.4579439252336,3,2,1,80,0,0
97670,-93.4579439252336,3,1,4,80,0,0
97819,-93.4579439252336,3,2,1,80,0,0
97970,-93.4579439252336,3,1,4,50,0,0
98045,-93.4579439252336,3,2,1,80,0,0
98270,-93.4579439252336,3,3,3,80,0,0
98419,-93.4579439252336,3,2,1,80,0,0
98570,-93.4579439252336,3,1,4,80,0,0
98719,-93.4579439252336,3,2,1,80,0,0
99170,-93.4579439252336,3,3,3,80,0,0
99244,-93.4579439252336,3,2,1,80,0,0
99320,-93.4579439252336,3,3,3,80,0,0
99395,-93.4579439252336,3,2,1,80,0,0
99470,-93.4579439252336,3,1,4,80,0,0
99545,-93.4579439252336,3,2,1,80,0,0
99770,-93.4579439252336,3,1,4,80,0,0
99919,-93.4579439252336,3,2,1,80,0,0
100070,-93.4579439252336,3,1,4,80,0,0
100219,-93.4579439252336,3,2,1,80,0,0
100370,-93.4579439252336,3,1,4,80,0,0
100519,-93.4579439252336,3,3,1,5,0,0
100595,-93.4579439252336,3,2,1,80,0,0
100970,-93.4579439252336,3,3,3,80,0,0
101119,-93.4579439252336,3,2,1,80,0,0
101270,-93.4579439252336,3,1,4,80,0,0
101419,-93.4579439252336,3,2,1,80,0,0
101570,-93.4579439252336,3,1,4,50,0,0
101645,-93.4579439252336,3,2,1,80,0,0
101870,-93.4579439252336,3,3,3,80,0,0
102019,-93.4579439252336,3,2,1,80,0,0
102170,-93.4579439252336,3,1,4,80,0,0
102319,-93.4579439252336,3,2,1,80,0,0
102770,-93.4579439252336,3,3,3,80,0,0
102920,-93.4579439252336,3,2,1,80,0,0
103070,-93.4579439252336,3,1,4,80,0,0
103270,-93.4579439252336,3,3,1,5,0,0
103370,-93.4579439252336,3,1,4,80,0,0
103570,-93.4579439252336,3,3,1,5,0,0
103670,-93.4579439252336,3,1,4,80,0,0
103870,-93.4579439252336,3,3,1,5,0,0
103970,-93.4579439252336,3,1,4,80,0,0
104420,-93.4579439252336,3,2,1,80,0,0
104870,-93.4579439252336,3,1,4,80,0,0
105170,-93.4579439252336,3,2,1,80,0,0
105620,-93.4579439252336,3,1,4,50,0,0
105770,-93.4579439252336,3,3,1,80,0,0
105845,-93.4579439252336,3,2,1,80,0,0
106220,-93.4579439252336,3,1,4,80,0,0
106370,-93.4579439252336,3,2,1,80,0,0
106670,-56.4971751412429,3,3,3,80,0,0
106895,-56.4971751412429,3,3,1,5,0,0
106970,-50.761421319797,3,3,3,80,0,0
107195,-50.761421319797,3,3,1,5,0,0
107270,-50.761421319797,3,2,1,80,0,0
107570,-68.0272108843537,3,1,5,80,0,0
108395,-68.0272108843537,3,3,1,5,0,0
108470,-68.0272108843537,3,1,5,80,0,0
111995,-68.0272108843537,3,3,1,5,0,0
112070,-68.0272108843537,3,1,5,80,0,0
113945,-68.0272108843537,3,1,5,76,0,0
114020,-68.0272108843537,3,1,5,72,0,0
114095,-68.0272108843537,3,1,5,68,0,0
114170,-68.0272108843537,3,1,5,64,0,0
114245,-68.0272108843537,3,1,5,60,0,0
114320,-68.0272108843537,3,1,5,56,0,0
114395,-68.0272108843537,3,1,5,52,0,0
114470,-68.0272108843537,3,1,5,70,0,0
114620,-68.0272108843537,3,1,4,60,0,0
114770,-68.0272108843537,3,1,5,80,0,0
115595,-68.0272108843537,3,3,1,5,0,0
115670,-68.0272108843537,3,1,5,80,0,0
118370,-68.0272108843537,3,3,3,80,0,0
118520,-68.0272108843537,3,1,4,80,0,0
118670,-68.0272108843537,3,3,3,80,0,0
118820,-68.0272108843537,3,1,4,80,0,0
118970,-68.0272108843537,3,1,5,80,0,0
121220,-50.761421319797,3,2,1,80,0,0
121238,-50.761421319797,3,2,1,50,0,0
121370,-50.761421319797,3,1,2,80,0,0
121520,-50.761421319797,3,2,1,80,0,0
121538,-50.761421319797,3,2,1,50,0,0
121670,-50.761421319797,3,1,2,80,0,0
121970,-50.761421319797,3,3,5,80,0,0
122270,-50.761421319797,3,2,1,80,0,0
122870,-78.7401574803149,3,3,5,80,0,0
122944,-78.7401574803149,3,2,1,80,0,0
123770,-78.7401574803149,3,1,5,80,0,0
123845,-78.7401574803149,3,2,1,80,0,0
124670,-44.0528634361233,3,3,3,80,0,0
124894,-44.0528634361233,3,3,1,5,0,0
124970,-36.101083032491,3,3,3,80,0,0
125195,-36.101083032491,3,3,1,5,0,0
125270,-36.101083032491,3,2,1,80,0,0
125570,-129.87012987013,3,3,5,80,0,0
125870,-129.87012987013,3,2,1,70,0,0
126170,-129.87012987013,3,2,1,60,0,0
126470,-129.87012987013,3,2,1,50,0,0
126770,-129.87012987013,3,2,1,40,0,0
127070,-129.87012987013,3,2,1,30,0,0
127370,-129.87012987013,3,2,1,25,0,0
127670,-129.87012987013,3,2,1,20,0,0
127970,-129.87012987013,3,2,1,15,0,0
128270,-129.87012987013,3,2,1,10,0,0
128570,-129.87012987013,3,2,1,8,0,0
128870,-129.87012987013,3,2,1,6,0,0
129169,-129.87012987013,3,2,1,5,0,0

[Colours]
Combo1 : 255,206,255
Combo2 : 121,121,255
Combo3 : 121,255,255

[HitObjects]
0,67,3170,6,0,L|28:225,1,135.067501133532,8|0,0:0|0:0,0:0:0:0:
37,272,3470,1,0,0:0:0:0:
186,60,3620,2,0,L|169:155,1,90.0450007556877,2|0,0:0|0:0,0:0:0:0:
372,68,3920,1,0,0:0:0:0:
319,309,4070,2,0,L|295:175,1,135.067501133532,4|0,0:0|0:0,0:0:0:0:
282,104,4370,5,0,0:0:0:0:
156,221,4520,1,2,0:0:0:0:
156,221,4820,5,0,0:0:0:0:
159,240,4895,1,0,0:0:0:0:
163,260,4970,1,8,0:0:0:0:
40,115,5120,1,0,0:0:0:0:
207,49,5270,1,0,0:0:0:0:
58,218,5420,5,8,0:0:0:0:
177,83,5570,1,0,0:0:0:0:
87,184,5720,1,0,0:0:0:0:
319,309,5870,2,0,L|344:167,1,135.067501133532,4|0,0:0|0:0,0:0:0:0:
355,104,6170,5,0,0:0:0:0:
436,264,6320,1,2,0:0:0:0:
436,264,6620,2,0,L|423:193,1,45.0225003778439
288,0,6770,6,0,L|130:28,1,135.067501133532,8|0,0:0|0:0,0:0:0:0:
83,37,7070,1,0,0:0:0:0:
295,186,7220,2,0,L|200:169,1,90.0450007556877,2|0,0:0|0:0,0:0:0:0:
409,91,7520,1,2,0:0:0:0:
219,249,7670,2,0,L|61:277,1,135.067501133532,4|0,0:0|0:0,0:0:0:0:
14,286,7970,5,0,0:0:0:0:
177,339,8120,1,2,0:0:0:0:
177,339,8420,5,0,0:0:0:0:
200,331,8495,1,0,0:0:0:0:
224,325,8570,1,8,0:0:0:0:
380,202,8720,1,2,0:0:0:0:
196,129,8870,1,0,0:0:0:0:
342,323,9020,5,8,0:0:0:0:
223,164,9170,1,2,0:0:0:0:
314,286,9320,1,0,0:0:0:0:
486,92,9470,6,0,L|470:189,1,90.0450007556877,8|4,0:0|0:0,0:0:0:0:
267,229,9770,1,2,0:0:0:0:
394,2,9920,2,0,L|410:98,1,90.0450007556877,8|4,0:0|0:0,0:0:0:0:
442,296,10220,2,0,L|435:251,1,45.0225003778439,2|0,0:0|0:0,0:0:0:0:
300,62,10370,6,0,B|220:71|220:71|217:76|217:76|125:87,1,166.117494930496,8|0,0:0|0:0,0:0:0:0:
66,92,10670,1,2,0:0:0:0:
267,229,10820,2,0,L|389:216,1,110.744996620331,2|0,0:0|0:0,0:0:0:0:
165,160,11120,1,2,0:0:0:0:
391,129,11270,5,4,0:0:0:0:
363,131,11345,1,0,0:0:0:0:
335,134,11420,1,2,0:0:0:0:
209,316,11570,1,0,0:0:0:0:
87,172,11720,2,0,L|73:300,1,110.744996620331,2|0,0:0|0:0,0:0:0:0:
250,100,12020,5,2,0:0:0:0:
252,121,12095,1,0,0:0:0:0:
253,142,12170,1,8,0:0:0:0:
74,282,12320,1,0,0:0:0:0:
339,278,12470,1,2,0:0:0:0:
165,160,12620,1,8,0:0:0:0:
430,111,12770,1,2,0:0:0:0:
250,219,12920,1,0,0:0:0:0:
464,368,13070,6,0,B|384:358|384:358|381:353|381:353|301:344,1,166.117494930496,4|0,0:0|0:0,0:0:0:0:
234,336,13370,1,2,0:0:0:0:
472,195,13520,2,0,L|360:207,1,110.744996620331,2|0,0:0|0:0,0:0:0:0:
250,219,13820,1,0,0:0:0:0:
439,23,13970,6,0,L|328:11,1,110.744996620331,8|0,0:0|0:0,0:0:0:0:
313,255,14270,1,2,0:0:0:0:
160,65,14420,2,0,L|270:53,1,110.744996620331,2|0,0:0|0:0,0:0:0:0:
325,324,14720,1,0,0:0:0:0:
449,109,14870,5,4,0:0:0:0:
421,106,14945,1,0,0:0:0:0:
393,103,15020,1,2,0:0:0:0:
383,354,15170,1,2,0:0:0:0:
233,193,15320,2,0,L|343:181,1,110.744996620331
499,30,15620,5,2,0:0:0:0:
469,26,15695,1,0,0:0:0:0:
439,23,15770,2,0,L|383:29,1,55.3724983101654,8|0,0:0|0:0,0:0:0:0:
196,130,15920,1,2,0:0:0:0:
355,291,16070,2,0,L|299:285,1,55.3724983101654,2|0,0:0|0:0,0:0:0:0:
512,195,16220,2,0,L|372:179,1,110.744996620331,2|0,0:0|0:0,0:0:0:0:
225,270,16520,1,2,0:0:0:0:
156,22,16670,5,8,0:0:0:0:
66,180,16820,2,0,L|41:176,4,13.8431245775414,2|0|0|0|0,0:0|0:0|0:0|0:0|0:0,0:0:0:0:
144,193,16970,1,4,0:0:0:0:
274,117,17120,2,0,L|299:113,4,13.8431245775414,2|0|0|0|0,0:0|0:0|0:0|0:0|0:0,0:0:0:0:
218,170,17270,1,4,0:0:0:0:
134,14,17420,1,2,0:0:0:0:
201,239,17570,6,0,L|236:369,1,131.444998997154,8|0,0:0|0:0,0:0:0:0:
334,68,17870,1,2,0:0:0:0:
274,223,18020,1,0,0:0:0:0:
391,29,18170,2,0,P|461:3|521:56,1,131.444998997154,4|0,0:0|0:0,0:0:0:0:
359,271,18470,6,0,L|343:119,1,110.744996620331,8|0,0:0|0:0,0:0:0:0:
82,314,18770,2,0,L|98:162,1,110.744996620331,2|0,0:0|0:0,0:0:0:0:
396,277,19070,2,0,L|380:125,1,110.744996620331,4|0,0:0|0:0,0:0:0:0:
336,92,19295,1,0,0:0:0:0:
336,92,19370,2,0,P|261:96|228:169,1,110.744996620331,8|0,0:0|0:0,0:0:0:0:
417,352,19670,1,2,0:0:0:0:
303,160,19820,1,0,0:0:0:0:
115,381,19970,2,0,P|61:385|17:353,1,110.744996620331,4|0,0:0|0:0,0:0:0:0:
38,279,20195,5,0,0:0:0:0:
38,279,20270,2,0,P|91:274|135:306,1,110.744996620331,8|0,0:0|0:0,0:0:0:0:
187,355,20495,1,0,0:0:0:0:
187,355,20570,2,0,P|240:359|284:327,1,110.744996620331,2|0,0:0|0:0,0:0:0:0:
289,253,20795,1,0,0:0:0:0:
289,253,20870,2,0,P|332:220|386:225,1,110.744996620331,4|0,0:0|0:0,0:0:0:0:
458,270,21095,5,0,0:0:0:0:
458,270,21170,2,0,B|463:226|463:226|462:202|462:202|473:114,1,110.744996620331,8|0,0:0|0:0,0:0:0:0:
395,114,21395,1,0,0:0:0:0:
395,114,21470,2,0,B|389:156|389:156|390:180|390:180|385:224,1,110.744996620331,2|0,0:0|0:0,0:0:0:0:
172,72,21770,2,0,B|177:114|177:114|176:138|176:138|181:182,1,110.744996620331,4|0,0:0|0:0,0:0:0:0:
151,253,21995,5,0,0:0:0:0:
151,253,22070,2,0,L|39:237,1,110.744996620331,8|0,0:0|0:0,0:0:0:0:
4,304,22295,1,0,0:0:0:0:
4,304,22370,2,0,L|116:320,1,110.744996620331,2|0,0:0|0:0,0:0:0:0:
338,228,22670,2,0,L|226:244,1,110.744996620331,4|0,0:0|0:0,0:0:0:0:
202,315,22895,5,0,0:0:0:0:
202,315,22970,2,0,L|314:331,1,110.744996620331,8|0,0:0|0:0,0:0:0:0:
379,294,23195,1,0,0:0:0:0:
379,294,23270,2,0,L|488:278,1,110.744996620331,2|0,0:0|0:0,0:0:0:0:
286,147,23570,2,0,L|176:131,1,110.744996620331,4|0,0:0|0:0,0:0:0:0:
115,176,23795,5,0,0:0:0:0:
115,176,23870,2,0,B|131:206|131:206|137:253,1,55.3724983101654,10|0,0:0|0:0,0:0:0:0:
439,64,24095,1,0,0:0:0:0:
439,64,24170,2,0,B|422:94|422:94|416:141,1,55.3724983101654,10|0,0:0|0:0,0:0:0:0:
91,49,24395,1,0,0:0:0:0:
91,49,24470,2,0,B|107:79|107:79|113:126,1,55.3724983101654,10|0,0:0|0:0,0:0:0:0:
120,324,24620,1,10,0:0:0:0:
8,199,24770,6,0,B|72:176|72:176|149:176,1,110.744996620331,8|0,0:0|0:0,0:0:0:0:
168,235,24995,1,0,0:0:0:0:
168,235,25070,2,0,B|210:235|210:235|274:212,1,110.744996620331,2|0,0:0|0:0,0:0:0:0:
358,53,25370,2,0,L|341:185,1,110.744996620331,4|0,0:0|0:0,0:0:0:0:
396,219,25595,5,0,0:0:0:0:
396,219,25670,2,0,L|409:328,1,110.744996620331,8|0,0:0|0:0,0:0:0:0:
488,364,25895,1,0,0:0:0:0:
488,364,25970,2,0,L|474:254,1,110.744996620331,2|0,0:0|0:0,0:0:0:0:
439,39,26270,2,0,L|425:148,1,110.744996620331,4|0,0:0|0:0,0:0:0:0:
396,219,26495,5,0,0:0:0:0:
396,219,26570,2,0,B|355:186|355:186|292:179,1,110.744996620331,8|0,0:0|0:0,0:0:0:0:
228,216,26795,1,0,0:0:0:0:
228,216,26870,1,2,0:0:0:0:
180,11,27020,1,0,0:0:0:0:
27,155,27170,1,4,0:0:0:0:
145,127,27320,5,0,0:0:0:0:
145,127,27395,1,0,0:0:0:0:
145,127,27470,2,0,L|276:98,1,110.744996620331,8|0,0:0|0:0,0:0:0:0:
322,113,27695,1,0,0:0:0:0:
322,113,27770,2,0,L|312:173,1,55.3724983101654,2|0,0:0|0:0,0:0:0:0:
381,291,27920,1,0,0:0:0:0:
407,75,28070,2,0,L|397:135,1,55.3724983101654,4|0,0:0|0:0,0:0:0:0:
361,299,28220,5,0,0:0:0:0:
343,306,28295,1,0,0:0:0:0:
325,313,28370,1,8,0:0:0:0:
116,164,28520,1,2,0:0:0:0:
128,172,28595,1,0,0:0:0:0:
136,184,28670,2,0,B|166:236|166:236|174:300,1,110.744996620331,2|0,0:0|0:0,0:0:0:0:
269,113,28970,1,4,0:0:0:0:
250,302,29120,1,2,0:0:0:0:
407,75,29270,6,0,B|376:127|376:127|368:191,1,110.744996620331,10|2,0:0|0:0,0:0:0:0:
186,367,29570,1,10,0:0:0:0:
313,238,29720,1,2,0:0:0:0:
100,333,29870,1,10,0:0:0:0:
250,302,30020,1,2,0:0:0:0:
35,82,30170,5,2,0:0:0:0:
32,107,30245,1,0,0:0:0:0:
30,133,30320,1,2,0:0:0:0:
28,159,30395,1,0,0:0:0:0:
26,185,30470,1,2,0:0:0:0:
24,211,30545,1,0,0:0:0:0:
22,237,30620,1,2,0:0:0:0:
19,263,30695,1,2,0:0:0:0:
17,289,30770,2,0,L|12:348,3,55.3724983101654,2|0|2|0,0:0|0:0|0:0|0:0,0:0:0:0:
100,333,31070,6,0,B|191:323|191:323|232:294|232:294|275:314|275:314|370:304,1,274.792508910127,14|0,0:0|0:0,0:0:0:0:
358,291,31370,2,0,B|273:300|273:300|230:280|230:280|189:309|189:309|98:319,1,274.792508910127,14|0,0:0|0:0,0:0:0:0:
100,305,31670,6,0,L|107:214,1,76.0724964596387,2|0,0:0|0:0,0:0:0:0:
256,30,31820,2,0,L|249:105,1,76.0724964596387,2|0,0:0|0:0,0:0:0:0:
17,289,31970,1,14,0:0:0:0:
56,96,39170,6,0,B|160:64|128:160|240:128,1,194.579997030945,8|2,0:0|0:0,0:0:0:0:
239,120,40070,2,0,P|186:127|143:101,1,97.2899985154724,4|0,0:0|0:0,0:0:0:0:
55,91,40670,1,0,0:0:0:0:
55,91,40820,1,2,0:0:0:0:
55,91,40970,2,0,P|102:82|145:103,1,97.2899985154724,8|0,0:0|0:0,0:0:0:0:
93,157,41420,5,8,0:0:0:0:
93,157,41570,2,0,L|103:246,1,72.9674988866043,2|0,0:0|0:0,0:0:0:0:
94,232,41870,2,0,L|85:159,1,72.9674988866043,4|0,0:0|0:0,0:0:0:0:
78,161,42170,2,0,L|88:250,1,72.9674988866043,2|0,0:0|0:0,0:0:0:0:
79,236,42470,2,0,L|70:163,1,72.9674988866043,2|0,0:0|0:0,0:0:0:0:
55,91,42770,5,8,0:0:0:0:
457,293,43670,1,4,0:0:0:0:
62,82,44570,5,8,0:0:0:0:
71,70,45020,1,8,0:0:0:0:
71,70,45170,2,0,L|137:66,1,48.6449992577362
256,192,45470,5,8,0:0:0:0:
209,57,45620,2,0,L|205:87,3,27.6862491550827
212,97,45770,2,0,L|282:101,1,55.3724983101654
438,112,45920,1,8,0:0:0:0:
300,291,46070,1,2,0:0:0:0:
365,51,46220,5,2,0:0:0:0:
365,51,46295,1,0,0:0:0:0:
365,51,46370,2,0,P|476:24|528:146,1,262.889997994308,8|2,0:0|0:0,0:0:0:0:
295,301,46820,1,0,0:0:0:0:
230,41,46970,2,0,P|161:26|97:78,1,131.444998997154,2|0,0:0|0:0,0:0:0:0:
144,372,47270,6,0,L|177:112,1,262.889997994308,4|2,0:0|0:0,0:0:0:0:
355,244,47720,1,0,0:0:0:0:
143,229,47870,2,0,L|47:217,1,65.7224994985771,2|0,0:0|0:0,0:0:0:0:
303,36,48020,2,0,L|398:47,1,65.7224994985771,2|0,0:0|0:0,0:0:0:0:
146,251,48170,6,0,L|-29:229,1,131.444998997154,8|0,0:0|0:0,0:0:0:0:
6,145,48395,1,0,0:0:0:0:
24,126,48470,2,0,L|154:142,1,131.444998997154,2|0,0:0|0:0,0:0:0:0:
384,335,48770,2,0,L|253:351,1,131.444998997154,2|0,0:0|0:0,0:0:0:0:
45,103,49070,6,0,L|282:132,1,197.167498495731,4|0,0:0|0:0,0:0:0:0:
313,136,49370,1,2,0:0:0:0:
146,251,49520,1,0,0:0:0:0:
392,92,49670,1,2,0:0:0:0:
349,241,49820,1,2,0:0:0:0:
271,15,49970,5,8,0:0:0:0:
160,224,50120,2,0,L|83:215,1,65.7224994985771,2|0,0:0|0:0,0:0:0:0:
246,11,50270,1,2,0:0:0:0:
357,220,50420,2,0,L|434:211,1,65.7224994985771,2|0,0:0|0:0,0:0:0:0:
258,28,50570,1,2,0:0:0:0:
147,237,50720,2,0,L|70:228,1,65.7224994985771,2|0,0:0|0:0,0:0:0:0:
270,45,50870,6,0,L|239:293,1,197.167498495731,4|0,0:0|0:0,0:0:0:0:
187,312,51170,2,0,L|217:63,1,197.167498495731,2|0,0:0|0:0,0:0:0:0:
171,41,51470,2,0,L|140:289,1,197.167498495731,2|0,0:0|0:0,0:0:0:0:
192,320,51770,6,0,L|446:288,1,197.167498495731,8|0,0:0|0:0,0:0:0:0:
459,286,52070,1,2,0:0:0:0:
482,56,52220,1,2,0:0:0:0:
270,149,52370,2,0,L|121:130,1,131.444998997154,2|0,0:0|0:0,0:0:0:0:
461,274,52670,1,6,0:0:0:0:
484,44,52820,1,2,0:0:0:0:
272,137,52970,1,0,0:0:0:0:
474,156,53120,5,2,0:0:0:0:
202,228,53270,1,2,0:0:0:0:
406,208,53420,1,2,0:0:0:0:
126,328,53570,6,0,L|334:302,1,197.167498495731,8|0,0:0|0:0,0:0:0:0:
409,325,53870,2,0,L|247:344,1,131.444998997154,2|0,0:0|0:0,0:0:0:0:
88,139,54170,2,0,B|200:107|200:107|328:139,1,228.217489378916,2|0,0:0|0:0,0:0:0:0:
308,150,54470,2,0,B|199:122|199:122|87:154,1,228.217489378916,4|0,0:0|0:0,0:0:0:0:
53,239,54770,6,0,L|206:196,1,131.444998997154,2|0,0:0|0:0,0:0:0:0:
437,129,55070,1,2,0:0:0:0:
288,242,55220,1,2,0:0:0:0:
149,9,55370,2,0,P|88:-6|-11:33,1,131.444998997154,8|0,0:0|0:0,0:0:0:0:
26,91,55595,1,0,0:0:0:0:
25,90,55670,2,0,P|78:62|165:150,1,197.167498495731,2|0,0:0|0:0,0:0:0:0:
115,198,55970,6,0,B|201:284|201:284|318:270,1,212.692506004046,2|0,0:0|0:0,0:0:0:0:
316,205,56270,2,0,L|296:43,1,152.144992919277,6|0,0:0|0:0,0:0:0:0:
512,147,56570,2,0,B|448:252|448:252|359:263,1,212.692506004046,2|0,0:0|0:0,0:0:0:0:
295,200,56870,2,0,L|275:38,1,162.495000619869,2|0,0:0|0:0,0:0:0:0:
14,325,57170,2,0,L|38:121,1,172.844994593319,8|0,0:0|0:0,0:0:0:0:
93,67,57395,5,0,0:0:0:0:
117,58,57470,1,2,0:0:0:0:
154,263,57620,1,2,0:0:0:0:
273,28,57770,2,0,L|294:199,1,172.844994593319,4|0,0:0|0:0,0:0:0:0:
32,320,58070,6,0,B|159:335|159:335|192:323|192:323|351:343,1,274.792508910127,8|0,0:0|0:0,0:0:0:0:
393,355,58370,1,2,0:0:0:0:
154,263,58520,1,2,0:0:0:0:
414,163,58670,1,4,0:0:0:0:
175,255,58820,1,0,0:0:0:0:
436,0,58970,5,8,0:0:0:0:
302,273,59120,5,2,0:0:0:0:
297,237,59195,1,0,0:0:0:0:
292,201,59270,1,2,0:0:0:0:
65,56,59420,5,2,0:0:0:0:
60,92,59495,1,0,0:0:0:0:
55,128,59570,1,2,0:0:0:0:
323,269,59720,5,2,0:0:0:0:
318,233,59795,1,0,0:0:0:0:
313,197,59870,1,8,0:0:0:0:
43,49,60020,6,0,L|37:90,4,22.8993757425106,2|0|0|0|0,0:0|0:0|0:0|0:0|0:0,0:0:0:0:
118,7,60170,1,4,0:0:0:0:
148,217,60320,2,0,L|142:176,4,22.8993757425106,2|0|0|0|0,0:0|0:0|0:0|0:0|0:0,0:0:0:0:
223,259,60470,2,0,L|197:81,1,166.117494930496,4|0,0:0|0:0,0:0:0:0:
139,30,60770,5,0,0:0:0:0:
139,30,61070,5,0,0:0:0:0:
203,67,61220,1,0,0:0:0:0:
217,76,61520,5,0,0:0:0:0:
281,39,61670,1,0,0:0:0:0:
292,52,62270,5,0,0:0:0:0:
356,89,62420,1,0,0:0:0:0:
420,52,62570,1,0,0:0:0:0:
422,66,63020,5,0,0:0:0:0:
358,103,63170,1,0,0:0:0:0:
294,66,63320,1,0,0:0:0:0:
230,103,63470,1,0,0:0:0:0:
432,80,63770,1,0,0:0:0:0:
421,96,64370,6,0,B|358:130|358:130|296:96|296:96|218:140,1,206.482497479462
191,182,64970,1,0,0:0:0:0:
154,242,65120,1,0,0:0:0:0:
85,258,65270,1,0,0:0:0:0:
82,278,65870,1,0,0:0:0:0:
296,179,66170,1,0,0:0:0:0:
283,68,67870,6,0,L|285:91,1,19.6649997599487,2|0,0:0|0:0,0:0:0:0:
296,179,67970,1,2,0:0:0:0:
70,119,69770,5,0,0:0:0:0:
84,122,70070,5,0,0:0:0:0:
130,175,70220,1,0,0:0:0:0:
140,185,70520,5,0,0:0:0:0:
208,170,70670,1,0,0:0:0:0:
222,165,70970,5,0,0:0:0:0:
289,183,71120,1,0,0:0:0:0:
296,196,71420,5,0,0:0:0:0:
302,210,71495,1,0,0:0:0:0:
307,223,71570,5,2,0:0:0:0:
287,296,71720,1,0,0:0:0:0:
144,347,71870,5,0,0:0:0:0:
124,274,72020,1,2,0:0:0:0:
118,144,72170,5,0,0:0:0:0:
196,145,72320,1,0,0:0:0:0:
63,201,72470,1,2,0:0:0:0:
53,190,72770,5,2,0:0:0:0:
106,133,72920,1,0,0:0:0:0:
254,26,73370,5,8,0:0:0:0:
271,32,73670,5,0,0:0:0:0:
291,99,73820,1,0,0:0:0:0:
297,113,74120,5,0,0:0:0:0:
203,255,74270,1,4,0:0:0:0:
215,238,74570,5,0,0:0:0:0:
282,218,74720,1,0,0:0:0:0:
288,231,75020,5,2,0:0:0:0:
292,244,75095,1,0,0:0:0:0:
302,268,75170,5,12,0:0:0:0:
328,271,75245,1,0,0:0:0:0:
353,274,75320,1,2,0:0:0:0:
379,277,75395,1,0,0:0:0:0:
411,351,75470,6,0,L|372:355,1,29.4974996399231,2|2,0:0|0:0,0:0:0:0:
361,196,75620,2,0,L|399:200,1,29.4974996399231,2|2,0:0|0:0,0:0:0:0:
406,343,75770,6,0,L|367:347,1,29.4974996399231,2|2,0:0|0:0,0:0:0:0:
356,188,75920,2,0,L|394:192,1,29.4974996399231,2|2,0:0|0:0,0:0:0:0:
218,259,76070,1,8,0:0:0:0:
289,133,76220,2,0,L|291:111,4,13.8431245775414,2|0|0|0|0,0:0|0:0|0:0|0:0|0:0,0:0:0:0:
254,194,76370,1,4,0:0:0:0:
175,64,76520,2,0,L|172:42,4,13.8431245775414,2|0|0|0|0,0:0|0:0|0:0|0:0|0:0,0:0:0:0:
211,131,76670,2,0,L|107:143,1,88.4924989197693,4|0,0:0|0:0,0:0:0:0:
44,90,76970,6,0,B|59:217|59:217|43:347,1,228.217489378916,8|0,0:0|0:0,0:0:0:0:
0,371,77270,1,2,0:0:0:0:
211,131,77420,2,0,L|369:111,1,152.144992919277,2|4,0:0|0:0,0:0:0:0:
108,356,77720,1,2,0:0:0:0:
217,119,77870,2,0,L|375:99,1,152.144992919277,8|0,0:0|0:0,0:0:0:0:
477,367,78170,2,0,L|319:347,1,152.144992919277,2|0,0:0|0:0,0:0:0:0:
224,105,78470,1,4,0:0:0:0:
95,348,78620,5,2,0:0:0:0:
92,325,78695,1,0,0:0:0:0:
89,302,78770,2,0,L|64:104,1,152.144992919277,8|0,0:0|0:0,0:0:0:0:
117,75,78995,1,0,0:0:0:0:
132,57,79070,2,0,L|156:254,1,152.144992919277,2|0,0:0|0:0,0:0:0:0:
398,357,79370,2,0,L|373:159,1,152.144992919277,6|0,0:0|0:0,0:0:0:0:
176,0,79670,5,8,0:0:0:0:
230,251,79820,2,0,L|305:260,1,76.0724964596387,2|0,0:0|0:0,0:0:0:0:
161,15,79970,5,2,0:0:0:0:
107,266,80120,2,0,L|31:275,1,76.0724964596387,2|0,0:0|0:0,0:0:0:0:
146,28,80270,5,4,0:0:0:0:
200,279,80420,2,0,L|275:288,1,76.0724964596387,2|0,0:0|0:0,0:0:0:0:
512,67,80570,6,0,L|187:106,1,274.792508910127,8|0,0:0|0:0,0:0:0:0:
151,196,80870,2,0,L|332:173,1,152.144992919277,0|2,0:0|0:0,0:0:0:0:
379,256,81095,1,0,0:0:0:0:
351,260,81170,2,0,L|169:282,1,152.144992919277,4|2,0:0|0:0,0:0:0:0:
77,79,81470,2,0,L|259:57,1,152.144992919277,8|0,0:0|0:0,0:0:0:0:
302,178,81770,2,0,L|120:200,1,152.144992919277,2|0,0:0|0:0,0:0:0:0:
429,11,82070,1,4,0:0:0:0:
391,333,82220,5,2,0:0:0:0:
387,305,82295,1,0,0:0:0:0:
384,277,82370,2,0,L|349:0,1,228.217489378916,8|0,0:0|0:0,0:0:0:0:
278,28,82670,1,2,0:0:0:0:
57,229,82820,2,0,L|77:70,1,152.144992919277,0|4,0:0|0:0,0:0:0:0:
356,50,83120,1,0,0:0:0:0:
127,308,83270,6,0,B|127:212|127:212|145:66|145:66|131:23,1,274.792508910127,6|0,0:0|0:0,0:0:0:0:
206,20,83570,2,0,B|217:54|217:54|196:219|196:219|196:328,1,305.842500700018,6|0,0:0|0:0,0:0:0:0:
265,351,83870,2,0,L|265:213,1,117.472498297136,2|0,0:0|0:0,0:0:0:0:
470,6,84020,2,0,L|470:123,1,117.472498297136,2|0,0:0|0:0,0:0:0:0:
335,357,84170,6,0,L|335:115,1,183.195005940085,8|0,0:0|0:0,0:0:0:0:
283,64,84395,1,0,0:0:0:0:
256,68,84470,1,2,0:0:0:0:
404,311,84620,2,0,L|404:122,1,162.495000619869,2|4,0:0|0:0,0:0:0:0:
176,86,84920,1,0,0:0:0:0:
479,280,85070,6,0,L|479:91,1,162.495000619869,8|0,0:0|0:0,0:0:0:0:
144,7,85370,2,0,L|144:169,1,162.495000619869,2|0,0:0|0:0,0:0:0:0:
312,364,85670,1,6,0:0:0:0:
335,361,85745,1,0,0:0:0:0:
359,358,85820,1,2,0:0:0:0:
444,44,85970,6,0,L|237:69,1,162.495000619869,8|0,0:0|0:0,0:0:0:0:
221,168,86195,1,0,0:0:0:0:
207,188,86270,2,0,L|45:168,1,162.495000619869,2|0,0:0|0:0,0:0:0:0:
275,303,86570,1,4,0:0:0:0:
359,54,86720,1,2,0:0:0:0:
255,337,86870,6,0,L|16:307,1,183.195005940085,14|0,0:0|0:0,0:0:0:0:
44,239,87095,2,0,L|282:268,1,203.895000466679,14|0,0:0|0:0,0:0:0:0:
258,194,87320,2,0,L|18:164,1,234.944996594273,14|0,0:0|0:0,0:0:0:0:
22,91,87545,1,2,0:0:0:0:
45,93,87620,2,0,L|160:107,1,81.2475003099346,2|2,0:0|0:0,0:0:0:0:
371,133,87770,6,0,L|339:393,1,183.195005940085,8|0,0:0|0:0,0:0:0:0:
242,360,87995,1,0,0:0:0:0:
255,337,88070,1,2,0:0:0:0:
199,114,88220,1,2,0:0:0:0:
374,333,88370,1,4,0:0:0:0:
377,306,88445,1,2,0:0:0:0:
380,279,88520,1,2,0:0:0:0:
383,252,88595,1,2,0:0:0:0:
391,181,88670,6,0,L|184:206,1,183.195005940085,8|0,0:0|0:0,0:0:0:0:
0,2,88970,2,0,L|207:27,1,183.195005940085,2|2,0:0|0:0,0:0:0:0:
386,158,89270,1,4,0:0:0:0:
359,161,89345,1,2,0:0:0:0:
332,164,89420,1,2,0:0:0:0:
305,167,89495,1,2,0:0:0:0:
232,176,89570,6,0,L|50:154,1,183.195005940085,8|0,0:0|0:0,0:0:0:0:
17,262,89795,1,2,0:0:0:0:
43,259,89870,1,2,0:0:0:0:
149,78,90020,1,2,0:0:0:0:
253,259,90170,1,4,0:0:0:0:
280,262,90245,1,2,0:0:0:0:
307,265,90320,1,2,0:0:0:0:
334,268,90395,1,2,0:0:0:0:
405,276,90470,5,8,0:0:0:0:
305,167,90620,1,2,0:0:0:0:
199,345,90770,5,2,0:0:0:0:
102,328,90870,5,0,0:0:0:0:
52,243,90970,5,2,0:0:0:0:
104,115,91070,5,2,0:0:0:0:
165,230,91220,1,2,0:0:0:0:
266,21,91370,5,8,0:0:0:0:
236,194,91520,1,2,0:0:0:0:
351,0,91670,5,0,0:0:0:0:
405,276,91820,1,2,0:0:0:0:
253,104,91970,6,0,L|175:94,1,65.7224994985771,2|0,0:0|0:0,0:0:0:0:
36,336,92120,2,0,L|111:326,1,65.7224994985771,2|0,0:0|0:0,0:0:0:0:
296,276,92270,5,2,0:0:0:0:
332,276,92345,1,0,0:0:0:0:
369,276,92420,1,0,0:0:0:0:
405,276,92495,1,0,0:0:0:0:
442,276,92570,2,0,L|454:170,1,91.5975029700423,10|0,0:0|0:0,0:0:0:0:
242,12,92720,2,0,L|253:102,1,91.5975029700423,10|0,0:0|0:0,0:0:0:0:
313,353,92870,5,2,0:0:0:0:
271,353,92945,1,2,0:0:0:0:
229,353,93020,1,2,0:0:0:0:
187,353,93095,1,2,0:0:0:0:
145,353,93170,2,0,L|119:146,1,183.195005940085,12|0,0:0|0:0,0:0:0:0:
186,117,93395,1,0,0:0:0:0:
188,134,93470,1,2,0:0:0:0:
190,152,93545,1,0,0:0:0:0:
192,170,93620,1,0,0:0:0:0:
194,188,93695,1,0,0:0:0:0:
196,206,93770,2,0,L|327:189,1,110.744996620331,6|0,0:0|0:0,0:0:0:0:
371,256,94070,6,0,L|249:270,1,110.744996620331,12|0,0:0|0:0,0:0:0:0:
137,281,94370,1,10,0:0:0:0:
139,299,94445,1,0,0:0:0:0:
141,317,94520,1,0,0:0:0:0:
143,335,94595,1,0,0:0:0:0:
145,353,94670,2,0,L|275:336,1,110.744996620331,6|0,0:0|0:0,0:0:0:0:
371,256,94970,6,0,L|249:270,1,110.744996620331,12|0,0:0|0:0,0:0:0:0:
196,206,95195,1,0,0:0:0:0:
213,204,95270,1,2,0:0:0:0:
231,202,95345,1,0,0:0:0:0:
249,200,95420,1,0,0:0:0:0:
267,198,95495,1,0,0:0:0:0:
285,196,95570,1,6,0:0:0:0:
182,72,95720,1,0,0:0:0:0:
51,240,95870,6,0,L|37:126,1,110.744996620331,12|0,0:0|0:0,0:0:0:0:
147,10,96170,1,10,0:0:0:0:
149,27,96245,1,0,0:0:0:0:
151,45,96320,2,0,L|159:104,1,55.3724983101654
123,223,96470,5,6,0:0:0:0:
121,241,96545,1,0,0:0:0:0:
119,259,96620,1,0,0:0:0:0:
117,277,96695,1,0,0:0:0:0:
115,295,96770,2,0,L|245:279,1,110.744996620331,12|0,0:0|0:0,0:0:0:0:
308,274,96995,1,0,0:0:0:0:
326,276,97070,1,2,0:0:0:0:
344,278,97145,1,0,0:0:0:0:
362,280,97220,1,0,0:0:0:0:
380,282,97295,1,0,0:0:0:0:
397,284,97370,2,0,L|412:153,1,110.744996620331,6|0,0:0|0:0,0:0:0:0:
278,29,97670,6,0,L|150:44,1,110.744996620331,12|0,0:0|0:0,0:0:0:0:
51,215,97970,1,10,0:0:0:0:
69,217,98045,1,0,0:0:0:0:
87,219,98120,1,0,0:0:0:0:
105,221,98195,1,0,0:0:0:0:
123,223,98270,2,0,L|250:238,1,110.744996620331,6|0,0:0|0:0,0:0:0:0:
370,92,98570,6,0,L|242:107,1,110.744996620331,12|0,0:0|0:0,0:0:0:0:
185,164,98870,1,2,0:0:0:0:
203,166,98945,1,0,0:0:0:0:
221,168,99020,1,0,0:0:0:0:
239,170,99095,1,0,0:0:0:0:
254,172,99170,2,0,L|320:163,1,55.3724983101654,6|0,0:0|0:0,0:0:0:0:
412,247,99320,2,0,L|346:238,1,55.3724983101654,6|0,0:0|0:0,0:0:0:0:
191,96,99470,5,10,0:0:0:0:
209,98,99545,1,0,0:0:0:0:
227,100,99620,1,0,0:0:0:0:
245,102,99695,1,0,0:0:0:0:
260,104,99770,2,0,L|387:86,1,110.744996620331,8|0,0:0|0:0,0:0:0:0:
507,148,100070,2,0,L|397:162,1,110.744996620331,6|0,0:0|0:0,0:0:0:0:
185,164,100370,6,0,L|199:274,1,110.744996620331,12|0,0:0|0:0,0:0:0:0:
130,302,100595,1,0,0:0:0:0:
128,284,100670,1,2,0:0:0:0:
126,266,100745,1,0,0:0:0:0:
124,248,100820,1,0,0:0:0:0:
122,230,100895,1,0,0:0:0:0:
120,213,100970,2,0,L|105:82,1,110.744996620331,6|0,0:0|0:0,0:0:0:0:
271,34,101270,6,0,L|258:144,1,110.744996620331,12|0,0:0|0:0,0:0:0:0:
308,309,101570,1,10,0:0:0:0:
290,311,101645,1,0,0:0:0:0:
272,313,101720,1,0,0:0:0:0:
254,315,101795,1,0,0:0:0:0:
239,317,101870,2,0,L|112:299,1,110.744996620331,6|0,0:0|0:0,0:0:0:0:
313,200,102170,6,0,L|203:215,1,110.744996620331,12|0,0:0|0:0,0:0:0:0:
46,308,102470,1,2,0:0:0:0:
44,290,102545,1,0,0:0:0:0:
42,272,102620,1,0,0:0:0:0:
40,254,102695,1,0,0:0:0:0:
38,239,102770,1,6,0:0:0:0:
96,107,102920,5,0,0:0:0:0:
121,116,102995,1,0,0:0:0:0:
147,125,103070,2,0,L|319:102,1,147.659995493775,8|0,0:0|0:0,0:0:0:0:
357,183,103370,2,0,L|518:162,1,147.659995493775,10|0,0:0|0:0,0:0:0:0:
221,35,103670,2,0,L|379:14,1,147.659995493775,6|0,0:0|0:0,0:0:0:0:
203,215,103970,5,10,0:0:0:0:
203,215,104420,5,0,0:0:0:0:
264,261,104570,1,0,0:0:0:0:
341,254,104720,1,0,0:0:0:0:
220,15,104870,5,8,0:0:0:0:
222,36,105170,1,0,0:0:0:0:
225,58,105470,1,0,0:0:0:0:
216,134,105620,1,8,0:0:0:0:
414,37,105770,5,8,0:0:0:0:
418,64,105845,1,0,0:0:0:0:
422,96,105920,2,0,L|432:184,3,55.3724983101654,2|0|0|0,0:0|0:0|0:0|0:0,0:0:0:0:
409,225,106220,1,8,0:0:0:0:
323,80,106370,1,2,0:0:0:0:
240,226,106520,1,2,0:0:0:0:
155,81,106670,6,0,L|115:403,1,274.792508910127,14|0,0:0|0:0,0:0:0:0:
43,384,106970,2,0,L|81:66,1,305.842500700018,14|0,0:0|0:0,0:0:0:0:
123,11,107270,1,2,0:0:0:0:
163,15,107345,1,2,0:0:0:0:
203,20,107420,1,2,0:0:0:0:
244,25,107495,1,2,0:0:0:0:
284,30,107570,6,0,L|455:51,1,152.144992919277,8|0,0:0|0:0,0:0:0:0:
471,166,107795,1,0,0:0:0:0:
438,186,107870,2,0,L|346:174,1,76.0724964596387,2|0,0:0|0:0,0:0:0:0:
246,297,108020,2,0,L|321:306,1,76.0724964596387,2|2,0:0|0:0,0:0:0:0:
226,157,108170,2,0,L|-14:127,1,228.217489378916,10|0,0:0|0:0,0:0:0:0:
2,206,108470,5,4,0:0:0:0:
39,210,108545,1,0,0:0:0:0:
77,215,108620,1,2,0:0:0:0:
115,219,108695,1,2,0:0:0:0:
152,224,108770,1,10,0:0:0:0:
279,21,108920,1,0,0:0:0:0:
336,259,109070,1,2,0:0:0:0:
268,96,109220,1,0,0:0:0:0:
371,348,109370,5,8,0:0:0:0:
403,328,109445,1,0,0:0:0:0:
425,298,109520,1,2,0:0:0:0:
435,261,109595,1,0,0:0:0:0:
429,224,109670,2,0,L|419:143,1,76.0724964596387,2|0,0:0|0:0,0:0:0:0:
279,21,109820,2,0,L|269:96,1,76.0724964596387
180,258,109970,1,10,0:0:0:0:
147,239,110045,1,0,0:0:0:0:
115,219,110120,2,0,L|105:138,1,76.0724964596387,2|2,0:0|0:0,0:0:0:0:
317,12,110270,6,0,L|296:180,1,152.144992919277,4|0,0:0|0:0,0:0:0:0:
268,331,110570,2,0,L|257:241,1,76.0724964596387,10|0,0:0|0:0,0:0:0:0:
173,81,110720,2,0,L|182:156,1,76.0724964596387,2|0,0:0|0:0,0:0:0:0:
336,304,110870,2,0,L|326:228,1,76.0724964596387,2|0,0:0|0:0,0:0:0:0:
96,67,111020,2,0,L|105:142,1,76.0724964596387
397,151,111170,5,10,0:0:0:0:
365,130,111245,1,0,0:0:0:0:
328,122,111320,1,2,0:0:0:0:
290,128,111395,1,0,0:0:0:0:
258,148,111470,2,0,L|146:161,1,76.0724964596387,2|0,0:0|0:0,0:0:0:0:
336,304,111620,2,0,L|447:317,1,76.0724964596387
244,178,111770,2,0,L|-11:209,1,228.217489378916,10|0,0:0|0:0,0:0:0:0:
98,322,112070,5,4,0:0:0:0:
135,317,112145,1,0,0:0:0:0:
173,313,112220,1,2,0:0:0:0:
211,309,112295,1,0,0:0:0:0:
248,304,112370,2,0,L|343:292,1,76.0724964596387,10|0,0:0|0:0,0:0:0:0:
438,67,112520,2,0,L|342:55,1,76.0724964596387,2|2,0:0|0:0,0:0:0:0:
87,123,112670,5,2,0:0:0:0:
109,120,112745,1,0,0:0:0:0:
132,117,112820,1,2,0:0:0:0:
154,114,112895,1,0,0:0:0:0:
176,110,112970,5,8,0:0:0:0:
171,151,113045,1,0,0:0:0:0:
166,193,113120,1,2,0:0:0:0:
160,235,113195,1,0,0:0:0:0:
156,276,113270,1,2,0:0:0:0:
173,313,113345,1,0,0:0:0:0:
208,335,113420,1,2,0:0:0:0:
249,341,113495,1,0,0:0:0:0:
277,319,113570,2,0,L|352:308,1,76.0724964596387,10|0,0:0|0:0,0:0:0:0:
478,147,113720,2,0,L|394:136,1,76.0724964596387,2|2,0:0|0:0,0:0:0:0:
431,369,113870,5,4,0:0:0:0:
452,294,113945,1,2,0:0:0:0:
416,233,114020,1,2,0:0:0:0:
359,210,114095,1,2,0:0:0:0:
306,222,114170,1,10,0:0:0:0:
269,220,114245,1,2,0:0:0:0:
230,204,114320,1,2,0:0:0:0:
206,174,114395,1,2,0:0:0:0:
209,135,114470,5,10,0:0:0:0:
146,364,114620,1,8,0:0:0:0:
288,115,114770,6,0,P|215:56|150:81,1,152.144992919277,8|0,0:0|0:0,0:0:0:0:
98,165,114995,1,0,0:0:0:0:
123,192,115070,2,0,L|133:279,1,76.0724964596387,2|0,0:0|0:0,0:0:0:0:
294,366,115220,2,0,L|303:290,1,76.0724964596387
418,56,115370,2,0,L|448:316,1,228.217489378916,10|0,0:0|0:0,0:0:0:0:
341,296,115670,5,6,0:0:0:0:
303,291,115745,1,0,0:0:0:0:
265,286,115820,1,2,0:0:0:0:
227,282,115895,1,0,0:0:0:0:
189,277,115970,2,0,L|27:257,1,152.144992919277,10|0,0:0|0:0,0:0:0:0:
208,18,116270,2,0,L|359:0,1,152.144992919277,2|0,0:0|0:0,0:0:0:0:
120,245,116570,6,0,L|98:71,1,152.144992919277,8|0,0:0|0:0,0:0:0:0:
185,32,116795,1,0,0:0:0:0:
161,51,116870,2,0,L|174:160,1,76.0724964596387,2|0,0:0|0:0,0:0:0:0:
58,280,117020,2,0,L|48:204,1,76.0724964596387,2|0,0:0|0:0,0:0:0:0:
233,88,117170,5,10,0:0:0:0:
237,125,117245,1,2,0:0:0:0:
242,163,117320,1,2,0:0:0:0:
246,201,117395,1,2,0:0:0:0:
251,239,117470,2,0,L|326:247,1,76.0724964596387,6|0,0:0|0:0,0:0:0:0:
484,102,117620,2,0,L|408:110,1,76.0724964596387,2|0,0:0|0:0,0:0:0:0:
256,266,117770,2,0,L|331:274,1,76.0724964596387,10|0,0:0|0:0,0:0:0:0:
489,129,117920,2,0,L|413:137,1,76.0724964596387,2|0,0:0|0:0,0:0:0:0:
261,293,118070,2,0,L|336:301,1,76.0724964596387,2|0,0:0|0:0,0:0:0:0:
494,156,118220,2,0,L|418:164,1,76.0724964596387,2|0,0:0|0:0,0:0:0:0:
173,344,118370,5,10,0:0:0:0:
125,191,118520,1,2,0:0:0:0:
240,371,118670,5,10,0:0:0:0:
235,131,118820,1,2,0:0:0:0:
309,384,118970,5,8,0:0:0:0:
369,90,119120,1,2,0:0:0:0:
335,161,119195,1,2,0:0:0:0:
275,209,119270,2,0,L|107:188,1,152.144992919277,2|2,0:0|0:0,0:0:0:0:
28,300,119495,1,0,0:0:0:0:
73,246,119570,1,2,0:0:0:0:
50,179,119645,1,0,0:0:0:0:
38,110,119720,1,2,0:0:0:0:
62,45,119795,1,0,0:0:0:0:
129,25,119870,2,0,L|242:37,1,76.0724964596387,2|0,0:0|0:0,0:0:0:0:
296,261,120020,2,0,L|219:250,1,76.0724964596387,2|0,0:0|0:0,0:0:0:0:
473,51,120170,5,2,0:0:0:0:
468,88,120245,1,0,0:0:0:0:
463,126,120320,1,2,0:0:0:0:
459,164,120395,1,0,0:0:0:0:
404,202,120470,1,2,0:0:0:0:
409,239,120545,1,0,0:0:0:0:
413,277,120620,1,2,0:0:0:0:
418,315,120695,1,0,0:0:0:0:
371,364,120770,2,0,L|203:343,1,152.144992919277,2|2,0:0|0:0,0:0:0:0:
141,244,120995,5,0,0:0:0:0:
162,222,121070,2,0,L|263:232,1,76.0724964596387,8|0,0:0|0:0,0:0:0:0:
391,130,121220,2,0,L|346:125,4,25.4868750583348,2|0|0|0|0,0:0|0:0|0:0|0:0|0:0,0:0:0:0:
294,121,121370,1,4,0:0:0:0:
506,230,121520,2,0,L|461:234,4,25.4868750583348,2|0|0|0|0,0:0|0:0|0:0|0:0|0:0,0:0:0:0:
409,239,121670,2,0,L|285:254,1,101.947500233339,4|0,0:0|0:0,0:0:0:0:
142,43,121970,5,14,0:0:0:0:
142,43,122270,1,0,0:0:0:0:
144,62,122345,1,0,0:0:0:0:
146,82,122420,1,2,0:0:0:0:
149,102,122495,1,0,0:0:0:0:
164,114,122570,5,2,0:0:0:0:
169,154,122645,1,0,0:0:0:0:
174,194,122720,1,2,0:0:0:0:
179,233,122795,1,0,0:0:0:0:
242,258,122870,6,0,L|353:246,1,65.7224994985771,14|0,0:0|0:0,0:0:0:0:
456,137,123020,2,0,L|390:129,1,65.7224994985771,2|0,0:0|0:0,0:0:0:0:
247,238,123170,2,0,L|358:226,3,65.7224994985771,2|0|2|0,0:0|0:0|0:0|0:0,0:0:0:0:
291,338,123470,2,0,L|225:346,3,65.7224994985771,2|0|2|0,0:0|0:0|0:0|0:0,0:0:0:0:
105,341,123770,5,10,0:0:0:0:
96,282,123845,1,0,0:0:0:0:
89,225,123920,1,2,0:0:0:0:
82,167,123995,1,0,0:0:0:0:
101,102,124070,5,2,0:0:0:0:
160,68,124145,1,0,0:0:0:0:
226,86,124220,1,2,0:0:0:0:
266,142,124295,1,0,0:0:0:0:
321,193,124370,5,2,0:0:0:0:
393,197,124445,1,0,0:0:0:0:
447,147,124520,1,2,0:0:0:0:
440,74,124595,1,0,0:0:0:0:
381,35,124670,6,0,B|253:50|253:50|226:86|226:86|184:59|184:59|31:77,1,352.417494891409,14|0,0:0|0:0,0:0:0:0:
32,159,124970,2,0,B|172:141|172:141|239:189|239:189|291:127|291:127|415:111,1,430.042514108145,14|0,0:0|0:0,0:0:0:0:
360,8,125270,5,2,0:0:0:0:
289,18,125345,1,2,0:0:0:0:
218,29,125420,1,2,0:0:0:0:
147,40,125495,1,2,0:0:0:0:
76,51,125570,6,0,B|42:122|83:203|83:203|131:258|83:339|83:339|28:258|83:203|83:203|130:134|223:147|251:196|275:283|190:322|190:322|315:265|430:294|430:294|388:379|278:363|278:363|355:262|308:130|238:89|157:90|157:90|267:49|273:132|379:138|428:97|447:64|443:19,1,1912.67996205927,14|0,0:0|0:0,0:0:0:0:
