osu file format v14

[General]
AudioFilename: CaliburnE.mp3
AudioLeadIn: 0
PreviewTime: 212
Countdown: 0
SampleSet: Soft
StackLeniency: 0.5
Mode: 0
LetterboxInBreaks: 0
WidescreenStoryboard: 1

[Editor]
DistanceSpacing: 2
BeatDivisor: 4
GridSize: 4
TimelineZoom: 3.399999

[Metadata]
Title:Caliburne ~Story of the Legendary sword~
TitleUnicode:Caliburne ~Story of the Legendary sword~
Artist:Project Grimoire
ArtistUnicode:Project Grimoire
Creator:gokugohan12468
Version:Nowa's ANOTHER
Source:maimai ORANGE
Tags:Team Grimoire Ice あま猫 Verdammt SEGA Furry SyraxAxoJaxco Plaudible DTM9 Nowa Lokidoki William K William_K Firis Mistlud KuranteMelodii KittyAdventure collab collaboration
BeatmapID:1246483
BeatmapSetID:587024

[Difficulty]
HPDrainRate:5
CircleSize:3.9
OverallDifficulty:7.5
ApproachRate:9.3
SliderMultiplier:1.7
SliderTickRate:1

[Events]
//Background and Video events
0,0,"adventure_fantasy_art_landscapes_path_trail_people_flowers_lamps_fire_decay_ruins_trees_forest_1920x1080.jpg",0,0
Video,-1520,"123.mp4"
//Break Periods
//Storyboard Layer 0 (Background)
//Storyboard Layer 1 (Fail)
//Storyboard Layer 2 (Pass)
//Storyboard Layer 3 (Foreground)
//Storyboard Layer 4 (Overlay)
//Storyboard Sound Samples

[TimingPoints]
212,315.789473684211,3,2,1,30,1,0
212,-200,3,2,1,30,0,0
528,315.789473684211,3,2,1,30,1,0
528,-133.333333333333,3,2,1,30,0,0
8975,-133.333333333333,3,2,1,10,0,0
9054,-133.333333333333,3,2,1,30,0,0
11896,-100,3,2,1,80,0,0
12843,-83.3333333333333,3,2,1,80,0,0
13159,-100,3,2,1,80,0,0
30843,-200,3,2,1,80,0,0
45685,-200,3,2,1,5,0,0
46001,-100,3,2,1,80,0,0
61159,-100,3,2,1,80,0,1
76317,-133.333333333333,3,2,1,80,0,0
87685,-100,3,2,1,80,0,0
91475,-200,3,2,1,80,0,0
99054,-133.333333333333,3,2,1,80,0,0
104738,-100,3,2,1,80,0,0
112001,-166.666666666667,3,2,1,80,0,0
112317,-80,3,2,1,80,0,1
118633,-66.6666666666667,3,2,1,80,0,1
118949,-58.8235294117647,3,2,1,80,0,1
119896,-80,3,2,1,80,0,1
129370,-200,3,2,1,60,0,0
131264,-200,3,2,1,5,0,0
131896,-200,3,2,1,40,0,0
132214,329.67032967033,3,2,1,20,1,0
132214,-200,3,2,1,40,0,0
133203,359.281437125748,3,2,1,20,1,0
133203,-200,3,2,1,40,0,0
134287,-200,3,2,1,40,0,0
134288,394.736842105263,3,2,1,15,1,0
135495,437.956204379562,3,2,1,15,1,0
136387,444.444444444444,3,2,1,15,1,0
136864,545.454545454546,3,2,1,15,1,0
140136,-200,3,2,1,5,0,0

[HitObjects]
288,314,212,6,0,P|294:282|286:246,1,63.75,2|0,0:0|0:0,0:0:0:0:
246,178,528,6,0,P|237:131|248:79,1,95.6250036478044,2|0,0:3|0:0,0:0:0:0:
318,40,843,2,0,L|389:46,2,63.7500024318696,2|0|0,0:0|0:0|0:0,0:0:0:0:
113,145,1475,2,0,P|95:205|113:275,1,127.500004863739,2|2,0:3|0:0,0:0:0:0:
325,354,2106,1,2,0:0:0:0:
392,261,2264,1,0,0:0:0:0:
232,311,2422,1,2,0:3:0:0:
232,311,2738,2,0,P|217:250|233:181,1,127.500004863739,2|2,0:0|0:0,0:0:0:0:
461,198,3370,2,0,P|475:258|460:328,2,127.500004863739,2|2|2,0:3|0:0|0:0,0:0:0:0:
410,94,4159,1,0,0:0:0:0:
304,140,4317,6,0,P|242:146|162:130,2,127.500004863739,2|2|2,0:3|0:0|0:0,0:0:0:0:
498,17,5264,2,0,P|435:6|372:12,1,127.500004863739,2|2,0:3|0:0,0:0:0:0:
153,85,5896,2,0,P|101:91|47:80,1,95.6250036478044,2|0,0:0|0:0,0:0:0:0:
171,55,6212,2,0,P|235:45|304:56,1,127.500004863739,2|2,0:3|0:0,0:0:0:0:
487,181,6843,2,0,L|491:117,1,63.7500024318696,0|2,0:0|0:0,0:0:0:0:
363,161,7159,2,0,L|371:288,1,127.500004863739,2|2,0:0|0:0,0:0:0:0:
371,288,7791,1,2,0:0:0:0:
371,288,8106,6,0,L|362:160,1,127.500004863739,2|2,0:3|0:0,0:0:0:0:
289,71,8580,2,0,L|284:6,2,63.7500024318696,0|0|0,0:0|0:0|0:0,0:0:0:0:
201,145,9054,2,0,P|140:164|72:156,1,127.500004863739,2|2,0:3|0:0,0:0:0:0:
290,72,9685,1,2,0:0:0:0:
308,186,9843,1,0,0:0:0:0:
206,44,10001,1,2,0:3:0:0:
206,44,10317,2,0,L|342:5,1,127.500004863739,2|2,0:0|0:0,0:0:0:0:
482,180,10949,2,0,L|359:215,1,127.500004863739,2|0,0:3|0:0,0:0:0:0:
147,125,11580,6,0,L|191:131,1,31.8750012159348,2|0,0:0|0:0,0:0:0:0:
259,209,11738,2,0,L|215:215,1,31.8750012159348,0|0,0:0|0:0,0:0:0:0:
95,189,11896,5,6,0:0:0:0:
299,141,12054,1,0,0:3:0:0:
152,255,12212,1,2,0:3:0:0:
126,70,12370,1,0,0:3:0:0:
283,229,12528,1,2,0:3:0:0:
67,285,12685,1,0,0:3:0:0:
67,285,12764,1,0,0:3:0:0:
67,285,12843,5,6,0:0:0:0:
229,125,13001,1,0,0:3:0:0:
287,345,13159,1,2,0:3:0:0:
128,185,13317,1,0,0:3:0:0:
128,185,13396,1,0,0:0:0:0:
128,185,13475,1,2,0:3:0:0:
404,127,13633,1,0,0:3:0:0:
404,127,13712,1,0,0:0:0:0:
404,127,13791,5,6,0:0:0:0:
436,161,13869,1,0,0:0:0:0:
451,206,13948,1,0,0:3:0:0:
445,253,14027,1,0,0:0:0:0:
419,292,14106,1,2,0:3:0:0:
378,317,14185,1,0,0:0:0:0:
331,321,14264,1,0,0:3:0:0:
287,305,14343,1,0,0:0:0:0:
254,271,14422,1,2,0:3:0:0:
221,237,14501,1,0,0:0:0:0:
176,221,14580,1,0,0:3:0:0:
129,225,14659,1,0,0:0:0:0:
89,249,14738,5,6,0:0:0:0:
89,249,15054,1,6,0:3:0:0:
76,159,15370,2,0,L|72:126,7,21.25,2|0|0|0|0|0|0|0,0:0|0:0|0:0|0:0|0:0|0:0|0:0|0:0,0:0:0:0:
112,106,15685,6,0,L|121:12,1,85,6|0,0:0|0:0,0:0:0:0:
326,88,16001,2,0,L|334:172,1,85,2|0,0:3|0:0,0:0:0:0:
225,324,16317,1,8,0:0:0:0:
86,201,16475,1,0,0:0:0:0:
247,122,16633,6,0,P|289:119|330:129,1,85,6|0,0:3|0:0,0:0:0:0:
398,281,16949,2,0,P|353:291|296:283,1,85,2|0,0:3|0:0,0:0:0:0:
298,250,17185,1,0,0:0:0:0:
298,250,17264,1,8,0:0:0:0:
470,337,17422,1,0,0:0:0:0:
512,138,17580,6,0,L|506:42,1,85,6|0,0:3|0:0,0:0:0:0:
295,4,17896,2,0,L|289:100,1,85,2|0,0:3|0:0,0:0:0:0:
437,254,18212,1,8,0:0:0:0:
502,49,18370,1,0,0:0:0:0:
502,49,18449,1,0,0:0:0:0:
502,49,18528,5,6,0:3:0:0:
249,156,18685,1,0,0:0:0:0:
465,158,18843,1,2,0:3:0:0:
209,51,19000,1,0,0:0:0:0:
209,51,19080,1,0,0:0:0:0:
209,51,19159,1,2,0:3:0:0:
180,230,19317,1,0,0:0:0:0:
365,74,19475,6,0,L|375:158,1,85,6|0,0:0|0:0,0:0:0:0:
119,109,19791,2,0,L|130:25,1,85,2|0,0:3|0:0,0:0:0:0:
193,253,20106,1,8,0:0:0:0:
14,165,20264,1,0,0:0:0:0:
14,165,20343,1,0,0:0:0:0:
14,165,20422,6,0,L|3:81,1,85,6|0,0:3|0:0,0:0:0:0:
230,144,20738,6,0,L|219:228,1,85,0|0,0:0|0:0,0:0:0:0:
193,253,20975,1,0,0:0:0:0:
193,253,21054,1,8,0:0:0:0:
162,23,21212,1,0,0:0:0:0:
374,174,21370,5,6,0:3:0:0:
374,174,21449,1,0,0:0:0:0:
374,174,21528,1,0,0:0:0:0:
374,174,21606,1,0,0:0:0:0:
374,174,21685,2,0,L|384:85,1,85,2|0,0:3|0:0,0:0:0:0:
183,168,22001,2,0,L|193:257,1,85,8|0,0:0|0:0,0:0:0:0:
380,314,22317,5,2,0:0:0:0:
382,292,22395,1,0,0:0:0:0:
384,271,22474,1,0,0:0:0:0:
387,250,22553,1,0,0:0:0:0:
389,229,22632,1,8,0:0:0:0:
391,208,22711,1,0,0:0:0:0:
394,187,22790,1,8,0:0:0:0:
396,166,22869,1,0,0:0:0:0:
398,145,22949,1,8,0:0:0:0:
343,173,23027,1,0,0:0:0:0:
284,155,23106,1,8,0:0:0:0:
254,100,23185,1,0,0:0:0:0:
272,40,23264,6,0,P|305:117|289:200,1,170,6|2,0:0|0:3,0:0:0:0:
150,134,23738,1,0,0:0:0:0:
385,177,23896,1,8,0:0:0:0:
188,232,24054,1,0,0:0:0:0:
272,40,24212,6,0,L|405:54,1,127.5,6|0,0:3|0:0,0:0:0:0:
421,82,24528,1,2,0:3:0:0:
399,118,24606,1,0,0:0:0:0:
391,160,24685,1,0,0:0:0:0:
399,201,24764,1,0,0:0:0:0:
421,237,24843,2,0,P|430:285|423:322,1,85,8|0,0:0|0:0,0:0:0:0:
269,312,25159,6,0,L|98:290,1,170,6|2,0:3|0:3,0:0:0:0:
220,159,25633,1,0,0:0:0:0:
280,329,25791,1,8,0:0:0:0:
419,204,25949,1,0,0:0:0:0:
419,204,26028,1,0,0:0:0:0:
419,204,26106,6,0,L|515:192,1,85,6|0,2:3|0:0,0:0:0:0:
220,159,26422,2,0,L|124:147,1,85,2|0,0:3|0:0,0:0:0:0:
105,125,26659,1,0,0:0:0:0:
105,125,26738,1,8,0:0:0:0:
300,70,26896,1,0,0:0:0:0:
250,266,27054,6,0,L|237:360,1,85,6|0,0:0|0:0,0:0:0:0:
64,377,27370,2,0,L|51:283,1,85,2|0,0:3|0:0,0:0:0:0:
160,148,27685,1,8,0:0:0:0:
265,338,27843,1,0,0:0:0:0:
265,338,27922,1,0,0:0:0:0:
265,338,28001,6,0,P|277:286|295:258,1,85,6|0,0:3|0:0,0:0:0:0:
410,159,28317,2,0,P|430:195|438:237,1,85,2|0,0:3|0:0,0:0:0:0:
425,270,28554,1,0,0:0:0:0:
425,270,28633,1,8,0:0:0:0:
231,173,28791,1,0,0:0:0:0:
449,85,28949,5,6,0:0:0:0:
319,240,29106,1,0,0:0:0:0:
250,50,29264,1,2,0:0:0:0:
455,96,29422,5,0,0:0:0:0:
216,181,29580,1,8,0:0:0:0:
358,26,29738,1,0,0:0:0:0:
320,228,29896,5,8,0:0:0:0:
304,253,29974,1,0,0:0:0:0:
282,273,30053,1,8,0:0:0:0:
255,288,30132,1,0,0:0:0:0:
226,294,30211,1,8,0:0:0:0:
196,293,30290,1,0,0:0:0:0:
167,284,30369,1,8,0:0:0:0:
142,268,30448,1,0,0:0:0:0:
122,246,30527,1,8,0:0:0:0:
108,220,30606,1,8,0:0:0:0:
101,190,30685,1,8,0:0:0:0:
103,160,30764,1,8,0:0:0:0:
112,132,30843,5,6,0:0:0:0:
112,132,31791,1,2,0:0:0:0:
198,46,32422,5,2,0:0:0:0:
198,46,32738,2,0,P|242:43|289:51,2,85,2|0|2,0:0|0:0|0:0,0:0:0:0:
121,71,33528,1,2,0:0:0:0:
46,43,33685,5,2,0:0:0:0:
100,266,34159,2,0,L|104:313,2,42.5,0|2|2,0:0|0:0|0:0,0:0:0:0:
114,190,34633,6,0,L|107:105,2,85,2|2|2,0:0|0:0|0:0,0:0:0:0:
230,288,35580,2,0,P|277:296|315:290,1,85,2|2,0:0|0:0,0:0:0:0:
438,201,36212,2,0,L|443:156,1,42.5,2|0,0:0|0:0,0:0:0:0:
450,82,36528,5,2,0:0:0:0:
450,82,37475,2,0,L|445:35,2,42.5,2|0|2,0:0|0:0|0:0,0:0:0:0:
467,234,38106,1,2,0:0:0:0:
327,173,38422,6,0,L|239:164,1,85,2|2,0:0|0:0,0:0:0:0:
242,164,39054,1,2,0:0:0:0:
277,313,39370,2,0,L|365:322,1,85,2|2,0:0|0:0,0:0:0:0:
362,321,40001,1,2,0:0:0:0:
477,220,40317,6,0,B|484:178|484:178|477:131,1,85,2|0,0:0|0:0,0:0:0:0:
332,84,40949,1,2,0:0:0:0:
332,84,41106,1,2,0:0:0:0:
332,84,41264,2,0,B|325:126|325:126|332:173,1,85,2|0,0:0|0:0,0:0:0:0:
344,243,41738,1,0,0:0:0:0:
305,309,41896,2,0,L|303:358,1,42.5,2|2,0:0|0:0,0:0:0:0:
226,360,42212,6,0,P|198:326|153:310,1,85,2|2,0:0|0:0,0:0:0:0:
13,353,42843,1,2,0:0:0:0:
49,203,43159,2,0,L|46:152,1,42.5,2|0,0:0|0:0,0:0:0:0:
147,192,43475,1,2,0:0:0:0:
232,139,43633,1,0,0:0:0:0:
232,139,43712,1,0,0:0:0:0:
232,139,43791,2,0,L|288:146,1,42.5,2|0,0:0|0:0,0:0:0:0:
321,241,44106,6,0,L|278:246,1,42.5,2|0,0:0|0:0,0:0:0:0:
239,347,44422,6,0,L|414:359,2,170,2|2|2,0:0|0:0|0:0,0:0:0:0:
137,318,46001,6,0,L|43:311,1,85,6|0,0:0|0:0,0:0:0:0:
314,272,46317,2,0,L|408:265,1,85,6|0,0:3|0:0,0:0:0:0:
107,229,46633,1,8,0:0:0:0:
280,353,46791,1,0,0:0:0:0:
338,149,46949,6,0,L|322:52,1,85,6|0,0:3|0:0,0:0:0:0:
409,276,47264,2,0,L|393:373,1,85,6|0,0:3|0:0,0:0:0:0:
157,295,47580,2,0,L|134:158,1,127.5,8|0,0:0|0:0,0:0:0:0:
149,138,47896,6,0,L|164:231,1,85,6|0,0:0|0:0,0:0:0:0:
362,298,48212,2,0,L|377:204,1,85,6|0,0:3|0:0,0:0:0:0:
128,118,48528,2,0,L|148:248,1,127.5,8|0,0:0|0:0,0:0:0:0:
206,293,48843,6,0,P|249:273|289:272,1,85,6|0,0:3|0:0,0:0:0:0:
434,232,49159,2,0,P|431:274|412:311,1,85,6|0,0:3|0:0,0:0:0:0:
392,322,49396,1,0,0:0:0:0:
392,322,49475,1,8,0:0:0:0:
328,116,49633,1,0,0:0:0:0:
492,172,49791,6,0,P|508:212|512:268,1,85,6|0,0:0|0:0,0:0:0:0:
307,153,50106,2,0,P|312:111|328:72,1,85,6|0,0:3|0:0,0:0:0:0:
402,287,50422,1,8,0:0:0:0:
179,243,50580,1,0,0:0:0:0:
437,120,50738,6,0,P|462:154|481:207,1,85,6|0,0:3|0:0,0:0:0:0:
344,339,51054,1,6,0:3:0:0:
347,342,51370,2,0,P|306:356|251:344,1,85,8|0,0:0|0:0,0:0:0:0:
139,264,51685,6,0,P|221:235|246:151,1,170,6|6,0:0|0:3,0:0:0:0:
83,57,52159,2,0,P|83:99|103:136,1,85,0|8,0:0|0:0,0:0:0:0:
234,11,52475,1,0,0:0:0:0:
24,2,52633,6,0,P|4:39|0:81,1,85,6|0,0:3|0:0,0:0:0:0:
161,230,52949,2,0,P|180:192|185:151,1,85,2|2,0:0|0:0,0:0:0:0:
0,263,53264,1,4,0:3:0:0:
190,368,53422,1,0,0:0:0:0:
380,263,53580,6,0,L|399:84,1,170,6|6,0:0|0:3,0:0:0:0:
259,25,54054,1,0,0:0:0:0:
144,126,54212,2,0,L|153:215,1,85,8|0,0:0|0:0,0:0:0:0:
284,289,54528,6,0,L|292:204,1,85,6|0,0:3|0:0,0:0:0:0:
123,143,54843,2,0,L|131:228,1,85,6|0,0:3|0:0,0:0:0:0:
289,311,55159,2,0,P|369:320|416:298,1,127.5,8|0,0:0|0:0,0:0:0:0:
430,280,55475,5,6,0:0:0:0:
290,163,55633,1,0,0:0:0:0:
171,309,55791,2,0,P|202:346|249:368,1,85,6|0,0:3|0:0,0:0:0:0:
127,165,56106,2,0,P|110:210|114:262,1,85,8|0,0:0|0:0,0:0:0:0:
198,76,56422,6,0,P|115:59|39:93,1,170,6|6,0:3|0:3,0:0:0:0:
199,228,56896,1,0,0:0:0:0:
199,228,56975,1,0,0:0:0:0:
199,228,57054,1,8,0:0:0:0:
370,140,57212,1,0,0:0:0:0:
87,191,57370,6,0,L|74:281,1,85,6|0,0:0|0:0,0:0:0:0:
180,96,57685,2,0,L|193:6,1,85,4|0,0:3|0:0,0:0:0:0:
216,257,58001,6,0,L|203:347,1,85,8|0,0:0|0:0,0:0:0:0:
309,162,58317,2,0,L|320:72,1,85,6|0,0:0|0:0,0:0:0:0:
404,303,58633,5,4,0:3:0:0:
479,151,58791,1,0,0:0:0:0:
479,151,58870,1,0,0:0:0:0:
479,151,58949,1,8,0:0:0:0:
283,271,59106,1,0,0:0:0:0:
467,368,59264,6,0,L|473:319,3,42.5,8|0|8|0,0:0|0:0|0:0|0:0,0:0:0:0:
505,256,59580,2,0,L|490:210,3,42.5,8|0|8|0,0:0|0:0|0:0|0:0,0:0:0:0:
494,139,59896,2,0,L|461:103,3,42.5,8|0|8|0,0:0|0:0|0:0|0:0,0:0:0:0:
372,87,60212,5,8,0:0:0:0:
328,105,60291,1,0,0:0:0:0:
280,113,60370,1,8,0:0:0:0:
233,108,60449,1,0,0:0:0:0:
188,93,60528,5,8,0:0:0:0:
143,77,60606,1,0,0:0:0:0:
95,73,60685,1,8,0:0:0:0:
48,81,60764,1,0,0:0:0:0:
4,99,60843,5,8,0:0:0:0:
44,132,60922,1,8,0:0:0:0:
95,148,61001,1,8,0:0:0:0:
147,143,61080,1,8,0:0:0:0:
194,119,61159,5,6,0:0:0:0:
77,299,61317,1,2,0:0:0:0:
307,109,61633,5,6,0:0:0:0:
189,288,61791,1,2,0:0:0:0:
419,98,62106,5,4,0:3:0:0:
343,231,62422,1,4,0:3:0:0:
419,98,62738,5,2,0:0:0:0:
343,231,62896,1,0,0:0:0:0:
266,99,63054,5,6,0:0:0:0:
448,203,63212,1,2,0:0:0:0:
148,137,63528,5,6,0:0:0:0:
330,241,63686,1,2,0:0:0:0:
31,180,64001,5,4,0:3:0:0:
159,253,64317,1,4,0:3:0:0:
31,180,64633,5,2,0:0:0:0:
159,253,64791,1,2,0:0:0:0:
158,105,64949,6,0,P|127:147|119:195,1,85,6|0,0:0|0:0,0:0:0:0:
264,86,65264,2,0,P|243:38|205:7,1,85,2|0,0:3|0:0,0:0:0:0:
228,187,65580,2,0,P|279:192|325:175,1,85,2|0,0:3|0:0,0:0:0:0:
387,137,65817,1,0,0:0:0:0:
387,137,65896,6,0,L|394:197,1,42.5,6|0,0:0|0:0,0:0:0:0:
445,235,66054,2,0,L|438:295,1,42.5,0|0,0:0|0:0,0:0:0:0:
387,333,66212,1,2,0:0:0:0:
357,296,66290,1,0,0:0:0:0:
315,274,66369,1,0,0:0:0:0:
268,269,66448,1,0,0:0:0:0:
223,284,66528,2,0,P|198:296|180:314,1,42.5,2|0,0:0|0:0,0:0:0:0:
92,364,66685,6,0,L|82:318,3,42.5,0|0|6|0,0:0|0:0|0:0|0:0,0:0:0:0:
36,260,67001,2,0,L|46:214,3,42.5,0|0|2|0,0:0|0:0|0:3|0:0,0:0:0:0:
98,162,67317,1,0,0:0:0:0:
105,142,67395,1,0,0:0:0:0:
109,121,67474,1,2,0:3:0:0:
111,100,67553,1,0,0:0:0:0:
110,79,67632,1,0,0:0:0:0:
107,58,67711,1,0,0:0:0:0:
100,37,67791,5,2,0:0:0:0:
148,58,67869,1,0,0:0:0:0:
200,66,67948,1,0,0:0:0:0:
253,58,68027,1,0,0:0:0:0:
301,37,68106,5,2,0:0:0:0:
269,85,68184,1,2,0:0:0:0:
266,142,68263,1,2,0:0:0:0:
295,192,68342,1,2,0:0:0:0:
346,220,68422,5,6,0:3:0:0:
372,216,68500,1,0,0:0:0:0:
398,213,68579,1,0,0:0:0:0:
425,209,68658,1,0,0:0:0:0:
451,206,68737,5,6,0:0:0:0:
238,291,68896,1,2,0:0:0:0:
379,118,69212,5,6,0:0:0:0:
165,202,69371,1,2,0:0:0:0:
269,46,69685,5,4,0:3:0:0:
119,105,70001,1,4,0:3:0:0:
269,46,70317,5,2,0:0:0:0:
119,105,70475,1,0,0:0:0:0:
292,131,70633,5,6,0:0:0:0:
96,20,70791,1,2,0:0:0:0:
208,210,71106,5,6,0:0:0:0:
12,99,71264,1,2,0:0:0:0:
188,330,71580,5,4,0:3:0:0:
52,252,71896,1,4,0:3:0:0:
188,330,72212,5,2,0:0:0:0:
52,252,72370,1,2,0:0:0:0:
188,174,72528,5,6,0:0:0:0:
387,269,72843,1,6,0:3:0:0:
85,212,73159,5,8,0:0:0:0:
293,139,73474,1,6,0:0:0:0:
39,311,73791,5,6,0:3:0:0:
134,113,74106,1,8,0:0:0:0:
257,294,74422,5,6,0:0:0:0:
83,210,74580,1,0,0:0:0:0:
243,102,74738,1,6,0:3:0:0:
146,302,74896,1,0,0:0:0:0:
49,102,75054,1,8,0:0:0:0:
281,176,75212,1,0,0:0:0:0:
46,227,75370,5,6,0:0:0:0:
43,211,75448,1,0,0:0:0:0:
40,195,75527,1,0,0:0:0:0:
37,180,75606,1,0,0:0:0:0:
34,164,75685,1,8,0:0:0:0:
31,148,75764,1,0,0:0:0:0:
28,133,75843,1,0,0:0:0:0:
25,117,75922,1,0,0:0:0:0:
22,101,76001,1,8,0:0:0:0:
19,86,76080,1,8,0:0:0:0:
16,70,76159,1,8,0:0:0:0:
13,54,76238,1,8,0:0:0:0:
10,39,76317,6,0,L|48:235,1,191.250007295609,6|6,0:0|0:3,0:0:0:0:
141,292,76949,2,0,P|163:265|195:254,1,63.7500024318696,0|0,0:0|0:0,0:0:0:0:
296,212,77264,6,0,P|345:233|429:226,2,127.500004863739,2|0|2,0:0|0:0|0:0,0:0:0:0:
233,79,78212,6,0,P|263:171|245:270,1,191.250007295609,6|6,0:0|0:3,0:0:0:0:
143,308,78843,2,0,L|71:299,1,63.7500024318696,2|2,0:0|0:0,0:0:0:0:
233,364,79159,6,0,L|364:347,2,127.500004863739,6|6|2,0:3|0:3|0:0,0:0:0:0:
126,318,79949,1,2,0:0:0:0:
185,220,80106,2,0,P|189:158|169:92,2,127.500004863739,6|6|2,0:0|0:3|0:0,0:0:0:0:
126,318,81054,6,0,P|214:300|318:320,1,191.250007295609,6|6,0:0|0:3,0:0:0:0:
398,241,81685,2,0,P|366:244|335:236,1,63.7500024318696,2|0,0:0|0:0,0:0:0:0:
251,156,82001,6,0,L|241:86,3,63.7500024318696,6|0|2|0,0:0|0:0|0:0|0:0,0:0:0:0:
140,38,82633,2,0,L|130:108,1,63.7500024318696,2|0,0:0|0:0,0:0:0:0:
115,215,82949,6,0,P|199:252|215:343,1,191.250007295609,6|0,0:3|0:0,0:0:0:0:
115,377,83580,2,0,P|110:346|117:315,1,63.7500024318696,2|2,0:0|0:0,0:0:0:0:
241,253,83896,6,0,L|375:263,2,127.500004863739,6|6|2,0:0|0:3|0:0,0:0:0:0:
133,153,84843,2,0,L|-1:143,2,127.500004863739,6|6|6,0:0|0:0|0:0,0:0:0:0:
241,53,85791,5,2,0:0:0:0:
250,54,85869,1,2,0:0:0:0:
259,55,85948,1,2,0:0:0:0:
268,56,86027,1,2,0:0:0:0:
277,55,86106,1,2,0:0:0:0:
287,54,86185,1,0,0:0:0:0:
296,52,86264,1,0,0:0:0:0:
305,49,86343,1,0,0:0:0:0:
313,45,86422,1,2,0:0:0:0:
321,41,86501,1,0,0:0:0:0:
329,36,86580,1,0,0:0:0:0:
337,31,86659,1,0,0:0:0:0:
344,25,86738,6,0,P|355:57|382:84,1,63.7500024318696,6|0,0:0|0:0,0:0:0:0:
478,130,87054,2,0,P|467:161|440:188,1,63.7500024318696,2|0,0:0|0:0,0:0:0:0:
364,263,87370,1,2,0:0:0:0:
268,199,87528,1,0,0:0:0:0:
261,315,87685,1,6,0:0:0:0:
261,315,88001,5,6,0:3:0:0:
347,189,88159,1,0,0:0:0:0:
173,250,88317,1,8,0:0:0:0:
370,309,88475,1,0,0:0:0:0:
150,130,88633,1,6,0:0:0:0:
150,130,88949,5,6,0:3:0:0:
161,358,89106,1,0,0:0:0:0:
266,101,89264,1,8,0:0:0:0:
44,251,89422,1,0,0:0:0:0:
336,333,89580,6,0,P|382:328|427:303,1,85,6|0,0:0|0:0,0:0:0:0:
141,219,89896,2,0,P|122:261|121:312,1,85,8|0,0:0|0:0,0:0:0:0:
337,107,90212,2,0,P|309:69|265:43,1,85,8|0,0:0|0:0,0:0:0:0:
317,344,90528,5,8,0:0:0:0:
317,344,90606,1,8,0:0:0:0:
317,344,90685,1,8,0:0:0:0:
317,344,90764,1,8,0:0:0:0:
317,344,90843,1,8,0:0:0:0:
317,344,90921,1,8,0:0:0:0:
317,344,91000,1,8,0:0:0:0:
317,344,91079,1,8,0:0:0:0:
317,344,91159,1,2,0:0:0:0:
317,344,91237,1,2,0:0:0:0:
317,344,91316,1,2,0:0:0:0:
317,344,91395,1,2,0:0:0:0:
317,344,91475,6,0,L|448:336,1,127.5,6|0,0:0|0:0,0:0:0:0:
490,275,92106,2,0,P|469:250|464:233,1,42.5,0|0,0:0|0:0,0:0:0:0:
400,200,92422,6,0,P|415:143|406:71,1,127.5,0|0,0:0|0:0,0:0:0:0:
349,24,93054,1,2,0:3:0:0:
512,95,93212,1,2,0:3:0:0:
377,221,93370,6,0,L|249:210,1,127.5,6|0,0:3|0:0,0:0:0:0:
223,227,93922,1,0,0:0:0:0:
223,227,94001,2,0,L|177:233,1,42.5,0|0,0:0|0:0,0:0:0:0:
112,188,94317,6,0,P|148:136|139:74,1,127.5,0|0,0:0|0:0,0:0:0:0:
66,117,94949,1,2,0:3:0:0:
266,58,95106,1,2,0:3:0:0:
34,6,95264,6,0,L|57:132,1,127.5,6|0,0:0|0:3,0:0:0:0:
115,231,95896,2,0,L|107:274,1,42.5,2|0,0:3|0:0,0:0:0:0:
37,363,96212,6,0,P|86:324|148:318,1,127.5,6|0,0:0|0:3,0:0:0:0:
227,358,96843,1,2,0:3:0:0:
345,234,97159,6,0,P|387:223|433:224,2,85,6|0|2,0:0|0:0|0:3,0:0:0:0:
174,226,98106,5,6,0:0:0:0:
79,241,98422,1,2,0:3:0:0:
113,152,98738,1,2,0:3:0:0:
137,158,98896,1,2,0:3:0:0:
161,164,99054,6,0,L|300:151,1,127.500004863739,6|2,0:0|0:3,0:0:0:0:
423,89,99528,1,0,0:0:0:0:
312,14,99685,2,0,P|292:46|288:76,1,63.7500024318696,8|0,0:0|0:0,0:0:0:0:
382,183,100001,5,6,0:0:0:0:
404,205,100079,1,0,0:0:0:0:
415,235,100158,1,0,0:0:0:0:
413,266,100237,1,0,0:0:0:0:
397,294,100316,1,2,0:3:0:0:
372,313,100395,1,0,0:0:0:0:
341,320,100474,1,0,0:0:0:0:
310,313,100553,1,0,0:0:0:0:
285,294,100633,1,2,0:0:0:0:
256,281,100711,1,0,0:0:0:0:
224,278,100790,1,2,0:0:0:0:
193,284,100869,1,0,0:0:0:0:
165,298,100949,6,0,P|151:331|149:371,1,63.7500024318696,6|0,0:0|0:0,0:0:0:0:
43,290,101264,2,0,P|57:257|59:217,1,63.7500024318696,2|2,0:3|0:0,0:0:0:0:
37,190,101501,1,0,0:0:0:0:
37,190,101580,1,2,0:0:0:0:
91,68,101738,1,0,0:0:0:0:
233,125,101896,5,6,0:0:0:0:
233,125,101975,1,0,0:0:0:0:
233,125,102054,1,0,0:0:0:0:
358,49,102212,2,0,L|370:112,1,63.7500024318696,2|0,0:3|0:0,0:0:0:0:
394,244,102528,1,2,0:0:0:0:
378,122,102685,1,2,0:0:0:0:
404,256,102843,6,0,L|390:387,1,127.500004863739,6|2,0:0|0:3,0:0:0:0:
247,201,103475,1,2,0:3:0:0:
251,204,103791,2,0,L|237:335,1,127.500004863739,6|2,0:0|0:3,0:0:0:0:
94,149,104422,1,2,0:3:0:0:
98,153,104738,6,0,L|87:249,1,85,6|0,0:0|0:0,0:0:0:0:
193,92,105054,2,0,L|202:176,1,85,6|0,0:0|0:0,0:0:0:0:
307,42,105370,2,0,L|296:138,1,85,6|0,0:0|0:0,0:0:0:0:
432,282,105685,6,0,L|441:197,1,85,6|0,0:0|0:0,0:0:0:0:
297,295,106001,2,0,L|283:211,1,85,6|0,0:0|0:0,0:0:0:0:
170,343,106317,2,0,L|135:265,1,85,6|0,0:0|0:0,0:0:0:0:
54,134,106633,5,12,0:0:0:0:
10,283,106791,1,0,0:0:0:0:
155,234,106949,1,8,0:0:0:0:
32,135,107107,1,0,0:0:0:0:
96,299,107264,1,8,0:0:0:0:
206,162,107422,1,0,0:0:0:0:
206,162,107501,1,0,0:0:0:0:
206,162,107580,5,8,0:0:0:0:
349,318,107738,1,0,0:0:0:0:
143,364,107896,1,8,0:0:0:0:
206,140,108054,1,0,0:0:0:0:
257,378,108212,1,8,0:0:0:0:
25,303,108370,1,0,0:0:0:0:
25,303,108449,1,0,0:0:0:0:
25,303,108528,5,8,0:0:0:0:
244,237,108685,1,0,0:0:0:0:
78,81,108843,1,8,0:0:0:0:
149,321,109001,1,0,0:0:0:0:
322,140,109159,1,8,0:0:0:0:
20,171,109317,1,0,0:0:0:0:
20,171,109396,1,0,0:0:0:0:
20,171,109475,5,8,0:0:0:0:
144,336,109633,1,0,0:0:0:0:
225,146,109791,1,8,0:0:0:0:
36,288,109949,1,0,0:0:0:0:
36,288,110028,1,0,0:0:0:0:
36,288,110106,5,8,0:0:0:0:
263,231,110264,1,0,0:0:0:0:
39,109,110422,5,8,0:0:0:0:
17,151,110500,1,0,0:0:0:0:
9,198,110579,1,8,0:0:0:0:
16,245,110658,1,0,0:0:0:0:
36,288,110737,1,8,0:0:0:0:
69,322,110816,1,0,0:0:0:0:
111,346,110895,1,8,0:0:0:0:
158,355,110974,1,0,0:0:0:0:
205,350,111053,1,8,0:0:0:0:
248,330,111132,1,0,0:0:0:0:
284,299,111211,1,8,0:0:0:0:
308,258,111290,1,8,0:0:0:0:
319,211,111369,5,6,0:3:0:0:
319,211,112001,6,0,L|239:201,1,76.4999976654053,2|0,0:0|0:0,0:0:0:0:
150,214,112317,6,0,L|261:228,1,106.25,6|0,0:0|0:0,0:0:0:0:
430,84,112633,1,6,0:3:0:0:
242,123,112791,1,2,0:0:0:0:
463,210,112949,2,0,P|480:163|462:95,1,106.25,2|0,0:0|0:0,0:0:0:0:
340,331,113264,6,0,L|443:324,1,93.5000028533936,6|0,0:0|0:0,0:0:0:0:
151,243,113580,2,0,L|57:236,1,93.5000028533936,6|0,0:3|0:0,0:0:0:0:
334,215,113896,5,2,0:0:0:0:
497,174,114054,1,2,0:0:0:0:
290,80,114212,6,0,L|184:72,1,106.25,6|0,0:0|0:0,0:0:0:0:
23,179,114528,1,6,0:3:0:0:
188,277,114685,1,2,0:0:0:0:
188,277,114764,1,2,0:0:0:0:
188,277,114843,2,0,P|203:222|192:162,1,106.25,2|0,0:0|0:0,0:0:0:0:
0,352,115159,5,6,0:0:0:0:
44,364,115237,1,0,0:0:0:0:
91,367,115316,1,0,0:0:0:0:
137,362,115395,1,0,0:0:0:0:
182,350,115474,1,6,0:3:0:0:
227,339,115553,1,0,0:0:0:0:
273,336,115632,1,0,0:0:0:0:
320,339,115711,1,0,0:0:0:0:
365,349,115791,2,0,P|419:359|473:351,1,106.25,2|2,0:0|0:0,0:0:0:0:
343,141,116106,6,0,L|331:260,1,106.25,6|0,0:0|0:0,0:0:0:0:
470,49,116422,1,6,0:3:0:0:
474,52,116738,2,0,L|486:171,1,106.25,6|0,0:0|0:0,0:0:0:0:
316,290,117054,6,0,P|277:241|212:231,1,106.25,6|0,0:0|0:0,0:0:0:0:
38,308,117370,1,6,0:3:0:0:
32,320,117448,1,0,0:0:0:0:
30,333,117527,1,0,0:0:0:0:
30,346,117606,1,0,0:0:0:0:
34,358,117685,1,6,0:0:0:0:
55,324,117763,1,0,0:0:0:0:
63,286,117842,1,0,0:0:0:0:
59,246,117921,1,0,0:0:0:0:
43,210,118001,6,0,P|32:152|47:103,1,106.25,6|0,0:0|0:0,0:0:0:0:
243,30,118317,1,6,0:3:0:0:
295,39,118395,1,0,0:0:0:0:
347,48,118474,1,0,0:0:0:0:
400,57,118553,1,0,0:0:0:0:
444,83,118633,6,0,L|303:58,1,127.500004863739,6|0,0:0|0:0,0:0:0:0:
228,337,118949,6,0,L|374:312,1,144.500002756119,6|0,0:0|0:0,0:0:0:0:
62,238,119264,2,0,L|208:263,1,144.500002756119,6|0,0:0|0:0,0:0:0:0:
1,374,119580,1,6,0:0:0:0:
62,151,119738,1,0,0:0:0:0:
62,151,119817,1,0,0:0:0:0:
62,151,119896,6,0,L|46:29,1,106.25,6|0,0:0|0:0,0:0:0:0:
217,176,120212,1,6,0:3:0:0:
21,259,120370,1,2,0:0:0:0:
168,68,120528,1,2,0:0:0:0:
221,300,120685,1,0,0:0:0:0:
221,300,120764,1,0,0:0:0:0:
221,300,120843,6,0,P|205:244|221:183,1,106.25,6|0,0:0|0:0,0:0:0:0:
482,138,121159,1,6,0:3:0:0:
467,188,121237,1,0,0:0:0:0:
431,227,121316,1,2,0:3:0:0:
382,246,121395,1,0,0:0:0:0:
330,241,121474,1,6,0:0:0:0:
421,35,121633,1,0,0:0:0:0:
512,265,121791,5,6,0:0:0:0:
512,265,121870,1,2,0:0:0:0:
512,265,121949,1,2,0:0:0:0:
263,170,122106,2,0,P|309:146|377:156,1,106.25,6|0,0:3|0:0,0:0:0:0:
116,233,122422,2,0,P|162:257|230:247,1,106.25,6|0,0:3|0:0,0:0:0:0:
51,66,122738,6,0,L|34:196,1,106.25,6|0,0:0|0:0,0:0:0:0:
167,1,123054,2,0,L|184:131,1,106.25,6|0,0:3|0:0,0:0:0:0:
290,242,123370,1,2,0:0:0:0:
402,101,123528,1,2,0:0:0:0:
402,101,123606,1,0,0:0:0:0:
402,101,123685,6,0,P|341:86|287:99,1,106.25,6|0,0:0|0:0,0:0:0:0:
449,243,124001,1,6,0:0:0:0:
503,38,124159,1,0,0:0:0:0:
278,122,124317,2,0,P|220:131|168:119,1,106.25,2|0,0:3|0:0,0:0:0:0:
13,6,124633,6,0,L|-2:124,1,106.25,6|0,0:0|0:0,0:0:0:0:
225,227,124949,1,6,0:0:0:0:
215,189,125027,1,0,0:0:0:0:
191,158,125106,1,0,0:0:0:0:
156,139,125185,1,0,0:0:0:0:
117,135,125264,1,2,0:3:0:0:
213,323,125422,1,0,0:0:0:0:
328,146,125580,5,6,0:0:0:0:
119,232,125738,1,0,0:0:0:0:
298,370,125896,1,6,0:0:0:0:
203,139,126054,1,0,0:0:0:0:
116,347,126212,1,6,0:0:0:0:
116,347,126291,1,0,0:0:0:0:
116,347,126370,1,0,0:0:0:0:
116,347,126449,1,0,0:0:0:0:
116,347,126528,5,6,0:0:0:0:
343,262,126685,1,0,0:0:0:0:
127,206,126843,1,6,0:0:0:0:
298,370,127001,1,0,0:0:0:0:
298,370,127080,1,0,0:0:0:0:
298,370,127159,1,6,0:0:0:0:
355,140,127317,1,0,0:0:0:0:
355,140,127396,1,0,0:0:0:0:
355,140,127475,6,0,L|340:88,3,53.125,6|0|2|0,0:0|0:0|0:0|0:0,0:0:0:0:
257,19,127791,2,0,L|242:71,3,53.125,2|0|2|0,0:0|0:0|0:0|0:0,0:0:0:0:
155,130,128106,2,0,L|140:78,3,53.125,2|0|2|0,0:0|0:0|0:0|0:0,0:0:0:0:
46,25,128422,5,2,0:0:0:0:
24,58,128500,1,0,0:0:0:0:
10,95,128579,1,2,0:0:0:0:
4,135,128658,1,0,0:0:0:0:
7,174,128737,1,2,0:0:0:0:
18,213,128816,1,0,0:0:0:0:
37,248,128895,1,2,0:0:0:0:
62,278,128974,1,0,0:0:0:0:
94,302,129054,2,0,P|131:314|166:314,1,53.125,8|0,0:0|0:0,0:0:0:0:
278,217,129212,2,0,P|253:208|226:204,1,53.125,8|0,0:0|0:0,0:0:0:0:
361,343,129370,6,0,P|428:228|162:122,1,510,6|0,0:0|0:0,0:0:0:0:
166,116,131896,5,2,0:0:0:0:
235,164,132054,1,2,0:0:0:0:
309,129,132214,2,0,L|396:124,1,85,2|0,0:0|0:0,0:0:0:0:
478,197,132708,1,2,0:0:0:0:
438,272,132873,2,0,L|443:326,1,42.5,2|0,0:0|0:0,0:0:0:0:
388,371,133203,5,2,0:0:0:0:
280,335,133564,1,0,0:0:0:0:
165,367,133925,2,0,L|116:360,1,42.5
53,319,134287,6,0,P|70:284|69:236,1,85,2|0,0:0|0:0,0:0:0:0:
10,142,135092,1,0,0:0:0:0:
63,42,135495,5,2,0:0:0:0:
164,88,135960,1,0,0:0:0:0:
265,42,136387,2,0,L|349:39,1,85,2|2,0:0|0:0,0:0:0:0:
453,82,136864,5,0,0:0:0:0:
445,114,137000,2,0,L|447:135,2,21.25,2|0|0,0:0|0:0|0:0,0:0:0:0:
256,192,137204,12,0,140204,0:0:0:0:
