osu file format v14

[General]
AudioFilename: CaliburnE.mp3
AudioLeadIn: 0
PreviewTime: 212
Countdown: 0
SampleSet: Soft
StackLeniency: 0.5
Mode: 0
LetterboxInBreaks: 0
WidescreenStoryboard: 0

[Editor]
DistanceSpacing: 1.5
BeatDivisor: 4
GridSize: 4
TimelineZoom: 3.4

[Metadata]
Title:Caliburne ~Story of the Legendary sword~
TitleUnicode:Caliburne ~Story of the Legendary sword~
Artist:Project Grimoire
ArtistUnicode:Project Grimoire
Creator:gokugohan12468
Version:HYPER
Source:maimai ORANGE
Tags:Team Grimoire Ice あま猫 Verdammt SEGA Furry SyraxAxoJaxco Plaudible DTM9 Nowa Lokidoki William K William_K Firis Mistlud KuranteMelodii KittyAdventure collab collaboration
BeatmapID:1246482
BeatmapSetID:587024

[Difficulty]
HPDrainRate:5
CircleSize:3.7
OverallDifficulty:7.8
ApproachRate:8.5
SliderMultiplier:1.5
SliderTickRate:2

[Events]
//Background and Video events
0,0,"adventure_fantasy_art_landscapes_path_trail_people_flowers_lamps_fire_decay_ruins_trees_forest_1920x1080.jpg",0,0
Video,-1520,"123.mp4"
//Break Periods
//Storyboard Layer 0 (Background)
//Storyboard Layer 1 (Fail)
//Storyboard Layer 2 (Pass)
//Storyboard Layer 3 (Foreground)
//Storyboard Layer 4 (Overlay)
//Storyboard Sound Samples

[TimingPoints]
212,315.789473684211,3,2,1,30,1,0
212,-200,3,2,1,30,0,0
528,315.789473684211,3,2,1,30,1,0
528,-133.333333333333,3,2,1,30,0,0
8975,-133.333333333333,3,2,1,10,0,0
9054,-133.333333333333,3,2,1,30,0,0
11896,-100,3,2,1,80,0,0
12843,-100,3,2,1,80,0,0
13159,-100,3,2,1,80,0,0
30843,-133.333333333333,3,2,1,80,0,0
46001,-100,3,2,1,80,0,0
61159,-100,3,2,1,80,0,1
62106,-100,3,2,1,80,0,1
62343,-100,3,2,1,10,0,1
62422,-100,3,2,1,80,0,1
62659,-100,3,2,1,10,0,1
62738,-100,3,2,1,80,0,1
63054,-100,3,2,1,80,0,1
64001,-100,3,2,1,80,0,1
64238,-100,3,2,1,10,0,1
64317,-100,3,2,1,80,0,1
64554,-100,3,2,1,10,0,1
64633,-100,3,2,1,80,0,1
64949,-100,3,2,1,80,0,1
68738,-100,3,2,1,80,0,1
69685,-100,3,2,1,80,0,1
69922,-100,3,2,1,10,0,1
70001,-100,3,2,1,80,0,1
70238,-100,3,2,1,10,0,1
70317,-100,3,2,1,80,0,1
70554,-100,3,2,1,10,0,1
70633,-100,3,2,1,80,0,1
71580,-100,3,2,1,80,0,1
71817,-100,3,2,1,10,0,1
71896,-100,3,2,1,80,0,1
72133,-100,3,2,1,10,0,1
72212,-100,3,2,1,80,0,1
72528,-100,3,2,1,80,0,1
76317,-133.333333333333,3,2,1,80,0,0
81685,-100,3,2,1,80,0,0
81922,-100,3,2,1,10,0,0
82001,-133.333333333333,3,2,1,80,0,0
82317,-133.333333333333,3,2,1,80,0,0
82633,-133.333333333333,3,2,1,80,0,0
82949,-133.333333333333,3,2,1,80,0,0
84843,-100,3,2,1,80,0,0
85791,-133.333333333333,3,2,1,80,0,0
86422,-100,3,2,1,80,0,0
86738,-133.333333333333,3,2,1,80,0,0
87212,-133.333333333333,3,2,1,80,0,0
87685,-100,3,2,1,80,0,0
88633,-100,3,2,1,80,0,0
89580,-100,3,2,1,80,0,0
91475,-200,3,2,1,80,0,0
98106,-133.333333333333,3,2,1,80,0,0
99054,-133.333333333333,3,2,1,80,0,0
99685,-100,3,2,1,80,0,0
100001,-133.333333333333,3,2,1,80,0,0
100317,-133.333333333333,3,2,1,80,0,0
100949,-133.333333333333,3,2,1,80,0,0
104738,-100,3,2,1,80,0,0
111370,-100,3,2,1,5,0,0
112001,-200,3,2,1,80,0,0
112317,-100,3,2,1,80,0,1
114685,-100,3,2,1,80,0,1
114843,-100,3,2,1,80,0,1
118949,-100,3,2,1,80,0,1
119185,-100,3,2,1,10,0,1
119264,-100,3,2,1,80,0,1
119501,-100,3,2,1,10,0,1
119580,-100,3,2,1,80,0,1
119817,-100,3,2,1,10,0,1
119896,-100,3,2,1,80,0,1
120843,-100,3,2,1,80,0,1
121080,-100,3,2,1,10,0,1
121159,-100,3,2,1,80,0,1
121396,-100,3,2,1,10,0,1
121475,-100,3,2,1,80,0,1
129370,-200,3,2,1,80,0,0
129528,-200,3,2,1,75,0,0
129685,-200,3,2,1,70,0,0
129843,-200,3,2,1,65,0,0
130001,-200,3,2,1,60,0,0
130159,-200,3,2,1,55,0,0
130317,-200,3,2,1,50,0,0
130475,-200,3,2,1,45,0,0
130633,-200,3,2,1,40,0,0
130791,-200,3,2,1,35,0,0
130949,-200,3,2,1,30,0,0
131106,-200,3,2,1,25,0,0
131264,-200,3,2,1,20,0,0
131422,-200,3,2,1,15,0,0
131580,-200,3,2,1,10,0,0
131738,-200,3,2,1,5,0,0
131896,-200,3,2,1,80,0,0
132214,329.67032967033,3,2,1,20,1,0
132214,-133.333333333333,3,2,1,20,0,0
133203,359.281437125748,3,2,1,20,1,0
133203,-133.333333333333,3,2,1,20,0,0
134191,-133.333333333333,3,2,1,5,0,0
134287,-133.333333333333,3,2,1,15,0,0
134288,394.736842105263,3,2,1,15,1,0
135495,437.956204379562,3,2,1,15,1,0
135495,-133.333333333333,3,2,1,15,0,0
136387,444.444444444444,3,2,1,15,1,0
136864,545.454545454546,3,2,1,15,1,0
140136,-100,3,2,1,5,0,0

[HitObjects]
456,56,212,6,0,L|448:124,1,56.25,2|0,0:0|0:0,0:0:0:0:
388,164,527,6,0,P|348:160|320:136,1,75,2|2,0:3|0:0,0:0:0:0:
260,80,1001,1,0,0:0:0:0:
180,116,1159,1,0,0:0:0:0:
180,116,1475,6,0,L|176:152,3,28.1250010728836,2|0|0|0,0:3|0:0|0:0|0:0,0:0:0:0:
152,172,1791,2,0,P|120:160|48:192,1,112.500004291535,2|2,0:0|0:0,0:0:0:0:
20,260,2264,1,0,0:0:0:0:
88,304,2422,6,0,B|132:296|132:296|156:300|156:300|204:292,1,112.500004291535,2|2,0:3|0:0,0:0:0:0:
236,220,2896,1,0,0:0:0:0:
236,372,3054,1,2,0:0:0:0:
236,372,3370,6,0,P|308:380|360:308,1,168.750006437302,2|0,0:3|0:0,0:0:0:0:
312,244,4001,2,0,L|252:248,1,56.2500021457673,2|0,0:0|0:0,0:0:0:0:
176,185,4317,6,0,P|232:202|256:250,1,112.500004291535,2|2,0:3|0:0,0:0:0:0:
181,261,4949,1,2,0:0:0:0:
108,224,5264,2,0,P|100:172|132:120,1,112.500004291535,2|2,0:3|0:0,0:0:0:0:
176,185,5896,1,2,0:0:0:0:
108,224,6212,6,0,L|64:228,3,28.1250010728836,2|0|0|0,0:3|0:0|0:0|0:0,0:0:0:0:
52,240,6528,2,0,P|36:192|52:132,1,112.500004291535,2|0,0:0|0:0,0:0:0:0:
120,88,7001,1,2,0:0:0:0:
192,136,7159,5,2,0:0:0:0:
256,24,7475,1,2,0:0:0:0:
352,192,7791,2,0,L|356:284,1,84.3750032186509,2|0,0:0|0:0,0:0:0:0:
308,336,8106,6,0,P|276:336|224:280,1,112.500004291535,2|2,0:3|0:0,0:0:0:0:
256,200,8580,1,0,0:0:0:0:
256,200,8738,1,0,0:0:0:0:
352,240,9054,6,0,L|352:272,3,28.1250010728836,2|0|0|0,0:3|0:0|0:0|0:0,0:0:0:0:
372,292,9370,2,0,P|404:292|456:236,1,112.500004291535,2|2,0:0|0:0,0:0:0:0:
496,152,9843,1,0,0:0:0:0:
496,152,10001,6,0,L|384:164,1,112.500004291535,2|2,0:3|0:0,0:0:0:0:
316,116,10475,1,0,0:0:0:0:
316,116,10554,1,0,0:0:0:0:
316,116,10633,1,2,0:0:0:0:
252,192,10949,6,0,P|200:176|144:204,1,112.500004291535,2|0,0:3|0:0,0:0:0:0:
204,255,11580,2,0,L|208:312,1,56.2500021457673,2|0,0:0|0:0,0:0:0:0:
252,192,11896,5,6,0:0:0:0:
300,120,12054,1,0,0:3:0:0:
288,268,12212,1,2,0:3:0:0:
172,184,12370,1,0,0:3:0:0:
336,196,12528,1,2,0:3:0:0:
204,255,12685,1,0,0:3:0:0:
216,108,12843,6,0,L|208:32,1,75,6|0,0:0|0:3,0:0:0:0:
128,8,13159,1,2,0:3:0:0:
128,8,13317,1,0,0:3:0:0:
300,120,13475,2,0,L|292:194,1,75,2|0,0:3|0:3,0:0:0:0:
328,272,13791,5,6,0:0:0:0:
288,348,13949,1,0,0:3:0:0:
291,194,14107,1,2,0:3:0:0:
420,272,14265,1,0,0:3:0:0:
240,272,14423,1,2,0:3:0:0:
380,196,14580,1,0,0:3:0:0:
380,348,14738,6,0,P|420:316|524:348,1,150,6|6,0:0|0:3,0:0:0:0:
480,192,15370,2,0,L|476:148,3,37.5,2|0|0|0,0:0|0:0|0:0|0:0,0:0:0:0:
492,124,15685,6,0,B|440:132|440:132|404:124|404:124|344:132,1,150,6|2,0:0|0:3,0:0:0:0:
276,88,16159,1,0,0:0:0:0:
212,140,16317,2,0,P|204:184|212:216,1,75,8|0,0:0|0:0,0:0:0:0:
292,328,16633,6,0,L|284:176,1,150,6|2,0:3|0:3,0:0:0:0:
336,108,17106,1,0,0:0:0:0:
212,140,17264,1,8,0:0:0:0:
368,188,17422,1,0,0:0:0:0:
200,64,17580,6,0,P|144:104|148:184,1,150,6|2,0:3|0:3,0:0:0:0:
216,224,18054,1,0,0:0:0:0:
284,178,18212,2,0,B|324:182|324:182|364:174,1,75,8|0,0:0|0:0,0:0:0:0:
488,92,18528,6,0,B|448:88|448:88|408:96,1,75,6|0,0:3|0:0,0:0:0:0:
444,252,18843,2,0,B|448:212|448:212|441:177,1,75,2|0,0:3|0:0,0:0:0:0:
328,24,19159,2,0,B|324:64|324:64|330:98,1,75,2|0,0:3|0:0,0:0:0:0:
441,177,19475,6,0,B|401:157|365:173|365:173|329:189|293:173,1,150,6|2,0:0|0:3,0:0:0:0:
224,128,19949,1,0,0:0:0:0:
236,244,20106,1,8,0:0:0:0:
295,174,20264,1,0,0:0:0:0:
144,84,20422,6,0,L|68:92,1,75,6|0,0:3|0:0,0:0:0:0:
224,128,20738,2,0,L|232:48,1,75,0|0,0:0|0:0,0:0:0:0:
148,172,21054,2,0,L|155:246,1,75,8|0,0:0|0:0,0:0:0:0:
124,320,21370,6,0,P|188:320|232:252,1,150,6|2,0:3|0:3,0:0:0:0:
155,246,21843,1,0,0:0:0:0:
72,264,22001,2,0,P|48:300|48:336,1,75,8|0,0:0|0:0,0:0:0:0:
127,357,22317,6,0,L|123:317,3,37.5,2|0|0|0,0:0|0:0|0:0|0:0,0:0:0:0:
176,264,22633,2,0,L|180:224,3,37.5,8|0|8|0,0:0|0:0|0:0|0:0,0:0:0:0:
120,176,22949,2,0,L|116:96,1,75,8|8,0:0|0:0,0:0:0:0:
172,40,23264,6,0,P|224:32|288:96,1,150,6|2,0:0|0:3,0:0:0:0:
295,174,23738,1,0,0:0:0:0:
208,112,23896,2,0,L|204:188,1,75,8|0,0:0|0:0,0:0:0:0:
102,252,24212,6,0,B|110:244|110:244|118:252|118:252|126:244|126:244|130:252|130:252|138:244|138:244|142:252|142:252|150:244|150:244|182:272|226:260,1,150,6|2,0:3|0:3,0:0:0:0:
204,186,24685,1,0,0:0:0:0:
292,224,24843,2,0,P|300:260|293:296,1,75,8|0,0:0|0:0,0:0:0:0:
280,140,25159,6,0,L|360:148,1,75,6|0,0:3|0:0,0:3:0:0:
400,64,25475,2,0,L|325:56,1,75,2|0,0:3|0:0,0:3:0:0:
208,102,25791,2,0,P|197:142|205:178,1,75,8|0,0:0|0:0,0:0:0:0:
248,28,26106,6,0,P|188:20|148:44,1,75,6|0,0:3|0:0,0:0:0:0:
280,140,26422,2,0,L|360:148,1,75,2|0,0:0|0:0,0:3:0:0:
456,224,26738,1,8,0:0:0:0:
444,136,26896,1,0,0:0:0:0:
344,304,27054,6,0,B|384:284|420:300|420:300|456:316|492:300,1,150,6|2,0:0|0:3,0:0:0:0:
456,224,27528,1,0,0:0:0:0:
388,372,27685,1,8,0:0:0:0:
220,356,27843,1,0,0:0:0:0:
212,344,27922,1,0,0:0:0:0:
204,332,28001,6,0,L|208:252,1,75,6|0,0:3|0:0,0:0:0:0:
64,208,28317,2,0,L|67:282,1,75,2|0,0:3|0:0,0:0:0:0:
152,176,28633,2,0,L|156:96,1,75,8|0,0:0|0:0,0:0:0:0:
88,44,28949,5,6,0:0:0:0:
88,44,29106,1,0,0:0:0:0:
244,76,29264,1,2,0:0:0:0:
244,76,29422,1,0,0:0:0:0:
36,128,29580,2,0,B|32:168|32:168|36:208,1,75,8|0,0:0|0:0,0:0:0:0:
100,252,29896,6,0,L|140:248,3,37.5,8|0|8|0,0:0|0:0|0:0|0:0,0:0:0:0:
184,184,30212,2,0,L|221:187,3,37.5,8|0|8|0,0:0|0:0|0:0|0:0,0:0:0:0:
264,256,30528,2,0,P|316:240|372:256,1,112.5,8|0,0:0|0:0,0:0:0:0:
448,284,30843,6,0,L|444:164,1,112.500004291535,6|0,0:0|0:0,0:0:0:0:
344,60,31475,1,0,0:0:0:0:
256,164,31791,2,0,P|240:204|256:272,1,112.500004291535,2|2,0:0|0:0,0:0:0:0:
352,332,32422,1,2,0:0:0:0:
256,164,32738,6,0,L|144:172,1,112.500004291535,2|0,0:0|0:0,0:0:0:0:
24,48,33370,1,2,0:0:0:0:
24,48,33528,1,2,0:0:0:0:
24,48,33685,2,0,L|136:56,1,112.500004291535,2|0,0:0|0:0,0:0:0:0:
216,16,34159,1,0,0:0:0:0:
216,16,34317,1,2,0:0:0:0:
144,160,34475,1,0,0:0:0:0:
218,121,34633,6,0,P|234:73|214:13,1,112.500004291535,2|2,0:0|0:0,0:0:0:0:
152,168,35264,1,2,0:0:0:0:
152,168,35422,1,0,0:0:0:0:
152,168,35580,6,0,P|134:220|150:273,1,112.500004291535,2|2,0:0|0:0,0:0:0:0:
256,356,36212,1,2,0:0:0:0:
352,192,36528,2,0,L|344:76,1,112.500004291535,2|0,0:0|0:0,0:0:0:0:
196,36,37159,1,2,0:0:0:0:
196,36,37317,1,2,0:0:0:0:
196,36,37475,6,0,L|192:92,1,56.2500021457673,2|0,0:0|0:0,0:0:0:0:
288,148,37791,2,0,L|284:92,1,56.2500021457673,2|0,0:0|0:0,0:0:0:0:
208,180,38106,2,0,L|204:236,1,56.2500021457673,2|0,0:0|0:0,0:0:0:0:
284,376,38422,6,0,P|304:332|276:256,1,112.500004291535,2|2,0:0|0:0,0:0:0:0:
203,236,39054,1,2,0:0:0:0:
285,159,39370,2,0,L|289:275,2,112.500004291535,2|2|2,0:0|0:0|0:0,0:0:0:0:
112,104,40317,6,0,P|140:144|208:152,1,112.500004291535,2|0,0:0|0:0,0:0:0:0:
300,64,40949,1,2,0:0:0:0:
300,64,41106,1,2,0:0:0:0:
300,64,41264,2,0,L|188:72,1,112.500004291535,2|0,0:0|0:0,0:0:0:0:
124,20,41738,1,0,0:0:0:0:
48,68,41896,2,0,P|44:100|48:128,1,56.2500021457673,2|2,0:0|0:0,0:0:0:0:
104,204,42212,6,0,B|136:188|164:200|164:200|192:212|216:200,1,112.500004291535,2|2,0:0|0:0,0:0:0:0:
136,32,42843,1,2,0:0:0:0:
136,32,43001,1,0,0:0:0:0:
136,32,43159,2,0,B|166:50|171:80|171:80|175:110|198:124,1,112.500004291535,2|2,0:0|0:0,0:0:0:0:
308,56,43791,1,2,0:0:0:0:
308,56,44106,6,0,L|248:60,1,56.2500021457673,2|0,0:0|0:0,0:0:0:0:
269,200,44422,2,0,B|349:196|349:196|377:176|389:156|377:116,1,168.750006437302,2|0,0:0|0:0,0:0:0:0:
251,59,45054,6,0,L|255:115,1,56.2500021457673,2|0,0:0|0:0,0:0:0:0:
164,180,45370,2,0,L|160:124,1,56.2500021457673,2|0,0:0|0:0,0:0:0:0:
96,64,45685,2,0,P|40:56|16:68,1,84.3750032186509,2|0,0:0|0:0,0:0:0:0:
0,144,46001,6,0,B|-3:182|-3:182|0:222,1,75,6|0,0:0|0:0,0:0:0:0:
84,272,46317,2,0,B|87:233|87:233|83:193,1,75,6|0,0:3|0:0,0:0:0:0:
140,132,46633,2,0,P|176:156|216:156,1,75,8|0,0:0|0:0,0:0:0:0:
268,104,46949,6,0,L|260:24,1,75,6|0,0:3|0:0,0:0:0:0:
348,116,47264,2,0,L|340:41,1,75,6|0,0:3|0:0,0:0:0:0:
428,136,47580,2,0,L|420:56,1,75,8|0,0:0|0:0,0:0:0:0:
340,190,47896,6,0,L|348:110,1,75,6|0,0:0|0:0,0:0:0:0:
420,210,48212,2,0,L|427:135,1,75,6|0,0:3|0:0,0:0:0:0:
500,234,48528,2,0,L|508:160,1,75,8|0,0:0|0:0,0:0:0:0:
512,312,48843,6,0,B|468:316|444:288|444:288|420:316|372:312,1,150,6|6,0:3|0:3,0:0:0:0:
308,268,49317,1,0,0:0:0:0:
308,268,49475,2,0,P|288:216|312:160,1,112.5,8|0,0:0|0:0,0:0:0:0:
328,84,49791,6,0,L|248:92,1,75,6|0,0:0|0:0,0:0:0:0:
184,44,50106,1,6,0:3:0:0:
184,44,50264,1,0,0:0:0:0:
120,96,50422,2,0,P|112:132|120:168,1,75,8|0,0:0|0:0,0:0:0:0:
188,212,50738,6,0,B|224:200|252:212|252:212|276:208|276:208|308:220|340:208,1,150,6|6,0:3|0:3,0:0:0:0:
388,144,51212,1,0,0:0:0:0:
452,200,51370,2,0,P|456:244|452:276,1,75,8|0,0:0|0:0,0:0:0:0:
388,328,51685,6,0,B|352:316|324:328|324:328|300:324|300:324|268:336|236:324,1,150,6|6,0:0|0:3,0:0:0:0:
168,364,52159,1,0,0:0:0:0:
96,324,52317,2,0,P|92:280|96:248,1,75,8|0,0:0|0:0,0:0:0:0:
240,251,52633,6,0,P|244:288|240:325,1,75,6|0,0:3|0:0,0:0:0:0:
172,192,52949,1,2,0:0:0:0:
172,192,53028,1,2,0:0:0:0:
172,192,53106,1,2,0:0:0:0:
240,132,53264,2,0,L|360:140,1,112.5,4|0,0:3|0:0,0:0:0:0:
424,104,53580,6,0,P|432:144|416:188,1,75,6|0,0:0|0:0,0:0:0:0:
360,60,53896,2,0,P|384:36|428:28,1,75,6|0,0:3|0:0,0:0:0:0:
352,139,54212,2,0,L|276:136,1,75,8|0,0:0|0:0,0:0:0:0:
213,180,54528,6,0,P|205:220|221:264,1,75,6|0,0:3|0:0,0:0:0:0:
277,136,54844,2,0,P|253:112|209:104,1,75,6|0,0:3|0:0,0:0:0:0:
286,216,55160,2,0,L|362:212,1,75,8|0,0:0|0:0,0:0:0:0:
424,257,55475,6,0,P|432:297|416:341,1,75,6|0,0:0|0:0,0:0:0:0:
360,212,55791,2,0,P|384:188|428:180,1,75,6|0,0:3|0:0,0:0:0:0:
351,292,56107,2,0,L|274:288,1,75,8|0,0:0|0:0,0:0:0:0:
212,240,56422,6,0,P|160:228|96:296,1,150,6|6,0:3|0:3,0:0:0:0:
124,368,56896,1,0,0:0:0:0:
172,304,57054,1,8,0:0:0:0:
44,356,57212,1,0,0:0:0:0:
204,376,57370,6,0,L|280:368,1,75,6|0,0:0|0:0,0:0:0:0:
252,292,57685,2,0,L|328:284,1,75,4|0,0:3|0:0,0:0:0:0:
288,208,58001,2,0,L|364:200,1,75,8|0,0:0|0:0,0:0:0:0:
400,120,58317,5,6,0:0:0:0:
348,40,58475,1,0,0:0:0:0:
362,200,58633,1,4,0:3:0:0:
488,120,58791,1,0,0:0:0:0:
312,120,58949,1,8,0:0:0:0:
443,198,59106,1,0,0:0:0:0:
444,40,59264,5,8,0:0:0:0:
400,120,59422,1,8,0:0:0:0:
308,82,59580,2,0,L|311:119,3,37.5,8|0|8|0,0:0|0:0|0:0|0:0,0:0:0:0:
240,160,59896,2,0,L|243:197,3,37.5,8|0|8|0,0:0|0:0|0:0|0:0,0:0:0:0:
232,236,60212,5,8,0:0:0:0:
196,264,60291,1,0,0:0:0:0:
152,268,60370,1,8,0:0:0:0:
108,256,60449,1,0,0:0:0:0:
84,216,60528,2,0,L|88:172,3,37.5,8|0|8|0,0:0|0:0|0:0|0:0,0:0:0:0:
24,132,60844,2,0,L|28:88,3,37.5,8|8|8|8,0:0|0:0|0:0|0:0,0:0:0:0:
104,76,61159,6,0,L|112:-1,1,75,6|2,0:0|0:0,0:0:0:0:
266,156,61633,2,0,L|258:230,1,75,6|2,0:0|0:0,0:0:0:0:
51,191,62106,6,0,P|32:148|51:79,1,112.5,4|0,0:3|0:0,0:0:0:0:
121,48,62422,6,0,L|237:56,1,112.5,4|0,0:3|0:0,0:0:0:0:
290,114,62738,6,0,L|378:118,1,75,2|0,0:0|0:0,0:0:0:0:
416,209,63054,6,0,L|341:205,1,75,6|2,0:0|0:0,0:0:0:0:
282,288,63370,1,2,0:0:0:0:
196,241,63528,6,0,L|200:166,1,75,6|2,0:0|0:0,0:0:0:0:
114,106,63843,1,2,0:0:0:0:
29,159,64001,6,0,L|28:272,1,112.5,4|0,0:3|0:0,0:0:0:0:
111,327,64317,6,0,L|112:214,1,112.5,4|0,0:3|0:0,0:0:0:0:
176,163,64633,1,2,0:0:0:0:
300,221,64791,1,2,0:0:0:0:
176,163,64949,6,0,L|180:120,1,37.5,6|0,0:0|0:0,0:0:0:0:
120,72,65106,2,0,L|124:29,1,37.5,0|0,0:0|0:0,0:0:0:0:
202,14,65264,2,0,L|241:17,3,37.5,2|0|0|0,0:3|0:0|0:0|0:0,0:0:0:0:
290,81,65580,2,0,L|329:84,3,37.5,2|0|0|0,0:3|0:0|0:0|0:0,0:0:0:0:
372,112,65896,5,6,0:0:0:0:
395,158,65975,1,0,0:0:0:0:
387,210,66054,1,0,0:0:0:0:
354,251,66133,1,0,0:0:0:0:
305,266,66212,2,0,L|267:263,3,37.5,2|0|0|0,0:0|0:0|0:0|0:0,0:0:0:0:
218,200,66528,2,0,P|232:150|217:89,1,112.5,2|0,0:0|0:0,0:0:0:0:
190,48,66843,5,6,0:0:0:0:
144,22,66922,1,0,0:0:0:0:
91,25,67001,1,0,0:0:0:0:
45,51,67080,1,0,0:0:0:0:
19,97,67159,1,2,0:3:0:0:
16,149,67238,1,0,0:0:0:0:
30,199,67317,1,0,0:0:0:0:
73,229,67396,1,0,0:0:0:0:
124,236,67475,2,0,L|122:275,3,37.5,2|0|0|0,0:3|0:0|0:0|0:0,0:0:0:0:
200,276,67791,6,0,L|198:313,3,37.5,2|0|0|0,0:0|0:0|0:0|0:0,0:0:0:0:
275,310,68106,2,0,L|273:347,3,37.5,2|2|2|2,0:0|0:0|0:0|0:0,0:0:0:0:
345,379,68422,2,0,L|467:368,1,112.5,6|0,0:3|0:0,0:0:0:0:
484,288,68738,6,0,L|409:294,1,75,6|2,0:0|0:0,0:0:0:0:
340,236,69054,1,2,0:0:0:0:
408,132,69212,2,0,L|414:206,1,75,6|2,0:0|0:0,0:0:0:0:
340,236,69528,1,2,0:0:0:0:
272,180,69685,6,0,L|261:58,1,112.5,4|0,0:3|0:0,0:0:0:0:
196,24,70001,6,0,P|152:48|144:108,1,112.5,4|0,0:3|0:0,0:0:0:0:
148,188,70317,6,0,L|108:184,1,37.5,2|0,0:0|0:0,0:0:0:0:
56,256,70475,2,0,L|93:259,1,37.5,0|0,0:0|0:0,0:0:0:0:
136,332,70633,6,0,L|210:339,1,75,6|2,0:0|0:0,0:0:0:0:
272,280,70949,1,2,0:0:0:0:
204,180,71106,6,0,L|196:254,1,75,6|2,0:0|0:0,0:0:0:0:
272,280,71422,1,2,0:0:0:0:
267,134,71580,6,0,P|231:106|163:114,1,112.5,4|0,0:3|0:0,0:0:0:0:
124,180,71896,6,0,L|112:292,1,112.5,4|0,0:3|0:0,0:0:0:0:
152,360,72212,6,0,B|192:352|192:352|228:356,1,75,2|2,0:0|0:0,0:0:0:0:
292,304,72528,6,0,P|300:264|292:228,1,75,6|0,0:0|0:0,0:0:0:0:
216,188,72843,2,0,L|220:268,1,75,6|0,0:3|0:0,0:0:0:0:
136,164,73159,2,0,L|140:244,1,75,8|0,0:0|0:0,0:0:0:0:
78,293,73475,6,0,P|38:293|6:273,1,75,6|0,0:0|0:0,0:0:0:0:
56,144,73791,2,0,L|60:224,1,75,6|0,0:3|0:0,0:0:0:0:
136,164,74106,2,0,L|140:244,1,75,8|0,0:0|0:0,0:0:0:0:
222,269,74422,5,6,0:0:0:0:
214,180,74580,1,0,0:0:0:0:
160,328,74738,1,6,0:3:0:0:
304,287,74896,1,0,0:0:0:0:
139,238,75054,1,8,0:0:0:0:
243,349,75211,1,0,0:0:0:0:
292,208,75370,5,6,0:0:0:0:
296,184,75449,1,0,0:0:0:0:
300,160,75528,1,0,0:0:0:0:
304,136,75606,1,0,0:0:0:0:
308,112,75685,1,8,0:0:0:0:
256,128,75764,1,0,0:0:0:0:
204,120,75843,1,0,0:0:0:0:
164,84,75922,1,0,0:0:0:0:
160,32,76001,2,0,L|120:28,3,37.5,8|8|8|8,0:0|0:0|0:0|0:0,0:0:0:0:
92,8,76317,6,0,P|104:56|96:120,1,112.500004291535,6|0,0:0|0:0,0:0:0:0:
204,120,76791,2,0,P|196:64|208:10,1,112.500004291535,6|0,0:3|0:0,0:0:0:0:
288,0,77264,2,0,L|348:8,1,56.2500021457673,2|0,0:0|0:0,0:0:0:0:
432,88,77580,2,0,L|376:80,1,56.2500021457673,0|0,0:0|0:0,0:0:0:0:
264,136,77896,2,0,L|324:144,1,56.2500021457673,2|0,0:0|0:0,0:0:0:0:
384,200,78212,6,0,P|392:252|368:308,1,112.500004291535,6|0,0:0|0:0,0:0:0:0:
300,360,78685,1,6,0:3:0:0:
232,304,78843,2,0,L|228:244,1,56.2500021457673,2|2,0:0|0:0,0:0:0:0:
168,192,79159,6,0,P|124:184|64:216,1,112.500004291535,6|6,0:3|0:3,0:0:0:0:
20,284,79633,1,0,0:0:0:0:
4,164,79791,2,0,L|0:104,1,56.2500021457673,2|2,0:0|0:0,0:0:0:0:
56,48,80106,6,0,P|84:72|160:68,1,112.500004291535,6|6,0:0|0:3,0:0:0:0:
240,56,80580,2,0,L|232:112,1,56.2500021457673,0|2,0:0|0:0,0:0:0:0:
296,264,81054,6,0,P|316:212|296:160,1,112.500004291535,6|2,0:0|0:0,0:0:0:0:
232,111,81528,2,0,L|168:115,1,56.2500021457673,6|2,0:3|0:0,0:0:0:0:
28,192,82001,5,6,0:0:0:0:
92,240,82159,2,0,L|96:296,1,56.2500021457673,0|2,0:0|0:0,0:0:0:0:
28,192,82475,5,0,0:0:0:0:
172,264,82633,2,0,L|176:320,1,56.2500021457673,2|0,0:0|0:0,0:0:0:0:
240,368,82949,6,0,P|296:348|320:300,1,112.500004291535,6|2,0:3|0:0,0:0:0:0:
256,232,83422,1,0,0:0:0:0:
172,264,83580,2,0,L|176:328,1,56.2500021457673,2|2,0:0|0:0,0:0:0:0:
96,248,83896,6,0,P|132:196|184:188,1,112.500004291535,6|6,0:0|0:3,0:0:0:0:
240,136,84370,1,0,0:0:0:0:
292,200,84528,2,0,L|356:196,1,56.2500021457673,2|0,0:0|0:0,0:0:0:0:
428,152,84843,6,0,L|431:226,1,75,6|0,0:0|0:0,0:0:0:0:
348,196,85159,2,0,L|351:270,1,75,6|0,0:0|0:0,0:0:0:0:
268,232,85475,2,0,L|271:306,1,75,6|0,0:0|0:0,0:0:0:0:
216,364,85791,5,2,0:0:0:0:
188,336,85870,1,2,0:0:0:0:
152,324,85949,1,2,0:0:0:0:
112,328,86028,1,2,0:0:0:0:
84,352,86106,1,2,0:0:0:0:
0,336,86264,5,0,0:0:0:0:
56,200,86422,2,0,L|52:280,1,75,2|0,0:0|0:0,0:0:0:0:
32,128,86738,6,0,P|84:128|128:176,1,112.500004291535,6|2,0:0|0:0,0:0:0:0:
125,168,87370,2,0,L|181:160,1,56.2500021457673,2|0,0:0|0:0,0:0:0:0:
236,224,87685,6,0,L|228:304,1,75,6|0,0:0|0:0,0:0:0:0:
320,200,88001,2,0,L|312:280,1,75,6|0,0:3|0:0,0:0:0:0:
404,176,88317,2,0,L|396:256,1,75,8|0,0:0|0:0,0:0:0:0:
480,125,88633,6,0,L|488:205,1,75,6|0,0:0|0:0,0:0:0:0:
396,101,88949,2,0,L|404:181,1,75,6|0,0:3|0:0,0:0:0:0:
319,151,89265,2,0,L|312:77,1,75,8|0,0:0|0:0,0:0:0:0:
283,223,89580,5,6,0:0:0:0:
311,303,89738,1,0,0:0:0:0:
319,151,89896,1,8,0:0:0:0:
199,231,90054,1,0,0:0:0:0:
371,227,90212,1,8,0:0:0:0:
235,160,90369,1,0,0:0:0:0:
235,303,90528,5,8,0:0:0:0:
200,340,90606,1,8,0:0:0:0:
148,352,90685,1,8,0:0:0:0:
100,336,90764,1,8,0:0:0:0:
72,292,90843,2,0,L|76:248,3,37.5,8|8|8|8,0:0|0:0|0:0|0:0,0:0:0:0:
12,204,91159,2,0,L|16:160,3,37.5,2|2|2|2,0:0|0:0|0:0|0:0,0:0:0:0:
4,136,91475,6,0,P|76:160|40:68,1,225,6|0,0:0|0:0,0:0:0:0:
36,248,93054,2,0,L|40:288,1,37.5,2|2,0:3|0:3,0:0:0:0:
0,352,93370,6,0,B|44:324|108:348|108:348|164:372|220:344,1,225,6|0,0:3|0:0,0:0:0:0:
272,288,94949,2,0,P|276:256|272:236,1,37.5,2|2,0:3|0:3,0:0:0:0:
220,188,95264,6,0,P|280:204|328:180,1,112.5,6|0,0:0|0:3,0:0:0:0:
356,112,95896,1,2,0:3:0:0:
216,75,96212,6,0,L|220:191,1,112.5,6|0,0:0|0:3,0:0:0:0:
164,244,96843,1,2,0:3:0:0:
32,120,97159,6,0,L|28:44,2,75,6|0|2,0:0|0:0|0:3,0:0:0:0:
32,120,98106,6,0,P|80:152|136:144,1,112.500004291535,6|2,0:0|0:3,0:0:0:0:
132,145,98738,1,2,0:3:0:0:
200,196,98896,1,2,0:3:0:0:
260,144,99054,6,0,P|276:92|260:32,1,112.500004291535,6|2,0:0|0:3,0:0:0:0:
184,16,99528,2,0,L|128:20,1,56.2500021457673,0|8,0:0|0:0,0:0:0:0:
32,120,100001,6,0,B|32:164|32:164|40:188|40:188|40:240,1,112.500004291535,6|2,0:0|0:3,0:0:0:0:
40,231,100633,1,2,0:0:0:0:
108,288,100791,1,2,0:0:0:0:
168,228,100949,6,0,L|164:116,1,112.500004291535,6|2,0:0|0:3,0:0:0:0:
228,56,101422,1,2,0:0:0:0:
228,56,101501,1,0,0:0:0:0:
228,56,101580,2,0,P|256:72|284:72,1,56.2500021457673,2|0,0:0|0:0,0:0:0:0:
360,96,101896,6,0,L|356:36,1,56.2500021457673,6|0,0:0|0:0,0:0:0:0:
440,68,102212,2,0,L|443:124,1,56.2500021457673,2|0,0:3|0:0,0:0:0:0:
384,180,102528,1,2,0:0:0:0:
384,180,102685,1,2,0:0:0:0:
300,160,102843,6,0,B|260:152|260:152|236:160|236:160|188:152,2,112.500004291535,6|2|2,0:0|0:3|0:3,0:0:0:0:
182,261,103791,6,0,B|190:221|190:221|182:189|182:189|190:152,2,112.500004291535,6|2|2,0:0|0:3|0:3,0:0:0:0:
228,332,104738,5,6,0:0:0:0:
412,232,105054,1,6,0:0:0:0:
240,132,105370,1,6,0:0:0:0:
340,332,105685,1,6,0:0:0:0:
352,132,106001,1,6,0:0:0:0:
176,224,106317,1,6,0:0:0:0:
112,168,106633,6,0,B|76:172|76:172|36:168,1,75,8|0,0:0|0:0,0:0:0:0:
176,224,106949,2,0,B|180:260|180:260|176:300,1,75,8|0,0:0|0:0,0:0:0:0:
232,164,107264,2,0,B|268:160|268:160|308:164,1,75,8|0,0:0|0:0,0:0:0:0:
172,108,107580,6,0,B|168:72|168:72|172:32,1,75,8|0,0:0|0:0,0:0:0:0:
306,89,107896,2,0,B|310:125|310:125|306:163,1,75,8|0,0:0|0:0,0:0:0:0:
172,182,108212,2,0,B|168:146|168:146|172:106,1,75,8|0,0:0|0:0,0:0:0:0:
306,163,108528,6,0,B|310:199|310:199|306:237,1,75,8|0,0:0|0:0,0:0:0:0:
372,112,108843,2,0,B|408:108|408:108|448:112,1,75,8|0,0:0|0:0,0:0:0:0:
296,76,109159,2,0,B|292:40|292:40|296:0,1,75,8|0,0:0|0:0,0:0:0:0:
232,128,109475,6,0,B|196:132|196:132|156:128,1,75,8|0,0:0|0:0,0:0:0:0:
96,76,109791,1,8,0:0:0:0:
96,76,109949,1,0,0:0:0:0:
144,212,110106,1,8,0:0:0:0:
144,212,110264,1,0,0:0:0:0:
60,244,110422,5,8,0:0:0:0:
56,268,110501,1,0,0:0:0:0:
52,288,110580,1,8,0:0:0:0:
48,308,110659,1,0,0:0:0:0:
44,328,110738,2,0,L|88:324,3,37.5,8|0|8|0,0:0|0:0|0:0|0:0,0:0:0:0:
152,360,111054,2,0,L|196:356,3,37.5,8|0|8|0,0:0|0:0|0:0|0:0,0:0:0:0:
248,304,111370,6,0,B|240:244|240:244|248:212|248:212|240:152|240:152|280:196|344:188,1,262.5,6|0,0:3|0:0,0:0:0:0:
404,148,112001,6,0,P|412:116|408:88,1,56.25,2|0,0:0|0:0,0:0:0:0:
348,44,112317,6,0,P|288:72|212:48,1,150,6|6,0:0|0:3,0:0:0:0:
124,32,112791,1,2,0:0:0:0:
124,32,112870,1,2,0:0:0:0:
124,32,112949,2,0,L|128:108,1,75,2|0,0:0|0:0,0:0:0:0:
68,164,113264,6,0,B|60:200|60:200|64:240,1,75,6|0,0:0|0:0,0:0:0:0:
200,232,113580,2,0,B|203:194|203:194|195:158,1,75,6|0,0:3|0:0,0:0:0:0:
137,288,113896,1,2,0:0:0:0:
137,288,114054,1,2,0:0:0:0:
64,336,114212,6,0,B|112:320|112:320|212:328,1,150,6|6,0:0|0:3,0:0:0:0:
296,284,114685,2,0,B|300:264|300:264|296:244,1,37.5,2|2,0:0|0:0,0:0:0:0:
236,200,114843,2,0,L|160:208,1,75,2|0,0:0|0:0,0:0:0:0:
276,60,115159,6,0,L|283:134,1,75,6|0,0:0|0:0,0:0:0:0:
136,24,115475,2,0,L|212:16,1,75,6|0,0:3|0:0,0:0:0:0:
92,164,115791,2,0,L|84:89,1,75,2|2,0:0|0:0,0:0:0:0:
24,196,116106,6,0,P|52:228|152:208,1,150,6|6,0:0|0:3,0:0:0:0:
228,188,116580,1,0,0:0:0:0:
244,268,116738,2,0,L|240:348,1,75,6|0,0:0|0:0,0:0:0:0:
352,292,117054,6,0,B|320:316|320:316|352:344,1,75,6|0,0:0|0:0,0:0:0:0:
440,372,117370,2,0,L|444:292,1,75,6|0,0:3|0:0,0:0:0:0:
452,216,117685,1,6,0:0:0:0:
452,216,117843,1,0,0:0:0:0:
492,120,118001,6,0,P|460:164|364:168,1,150,6|6,0:0|0:3,0:0:0:0:
316,112,118475,1,0,0:0:0:0:
316,112,118633,2,0,L|320:32,1,75,6|0,0:0|0:0,0:0:0:0:
240,12,118949,6,0,P|204:52|140:60,1,112.5,6|0,0:0|0:0,0:0:0:0:
136,144,119264,6,0,P|190:153|227:193,1,112.5,6|0,0:0|0:0,0:0:0:0:
300,164,119580,6,0,L|308:44,1,112.5,6|0,0:0|0:0,0:0:0:0:
384,16,119896,6,0,P|420:64|384:140,1,150,6|6,0:0|0:3,0:0:0:0:
316,188,120371,1,2,0:0:0:0:
308,176,120450,1,2,0:0:0:0:
300,164,120528,2,0,L|220:168,1,75,2|0,0:0|0:0,0:0:0:0:
160,120,120843,6,0,P|124:100|36:156,1,150,6|6,0:0|0:3,0:0:0:0:
40,168,121238,1,0,0:0:0:0:
44,188,121317,1,2,0:3:0:0:
48,208,121396,1,0,0:0:0:0:
52,228,121475,2,0,B|108:220|108:220|136:228,1,75,6|0,0:0|0:0,0:0:0:0:
196,268,121791,5,6,0:0:0:0:
200,256,121870,1,2,0:0:0:0:
204,244,121949,1,2,0:0:0:0:
288,228,122106,2,0,B|328:236|328:236|368:232,1,75,6|0,0:3|0:0,0:0:0:0:
232,168,122422,2,0,B|222:128|222:128|201:93,1,75,6|0,0:3|0:0,0:0:0:0:
204,244,122738,6,0,B|176:274|176:274|159:310,1,75,6|0,0:0|0:0,0:0:0:0:
72,352,123054,2,0,B|57:321|57:321|29:290,1,75,6|0,0:3|0:0,0:0:0:0:
100,240,123370,1,2,0:0:0:0:
68,96,123528,1,2,0:0:0:0:
100,240,123685,6,0,B|140:220|176:236|176:236|212:252|248:236,1,150,6|6,0:0|0:0,0:0:0:0:
296,172,124159,1,0,0:0:0:0:
214,91,124317,2,0,P|210:131|214:167,1,75,2|0,0:3|0:0,0:0:0:0:
308,184,124633,6,0,L|384:176,1,75,6|0,0:0|0:0,0:0:0:0:
488,272,124949,2,0,L|412:264,1,75,6|0,0:0|0:0,0:0:0:0:
360,336,125264,2,0,B|323:325|323:325|287:335,1,75,2|0,0:3|0:0,0:0:0:0:
132,344,125580,6,0,B|168:354|168:354|204:344,1,75,6|0,0:0|0:0,0:0:0:0:
124,212,125896,2,0,B|97:239|97:239|89:275,1,75,6|0,0:0|0:0,0:0:0:0:
244,272,126212,2,0,B|236:235|236:235|209:208,1,75,6|0,0:0|0:0,0:0:0:0:
201,76,126528,6,0,B|164:65|164:65|128:75,1,75,6|0,0:0|0:0,0:0:0:0:
209,208,126844,2,0,B|235:180|235:180|243:144,1,75,6|0,0:0|0:0,0:0:0:0:
89,148,127160,2,0,B|96:184|96:184|123:211,1,75,6|0,0:0|0:0,0:0:0:0:
170,276,127475,5,6,0:0:0:0:
166,292,127554,1,0,0:0:0:0:
162,308,127633,1,2,0:0:0:0:
158,324,127712,1,0,0:0:0:0:
154,340,127791,2,0,L|196:336,3,37.5,2|0|2|0,0:0|0:0|0:0|0:0,0:0:0:0:
264,364,128106,2,0,L|301:360,3,37.5,2|0|2|0,0:0|0:0|0:0|0:0,0:0:0:0:
320,348,128422,5,2,0:0:0:0:
332,328,128501,1,0,0:0:0:0:
336,304,128580,1,2,0:0:0:0:
336,280,128659,1,0,0:0:0:0:
328,260,128738,2,0,L|365:256,3,37.5,2|0|2|0,0:0|0:0|0:0|0:0,0:0:0:0:
416,196,129054,2,0,L|453:192,1,37.5,8|0,0:0|0:0,0:0:0:0:
396,116,129212,2,0,L|358:119,1,37.5,8|0,0:0|0:0,0:0:0:0:
288,88,129370,6,0,B|240:64|180:64|132:96|108:144|108:208|124:248|164:276|212:292|276:288|320:240|300:176|300:176|240:176,1,562.5,6|0,0:0|0:0,0:0:0:0:
239,176,131896,1,2,0:0:0:0:
356,296,132054,1,2,0:0:0:0:
432,260,132214,6,0,B|440:220|440:220|432:144,1,112.500004291535,2|2,0:0|0:0,0:0:0:0:
368,100,132708,1,0,0:0:0:0:
312,156,132873,2,0,P|284:172|256:176,1,56.2500021457673,2|0,0:0|0:0,0:0:0:0:
200,124,133203,6,0,L|204:4,2,112.500004291535,2|2|2,0:0|0:0|0:0,0:0:0:0:
56,188,134288,6,0,P|32:224|44:296,1,112.500004291535,2|2,0:0|0:0,0:0:0:0:
188,376,135092,1,0,0:0:0:0:
280,244,135495,2,0,L|276:132,1,112.500004291535,2|2,0:0|0:0,0:0:0:0:
200,80,136387,1,2,0:0:0:0:
196,168,136609,1,2,0:0:0:0:
275,131,136864,5,2,0:0:0:0:
256,192,137068,12,0,140136,0:0:0:0:
